Интеллигентный торрент-трекер
canvas not supported
Нас вместе: 4 108 125

Варкрафт / Warcraft (2016) BDRip [H.264/1080p] [EN]


 
 
RSS
Начать новую тему   Ответить на тему    Торрент-трекер NNM-Club -> Зарубежное кино -> Фильмы в оригинале (HD)
Автор Сообщение
smaster67 ®
Модератор Видео
Покровитель талантов Uploader 300+
Стаж: 7 лет 5 мес.
Сообщений: 6265
Ratio: 180,416
Поблагодарили: 174068
100%
Варкрафт / Warcraft (2016) BDRip [H.264/1080p] [EN]

Производство: Китай, Канада, Япония, США
Жанр: фэнтези, боевик, приключения

Режиссер: Дункан Джонс
Актеры: Трэвис Фиммел, Пола Пэттон, Бен Фостер, Доминик Купер, Тоби Кеббелл, Бен Шнетцер, Роберт Казински, Клэнси Браун, Дэниэл Ву, Рут Негга, Анна Галвин, Каллум Кит Ренни

Описание:
Веками магия и неприступные стены защищали людей от любых напастей. Но древнее зло, побежденное и забытое тысячелетия назад, пробудилось.
В самом сердце королевства открылся темный портал, и раса невиданных существ наводнила земли Азерота. Так начались события, призванные навсегда изменить судьбу этого мира.



Продолжительность: 02:03:07
Качество видео: BDRip
Перевод: Отсутствует
Язык озвучки: Английский

Видео: AVC, 1920x792 (2.40:1), 8597 kbps, 23,976 fps, 0,236 bpp
Аудио: английский / AC3 / 5.1 / 48 kHz / 640 kbps /
Код:
General
Unique ID                              Warcraft.2016.1080p.mkv
Format                                   : Matroska
Format version                           : Version 4 / Version 2
File size                                : 7.95 GiB
Duration                                 : 2 h 3 min
Overall bit rate                         : 9 239 kb/s
Encoded date                             : UTC 2016-09-10 04:55:00
Writing application                      : mkvmerge v8.3.0 ('Over the Horizon') 64bit
Writing library                          : libebml v1.3.1 + libmatroska v1.4.2

Video
ID                                       : 1
Format                                   : AVC
Format/Info                              : Advanced Video Codec
Format profile                           : High@L4.1
Format settings, CABAC                   : Yes
Format settings, ReFrames                : 5 frames
Codec ID                                 : V_MPEG4/ISO/AVC
Duration                                 : 2 h 3 min
Bit rate                                 : 8 597 kb/s
Width                                    : 1 920 pixels
Height                                   : 792 pixels
Display aspect ratio                     : 2.40:1
Frame rate mode                          : Constant
Frame rate                               : 23.976 FPS
Color space                              : YUV
Chroma subsampling                       : 4:2:0
Bit depth                                : 8 bits
Scan type                                : Progressive
Bits/(Pixel*Frame)                       : 0.236
Stream size                              : 7.39 GiB (93%)
Writing library                          : x264 core 148 r2692 64f4e24
Encoding settings                        : cabac=1 / ref=5 / deblock=1:0:0 / analyse=0x3:0x133 / me=umh / subme=7 / psy=1 / psy_rd=1.00:0.00 / mixed_ref=1 / me_range=16 / chroma_me=1 / trellis=1 / 8x8dct=1 / cqm=0 / deadzone=21,11 / fast_pskip=0 / chroma_qp_offset=-2 / threads=25 / lookahead_threads=4 / sliced_threads=0 / nr=0 / decimate=1 / interlaced=0 / bluray_compat=0 / constrained_intra=0 / bframes=3 / b_pyramid=2 / b_adapt=1 / b_bias=0 / direct=1 / weightb=1 / open_gop=0 / weightp=2 / keyint=250 / keyint_min=23 / scenecut=40 / intra_refresh=0 / rc_lookahead=40 / rc=2pass / mbtree=1 / bitrate=8597 / ratetol=1.0 / qcomp=0.60 / qpmin=0 / qpmax=69 / qpstep=4 / cplxblur=20.0 / qblur=0.5 / ip_ratio=1.40 / aq=1:1.00
Language                                 : English
Default                                  : Yes
Forced                                   : No

Audio
ID                                       : 2
Format                                   : AC-3
Format/Info                              : Audio Coding 3
Mode extension                           : CM (complete main)
Format settings, Endianness              : Big
Codec ID                                 : A_AC3
Duration                                 : 2 h 3 min
Bit rate mode                            : Constant
Bit rate                                 : 640 kb/s
Channel(s)                               : 6 channels
Channel positions                        : Front: L C R, Side: L R, LFE
Sampling rate                            : 48.0 kHz
Frame rate                               : 31.250 FPS (1536 spf)
Compression mode                         : Lossy
Stream size                              : 564 MiB (7%)
Language                                 : English
Default                                  : Yes
Forced                                   : No

Menu
00:00:00.000                             : en:00:00:00.000
00:09:26.483                             : en:00:09:26.483
00:15:49.407                             : en:00:15:49.407
00:22:36.146                             : en:00:22:36.146
00:29:16.171                             : en:00:29:16.171
00:38:43.321                             : en:00:38:43.321
00:46:44.093                             : en:00:46:44.093
00:53:02.679                             : en:00:53:02.679
00:56:17.332                             : en:00:56:17.332
01:02:43.927                             : en:01:02:43.927
01:07:48.314                             : en:01:07:48.314
01:12:24.549                             : en:01:12:24.549
01:17:13.045                             : en:01:17:13.045
01:22:45.669                             : en:01:22:45.669
01:26:32.145                             : en:01:26:32.145
01:32:29.669                             : en:01:32:29.669
01:40:25.102                             : en:01:40:25.102
01:47:38.118                             : en:01:47:38.118
01:51:12.833                             : en:01:51:12.833
01:53:58.832                             : en:01:53:58.832

Скриншоты:



Время раздачи: с 13:00 до 23:00
[NNMClub.to]_Warcraft.2016.1080p.mkv.torrent
 Торрент: Золотая раздача  Зарегистрирован
 
Примагнититься
Free Leech
Зарегистрируйтесь и скачайте торрент!
39,9 KB
 Зарегистрирован:   10 Сен 2016 10:11:47
 Размер:   7,95 GB  (
 Рейтинг:   4,7 (Голосов: 11)
 Поблагодарили:   50
 Проверка:   Оформление проверено модератором 10 Сен 2016 10:12:18
Как cкачать  ·  Как раздать  ·  Правильно оформить  ·  Поднять ратио!  
Показать сообщения:   
Начать новую тему   Ответить на тему    Торрент-трекер NNM-Club -> Зарубежное кино -> Фильмы в оригинале (HD) Часовой пояс: GMT + 3
Страница 1 из 1