Интеллигентный торрент-трекер
canvas not supported
Нас вместе: 4 310 843

Черепашки-ниндзя 2 / Teenage Mutant Ninja Turtles: Out of the Shadows (2016) BDRemux [H.264/1080p] [EN / EN, Fr, Sp, Po Sub]


 
 
RSS
Начать новую тему   Ответить на тему    Торрент-трекер NNM-Club -> Зарубежное кино -> Фильмы в оригинале (HD)
Автор Сообщение
smaster67 ®
Модератор Видео
Покровитель талантов Uploader 300+
Стаж: 7 лет 8 мес.
Сообщений: 6591
Ratio: 193,041
Поблагодарили: 190170
100%
Черепашки-ниндзя 2 / Teenage Mutant Ninja Turtles: Out of the Shadows (2016) BDRemux [H.264/1080p] [EN / EN, Fr, Sp, Po Sub]

Производство: США, Гонконг, Китай, Канада
Жанр: фантастика, боевик, комедия, приключения

Режиссер: Дэйв Грин
Актеры: Меган Фокс, Уилл Арнетт, Лора Линни, Стивен Амелл, Ноэль Фишер, Джереми Ховард, Пит Пложек, Алан Ричсон, Тайлер Перри, Брайан Ти, Стефен Фаррелли, Гари Энтони Уильямс

Описание:
Долгое время черепашки-ниндзя скрывались от людей в лабиринтах городской канализации. На протяжении нескольких лет учитель Сплинтер обучал их боевым искусствам и прививал им чувство справедливости. В один прекрасный момент им пришлось подняться наверх, чтобы спасти Нью-Йорк от Шредера, предводителя Клана Футов, захватившего власть в Нью-Йорке. Вместе с отважным репортером Эйприл и ее оператором Верном, бесстрашные воины смогли одержать победу и очистить любимый город от преступности. Леонардо, Микеланджело, Рафаэль и Донателло нашли свое предназначение в этом мире и стали защитниками своего города. Они навели порядок в Нью-Йорке и с чистой совестью могли отправиться на покой, но однажды им вновь пришлось столкнуться с могущественным врагом, угрожающим их городу.



Продолжительность: 01:52:07
Качество видео: BDRemux
Перевод: Отсутствует
Язык озвучки: Английский
Язык субтитров: английский, французский, испанский, португальский
Вид субтитров: Вшитые

Видео: AVC, 1920x1080 (16:9), 25838 kbps, 23,976 fps, 0,520 bpp
Аудио №1: английский / Atmos / TrueHD / 5080 kbps / 7.1 / 24 bits
Аудио №2: английский / AC3 / 5.1 / 48 kHz / 640 kbps /
Код:
General
Unique ID
Complete name                            : Teenage.Mutant.Ninja.Turtles.Out.of.the.Shadows.2016.BluRay.1080p.TrueHD.Atmos.7.1.AVC.REMUX-FraMeSToR\Teenage.Mutant.Ninja.Turtles.Out.of.the.Shadows.2016.BluRay.1080p.TrueHD.Atmos.7.1.AVC.REMUX-FraMeSToR.mkv
Format                                   : Matroska
Format version                           : Version 4 / Version 2
File size                                : 24.9 GiB
Duration                                 : 1 h 52 min
Overall bit rate mode                    : Variable
Overall bit rate                         : 31.8 Mb/s
Movie name                               : Teenage Mutant Ninja Turtles: Out of the Shadows
Encoded date                             : UTC 2016-09-09 21:29:38
Writing application                      : mkvmerge v9.4.0 ('Knurl') 64bit
Writing library                          : libebml v1.3.4 + libmatroska v1.4.5

Video
ID                                       : 1
Format                                   : AVC
Format/Info                              : Advanced Video Codec
Format profile                           : High@L4.1
Format settings, CABAC                   : Yes
Format settings, ReFrames                : 4 frames
Codec ID                                 : V_MPEG4/ISO/AVC
Duration                                 : 1 h 52 min
Bit rate mode                            : Variable
Bit rate                                 : 25.8 Mb/s
Maximum bit rate                         : 29.0 Mb/s
Width                                    : 1 920 pixels
Height                                   : 1 080 pixels
Display aspect ratio                     : 16:9
Frame rate mode                          : Constant
Frame rate                               : 23.976 (24000/1001) FPS
Color space                              : YUV
Chroma subsampling                       : 4:2:0
Bit depth                                : 8 bits
Scan type                                : Progressive
Bits/(Pixel*Frame)                       : 0.520
Stream size                              : 20.2 GiB (81%)
Default                                  : Yes
Forced                                   : No

Audio #1
ID                                       : 2
Format                                   : Atmos / TrueHD
Codec ID                                 : A_TRUEHD
Duration                                 : 1 h 52 min
Bit rate mode                            : Variable
Bit rate                                 : 5 081 kb/s
Maximum bit rate                         : 8 040 kb/s
Channel(s)                               : Object Based / 8 channels
Channel positions                        : Object Based / Front: L C R, Side: L R, Back: L R, LFE
Sampling rate                            :  / 48.0 kHz
Frame rate                               : 1 200.000 FPS (40 spf)
Compression mode                         : Lossless
Stream size                              : 3.98 GiB (16%)
Title                                    : TrueHD Atmos 7.1
Language                                 : English
Default                                  : Yes
Forced                                   : No

Audio #2
ID                                       : 3
Format                                   : AC-3
Format/Info                              : Audio Coding 3
Mode extension                           : CM (complete main)
Format settings, Endianness              : Big
Codec ID                                 : A_AC3
Duration                                 : 1 h 52 min
Bit rate mode                            : Constant
Bit rate                                 : 640 kb/s
Channel(s)                               : 6 channels
Channel positions                        : Front: L C R, Side: L R, LFE
Sampling rate                            : 48.0 kHz
Frame rate                               : 31.250 FPS (1536 spf)
Compression mode                         : Lossy
Stream size                              : 513 MiB (2%)
Title                                    : AC3 5.1-EX
Language                                 : English
Default                                  : No
Forced                                   : No

Text #1
ID                                       : 4
Format                                   : PGS
Codec ID                                 : S_HDMV/PGS
Codec ID/Info                            : Picture based subtitle format used on BDs/HD-DVDs
Duration                                 : 1 h 42 min
Bit rate                                 : 41.1 kb/s
Count of elements                        : 3016
Stream size                              : 30.2 MiB (0%)
Title                                    : English
Language                                 : English
Default                                  : Yes
Forced                                   : No

Text #2
ID                                       : 5
Format                                   : PGS
Codec ID                                 : S_HDMV/PGS
Codec ID/Info                            : Picture based subtitle format used on BDs/HD-DVDs
Duration                                 : 1 h 43 min
Bit rate                                 : 49.1 kb/s
Count of elements                        : 3758
Stream size                              : 36.3 MiB (0%)
Title                                    : English (SDH)
Language                                 : English
Default                                  : No
Forced                                   : No

Text #3
ID                                       : 6
Format                                   : PGS
Codec ID                                 : S_HDMV/PGS
Codec ID/Info                            : Picture based subtitle format used on BDs/HD-DVDs
Duration                                 : 1 h 43 min
Bit rate                                 : 39.9 kb/s
Count of elements                        : 3422
Stream size                              : 29.4 MiB (0%)
Title                                    : French
Language                                 : French
Default                                  : No
Forced                                   : No

Text #4
ID                                       : 7
Format                                   : PGS
Codec ID                                 : S_HDMV/PGS
Codec ID/Info                            : Picture based subtitle format used on BDs/HD-DVDs
Duration                                 : 1 h 43 min
Bit rate                                 : 37.2 kb/s
Count of elements                        : 2738
Stream size                              : 27.5 MiB (0%)
Title                                    : Spanish (Latin American)
Language                                 : Spanish
Default                                  : No
Forced                                   : No

Text #5
ID                                       : 8
Format                                   : PGS
Codec ID                                 : S_HDMV/PGS
Codec ID/Info                            : Picture based subtitle format used on BDs/HD-DVDs
Duration                                 : 1 h 43 min
Bit rate                                 : 31.8 kb/s
Count of elements                        : 2740
Stream size                              : 23.5 MiB (0%)
Title                                    : Portuguese (Brazilian)
Language                                 : Portuguese
Default                                  : No
Forced                                   : No

Menu
00:00:00.000                             : en:Chapter 1
00:05:55.563                             : en:Chapter 2
00:12:18.571                             : en:Chapter 3
00:18:53.507                             : en:Chapter 4
00:26:38.096                             : en:Chapter 5
00:33:14.492                             : en:Chapter 6
00:38:56.459                             : en:Chapter 7
00:44:11.190                             : en:Chapter 8
00:49:40.310                             : en:Chapter 9
00:55:40.628                             : en:Chapter 10
01:02:01.259                             : en:Chapter 11
01:04:51.971                             : en:Chapter 12
01:14:32.759                             : en:Chapter 13
01:21:18.415                             : en:Chapter 14
01:28:10.159                             : en:Chapter 15
01:36:58.229                             : en:Chapter 16
01:41:52.022                             : en:Chapter 17
01:46:20.874                             : en:Chapter 18

Скриншоты:



Время раздачи: с 13:00 до 23:00
[NNMClub.to]_Teenage.Mutant.Ninja.Turtles.Out.of.the.Shadows.2016.BluRay.1080p.TrueHD.Atmos.7.1.AVC.REMUX-FraMeSToR.mkv.torrent
 Торрент: Золотая раздача  Зарегистрирован
 
Примагнититься
Free Leech
Зарегистрируйтесь и скачайте торрент!
125 KB
 Зарегистрирован:   10 Сен 2016 14:57:00
 Размер:   24,9 GB  (
 Рейтинг:   4,6 (Голосов: 13)
 Поблагодарили:   55
 Проверка:   Оформление проверено модератором 10 Сен 2016 14:57:58
Как cкачать  ·  Как раздать  ·  Правильно оформить  ·  Поднять ратио!  
DARKS​IDERS​354​
Стаж: 1 год 10 мес.
Сообщений: 11
Ratio: 7,791
48.5%
russia.gif
приветствую тебя релизер) подскажи мне пожалуйста какой кодек читает аудио дорожку dolby true hd? просто мой плеер splash pro ex не выдает звука а на английском этот фильм не вижу смысла смотреть) жду ответа
lexandros
RG NNM Club Video
Куратор Видео
 
Стаж: 3 года 9 мес.
Сообщений: 1986
Ratio: 430,333
Поблагодарили: 25312
100%
russia.gif
DARKSIDERS354
Вообще то, здесь обе дорожки английские.
Вторая именно для таких как вы, у кого проблемы с Atmos. В остальном дорожки идентичны (кроме качества, конечно)

_________________
Все исправлено? Напишите в ЛС. Ссылка на релиз в теле (а не в теме) сообщения - обязательна.
Набор модераторов в категорию Видео | Правила оформления релизов в разделе Видео | Тех. регламент размещения материалов в разделе Видео
Показать сообщения:   
Начать новую тему   Ответить на тему    Торрент-трекер NNM-Club -> Зарубежное кино -> Фильмы в оригинале (HD) Часовой пояс: GMT + 3
Страница 1 из 1