Интеллигентный торрент-трекер
canvas not supported
Нас вместе: 4 348 424

Варкрафт / Warcraft (2016) BDRemux [H.264/1080p] [EN / EN Sub]


 
 
RSS
Начать новую тему   Ответить на тему    Торрент-трекер NNM-Club -> Зарубежное кино -> Фильмы в оригинале (HD)
Автор Сообщение
smaster67 ®
Модератор Видео
Покровитель талантов Uploader 300+
Стаж: 7 лет 10 мес.
Сообщений: 6629
Ratio: 198,427
Поблагодарили: 192325
100%
Варкрафт / Warcraft (2016) BDRemux [H.264/1080p] [EN / EN Sub]

Производство: Китай, Канада, Япония, США
Жанр: фэнтези, боевик, приключения

Режиссер: Дункан Джонс
Актеры: Трэвис Фиммел, Пола Пэттон, Бен Фостер, Доминик Купер, Тоби Кеббелл, Бен Шнетцер, Роберт Казински, Клэнси Браун, Дэниэл Ву, Рут Негга, Анна Галвин, Каллум Кит Ренни

Описание:
Веками магия и неприступные стены защищали людей от любых напастей. Но древнее зло, побежденное и забытое тысячелетия назад, пробудилось.
В самом сердце королевства открылся темный портал, и раса невиданных существ наводнила земли Азерота. Так начались события, призванные навсегда изменить судьбу этого мира.



Продолжительность: 02:03:07
Качество видео: BDRemux
Перевод: Отсутствует
Язык озвучки: Английский
Язык субтитров: английский
Вид субтитров: Вшитые

Видео: AVC, 1920x1080 (16:9), 21176 kbps, 23,976 fps, 0,426 bpp
Аудио: Atmos / TrueHD / 4834 kbps / 7.1
Код:
General
Unique ID
Complete name                            : Warcraft.2016.REMUX.1080p.BluRay.AVC.TrueHD.7.1.Atmos-iFT\Warcraft.2016.REMUX.1080p.BluRay.AVC.TrueHD.7.1.Atmos-iFT.mkv
Format                                   : Matroska
Format version                           : Version 4 / Version 2
File size                                : 22.4 GiB
Duration                                 : 2 h 3 min
Overall bit rate mode                    : Variable
Overall bit rate                         : 26.1 Mb/s
Encoded date                             : UTC 2016-09-10 08:18:51
Writing application                      : mkvmerge v8.9.0 ('Father Daughter') 64bit
Writing library                          : libebml v1.3.3 + libmatroska v1.4.4

Video
ID                                       : 1
Format                                   : AVC
Format/Info                              : Advanced Video Codec
Format profile                           : High@L4.1
Format settings, CABAC                   : Yes
Format settings, ReFrames                : 4 frames
Codec ID                                 : V_MPEG4/ISO/AVC
Duration                                 : 2 h 3 min
Bit rate mode                            : Variable
Bit rate                                 : 21.2 Mb/s
Maximum bit rate                         : 31.5 Mb/s
Width                                    : 1 920 pixels
Height                                   : 1 080 pixels
Display aspect ratio                     : 16:9
Frame rate mode                          : Constant
Frame rate                               : 23.976 (24000/1001) FPS
Color space                              : YUV
Chroma subsampling                       : 4:2:0
Bit depth                                : 8 bits
Scan type                                : Progressive
Bits/(Pixel*Frame)                       : 0.426
Stream size                              : 18.2 GiB (81%)
Default                                  : Yes
Forced                                   : No

Audio
ID                                       : 2
Format                                   : Atmos / TrueHD
Codec ID                                 : A_TRUEHD
Duration                                 : 2 h 3 min
Bit rate mode                            : Variable
Bit rate                                 : 4 834 kb/s
Maximum bit rate                         : 7 893 kb/s
Channel(s)                               : Object Based / 8 channels
Channel positions                        : Object Based / Front: L C R, Side: L R, Back: L R, LFE
Sampling rate                            :  / 48.0 kHz
Frame rate                               : 1 200.000 FPS (40 spf)
Compression mode                         : Lossless
Stream size                              : 4.16 GiB (19%)
Default                                  : Yes
Forced                                   : No

Text
ID                                       : 3
Format                                   : PGS
Muxing mode                              : zlib
Codec ID                                 : S_HDMV/PGS
Codec ID/Info                            : Picture based subtitle format used on BDs/HD-DVDs
Duration                                 : 1 h 53 min
Bit rate                                 : 9 382 b/s
Count of elements                        : 2787
Stream size                              : 7.63 MiB (0%)
Default                                  : Yes
Forced                                   : No

Menu
00:00:00.000                             : en:Chapter 01
00:09:26.482                             : en:Chapter 02
00:15:49.407                             : en:Chapter 03
00:22:36.145                             : en:Chapter 04
00:29:16.171                             : en:Chapter 05
00:38:43.321                             : en:Chapter 06
00:46:44.093                             : en:Chapter 07
00:53:02.679                             : en:Chapter 08
00:56:17.332                             : en:Chapter 09
01:02:43.927                             : en:Chapter 10
01:07:48.314                             : en:Chapter 11
01:12:24.549                             : en:Chapter 12
01:17:13.045                             : en:Chapter 13
01:22:45.669                             : en:Chapter 14
01:26:32.145                             : en:Chapter 15
01:32:29.669                             : en:Chapter 16
01:40:25.102                             : en:Chapter 17
01:47:38.118                             : en:Chapter 18
01:51:12.833                             : en:Chapter 19
01:53:58.832                             : en:Chapter 20

Скриншоты:



Время раздачи: с 13:00 до 23:00
[NNMClub.to]_Warcraft.2016.REMUX.1080p.BluRay.AVC.TrueHD.7.1.Atmos-iFT.mkv.torrent
 Торрент: Золотая раздача  Зарегистрирован
 
Примагнититься
Free Leech
Зарегистрируйтесь и скачайте торрент!
112 KB
 Зарегистрирован:   10 Сен 2016 16:38:20
 Размер:   22,4 GB  (
 Рейтинг:   4,6 (Голосов: 19)
 Поблагодарили:   59
 Проверка:   Оформление проверено модератором 10 Сен 2016 16:39:01
Как cкачать  ·  Как раздать  ·  Правильно оформить  ·  Поднять ратио!  
fred333
Стаж: 6 лет 8 мес.
Сообщений: 262
Ratio: 7,039
100%
Откуда: из прошлого
ussr.gif
Спасибо!!!Будьте добры с переводом можно.
Lodas1
Стаж: 6 лет 8 мес.
Сообщений: 33
Ratio: 1,493
0.2%
Людей ждущих русские сабы под этот фильм еще больше)
typ4uk777
Стаж: 3 года 8 мес.
Сообщений: 2
Ratio: 10,347
0%
сори за глупый вопрос - а будет 3д? оригинал то я и ждал) но хотелось бы узнать0
Jacksmet
Стаж: 7 лет 9 мес.
Сообщений: 9
Ratio: 1,927
0.56%
ukraine.gif
Никто не знает почему у меня воспроизводится без звука?
Показать сообщения:   
Начать новую тему   Ответить на тему    Торрент-трекер NNM-Club -> Зарубежное кино -> Фильмы в оригинале (HD) Часовой пояс: GMT + 3
Страница 1 из 1