Интеллигентный торрент-трекер
canvas not supported
Нас вместе: 4 301 408

Чудеса с небес / Miracles from Heaven (2016) BDRip [H.264/1080p] [EN / EN, Ar, Fr, Po, Sp, Du Sub]


 
 
RSS
Начать новую тему   Ответить на тему    Торрент-трекер NNM-Club -> Зарубежное кино -> Фильмы в оригинале (HD)
Автор Сообщение
smaster67 ®
Модератор Видео
Покровитель талантов Uploader 300+
Стаж: 7 лет 8 мес.
Сообщений: 6578
Ratio: 192,104
Поблагодарили: 189521
100%
Чудеса с небес / Miracles from Heaven (2016) BDRip [H.264/1080p] [EN / EN, Ar, Fr, Po, Sp, Du Sub]

Производство: США
Жанр: драма

Режиссер: Патрисия Ригген
Актеры: Дженнифер Гарнер, Кайли Роджерс, Мартин Хендерсон, Брайтон Шарбино, Кортни Фанслер, Куин Латифа, Эухенио Дербес, Келли Коллинз, Джон Кэрролл Линч, Брэндон Спинк, Рода Гриффис

Описание:
Удивительная история, в которую невозможно поверить, не увидев собственными глазами. Когда кажется все потеряно, и впереди только боль и отчаяние, небеса дарят надежду тем, кто верит.



Продолжительность: 01:49:01
Качество видео: BDRip 1080p
Перевод: Отсутствует
Язык озвучки: Английский
Язык субтитров: английский, арабский, французский, польский, испанский, нидерландский
Вид субтитров: Вшитые

Видео: AVC, 1920x1036 (1.85:1), 20027 kbps, 23,976 fps, 0,420 bpp
Аудио: английский / DTS-HD / 5.1 / 48 kHz / 2101 kbps / 16 bit (Core: 5.1 / 48 kHz / 1509 kbps / 16 bit)
Код:
General
Unique ID                             Miracles From Heaven 2016 1080p BluRay DTS-HD MA 5.1 x264-BluntSlayer\Miracles From Heaven 2016 1080p BluRay DTS-HD MA 5.1 x264-BluntSlayer.mkv
Format                                   : Matroska
Format version                           : Version 4 / Version 2
File size                                : 16.9 GiB
Duration                                 : 1 h 49 min
Overall bit rate                         : 22.3 Mb/s
Encoded date                             : UTC 2016-09-11 00:25:56
Writing application                      : mkvmerge v9.3.1 ('Mask Machine') 64bit
Writing library                          : libebml v1.3.4 + libmatroska v1.4.5

Video
ID                                       : 1
Format                                   : AVC
Format/Info                              : Advanced Video Codec
Format profile                           : High@L4.1
Format settings, CABAC                   : Yes
Format settings, ReFrames                : 4 frames
Codec ID                                 : V_MPEG4/ISO/AVC
Duration                                 : 1 h 49 min
Bit rate                                 : 20.0 Mb/s
Width                                    : 1 920 pixels
Height                                   : 1 036 pixels
Display aspect ratio                     : 1.85:1
Frame rate mode                          : Constant
Frame rate                               : 23.976 (24000/1001) FPS
Color space                              : YUV
Chroma subsampling                       : 4:2:0
Bit depth                                : 8 bits
Scan type                                : Progressive
Bits/(Pixel*Frame)                       : 0.420
Stream size                              : 15.2 GiB (90%)
Title                                    : BluntSlayer
Writing library                          : x264 core 148 r2638 7599210
Encoding settings                        : cabac=1 / ref=4 / deblock=1:-3:-3 / analyse=0x3:0x133 / me=umh / subme=11 / psy=1 / psy_rd=1.10:0.25 / mixed_ref=1 / me_range=64 / chroma_me=1 / trellis=2 / 8x8dct=1 / cqm=0 / deadzone=21,11 / fast_pskip=0 / chroma_qp_offset=-4 / threads=6 / lookahead_threads=1 / sliced_threads=0 / nr=0 / decimate=1 / interlaced=0 / bluray_compat=0 / constrained_intra=0 / bframes=16 / b_pyramid=2 / b_adapt=2 / b_bias=0 / direct=3 / weightb=1 / open_gop=0 / weightp=2 / keyint=240 / keyint_min=23 / scenecut=40 / intra_refresh=0 / rc_lookahead=150 / rc=2pass / mbtree=1 / bitrate=20027 / ratetol=1.0 / qcomp=0.60 / qpmin=0 / qpmax=69 / qpstep=4 / cplxblur=20.0 / qblur=0.5 / vbv_maxrate=62500 / vbv_bufsize=78125 / nal_hrd=none / filler=0 / ip_ratio=1.40 / aq=2:1.00
Language                                 : English
Default                                  : Yes
Forced                                   : No

Audio
ID                                       : 2
Format                                   : DTS
Format/Info                              : Digital Theater Systems
Format profile                           : MA / Core
Mode                                     : 16
Format settings, Endianness              : Big
Codec ID                                 : A_DTS
Duration                                 : 1 h 49 min
Bit rate mode                            : Variable / Constant
Bit rate                                 : 2 102 kb/s / 1 509 kb/s
Channel(s)                               : 6 channels
Channel positions                        : Front: L C R, Side: L R, LFE
Sampling rate                            : 48.0 kHz
Frame rate                               : 93.750 FPS (512 spf)
Bit depth                                : 16 bits
Compression mode                         : Lossless / Lossy
Stream size                              : 1.60 GiB (9%)
Language                                 : English
Default                                  : Yes
Forced                                   : No

Text #1
ID                                       : 3
Format                                   : PGS
Muxing mode                              : zlib
Codec ID                                 : S_HDMV/PGS
Codec ID/Info                            : Picture based subtitle format used on BDs/HD-DVDs
Duration                                 : 1 h 42 min
Bit rate                                 : 13.0 kb/s
Count of elements                        : 3384
Stream size                              : 9.57 MiB (0%)
Language                                 : English
Default                                  : Yes
Forced                                   : No

Text #2
ID                                       : 4
Format                                   : PGS
Muxing mode                              : zlib
Codec ID                                 : S_HDMV/PGS
Codec ID/Info                            : Picture based subtitle format used on BDs/HD-DVDs
Duration                                 : 1 h 43 min
Bit rate                                 : 15.2 kb/s
Count of elements                        : 3734
Stream size                              : 11.3 MiB (0%)
Language                                 : English
Default                                  : No
Forced                                   : No

Text #3
ID                                       : 5
Format                                   : PGS
Muxing mode                              : zlib
Codec ID                                 : S_HDMV/PGS
Codec ID/Info                            : Picture based subtitle format used on BDs/HD-DVDs
Duration                                 : 1 h 43 min
Bit rate                                 : 10.0 kb/s
Count of elements                        : 3010
Stream size                              : 7.45 MiB (0%)
Language                                 : Arabic
Default                                  : No
Forced                                   : No

Text #4
ID                                       : 6
Format                                   : PGS
Muxing mode                              : zlib
Codec ID                                 : S_HDMV/PGS
Codec ID/Info                            : Picture based subtitle format used on BDs/HD-DVDs
Duration                                 : 1 h 43 min
Bit rate                                 : 12.3 kb/s
Count of elements                        : 3422
Stream size                              : 9.12 MiB (0%)
Language                                 : Dutch
Default                                  : No
Forced                                   : No

Text #5
ID                                       : 7
Format                                   : PGS
Muxing mode                              : zlib
Codec ID                                 : S_HDMV/PGS
Codec ID/Info                            : Picture based subtitle format used on BDs/HD-DVDs
Duration                                 : 1 h 47 min
Bit rate                                 : 11.8 kb/s
Count of elements                        : 3438
Stream size                              : 9.13 MiB (0%)
Language                                 : French
Default                                  : No
Forced                                   : No

Text #6
ID                                       : 8
Format                                   : PGS
Muxing mode                              : zlib
Codec ID                                 : S_HDMV/PGS
Codec ID/Info                            : Picture based subtitle format used on BDs/HD-DVDs
Duration                                 : 1 h 43 min
Bit rate                                 : 11.4 kb/s
Count of elements                        : 2686
Stream size                              : 8.46 MiB (0%)
Language                                 : Polish
Default                                  : No
Forced                                   : No

Text #7
ID                                       : 9
Format                                   : PGS
Muxing mode                              : zlib
Codec ID                                 : S_HDMV/PGS
Codec ID/Info                            : Picture based subtitle format used on BDs/HD-DVDs
Duration                                 : 1 h 43 min
Bit rate                                 : 9 679 b/s
Count of elements                        : 2746
Stream size                              : 7.20 MiB (0%)
Language                                 : Spanish
Default                                  : No
Forced                                   : No

Text #8
ID                                       : 10
Format                                   : PGS
Muxing mode                              : zlib
Codec ID                                 : S_HDMV/PGS
Codec ID/Info                            : Picture based subtitle format used on BDs/HD-DVDs
Duration                                 : 1 h 45 min
Bit rate                                 : 14.8 kb/s
Count of elements                        : 3450
Stream size                              : 11.1 MiB (0%)
Language                                 : English
Default                                  : No
Forced                                   : No

Text #9
ID                                       : 11
Format                                   : PGS
Muxing mode                              : zlib
Codec ID                                 : S_HDMV/PGS
Codec ID/Info                            : Picture based subtitle format used on BDs/HD-DVDs
Duration                                 : 1 h 45 min
Bit rate                                 : 13.6 kb/s
Count of elements                        : 3450
Stream size                              : 10.2 MiB (0%)
Language                                 : Dutch
Default                                  : No
Forced                                   : No

Text #10
ID                                       : 12
Format                                   : PGS
Muxing mode                              : zlib
Codec ID                                 : S_HDMV/PGS
Codec ID/Info                            : Picture based subtitle format used on BDs/HD-DVDs
Duration                                 : 1 h 45 min
Bit rate                                 : 13.7 kb/s
Count of elements                        : 3450
Stream size                              : 10.3 MiB (0%)
Language                                 : French
Default                                  : No
Forced                                   : No

Text #11
ID                                       : 13
Format                                   : PGS
Muxing mode                              : zlib
Codec ID                                 : S_HDMV/PGS
Codec ID/Info                            : Picture based subtitle format used on BDs/HD-DVDs
Duration                                 : 1 h 45 min
Bit rate                                 : 13.3 kb/s
Count of elements                        : 3450
Stream size                              : 10.0 MiB (0%)
Language                                 : Spanish
Default                                  : No
Forced                                   : No

Menu
00:00:00.000                             : en:Chapter 1
00:06:10.161                             : en:Chapter 2
00:12:48.100                             : en:Chapter 3
00:19:17.030                             : en:Chapter 4
00:26:49.524                             : en:Chapter 5
00:33:38.725                             : en:Chapter 6
00:39:39.460                             : en:Chapter 7
00:45:47.703                             : en:Chapter 8
00:53:37.130                             : en:Chapter 9
01:00:58.488                             : en:Chapter 10
01:08:36.028                             : en:Chapter 11
01:16:13.277                             : en:Chapter 12
01:23:13.571                             : en:Chapter 13
01:29:06.507                             : en:Chapter 14
01:35:59.587                             : en:Chapter 15
01:43:04.178                             : en:Chapter 16

Скриншоты:



Время раздачи: с 13:00 до 23:00
[NNMClub.to]_Miracles From Heaven 2016 1080p BluRay DTS-HD MA 5.1 x264-BluntSlayer.mkv.torrent
 Торрент: Золотая раздача  Зарегистрирован
 
Примагнититься

Зарегистрируйтесь и скачайте торрент!
85 KB
 Зарегистрирован:   11 Сен 2016 14:19:41
 Размер:   16,9 GB  (
 Рейтинг:    (Голосов: 4)
 Поблагодарили:   27
 Проверка:   Оформление проверено модератором 11 Сен 2016 14:20:38
Как cкачать  ·  Как раздать  ·  Правильно оформить  ·  Поднять ратио!  
Orey88
Стаж: 2 года 2 мес.
Сообщений: 128
Ratio: 0,985
Поблагодарили: 11
0.36%
israel.gif
Сильно замешан на религии фильмец?
SubМарина
Uploader 200+
Стаж: 6 лет 5 мес.
Сообщений: 590
Ratio: 1811,631
Раздал: 215,7 TB
100%
Откуда: Севас​топол​ь​
ussr.gif
Orey88 писал(а): Перейти к сообщению
Сильно замешан на религии фильмец?

Очень сильно замешан! В двух словах: если не веруешь - сдохнешь однозначно! ежели искренне, истово, до безумия веруешь - нууу, может быть, возможно и не помрёшь... Концовка не то, чтобы предсказуема, но какая-то не очень внятная, с акцентом на "если веруешь!" Особенно не понимаю, как Дж.Гарнер "подписалась" на данный проект - видать, просто от безысходности, ничё толкового не предлагают ей в последнее время. Сыграла, кстати, также - на отъ.бись, отработала гонорар..
Спасибо за релиз!

_________________
lojcin

Online
Стаж: 3 года 2 мес.
Сообщений: 796
Ratio: 94,186
Раздал: 18,23 TB
Поблагодарили: 16
100%
Откуда: Киев
ukraine.gif
Orey88 писал(а): Перейти к сообщению
Сильно замешан на религии фильмец?

А вы знаете или понимаете чем и в чём различие религии от истинной веры в Отца, Сына и Святого Духа?

Добавлено спустя 2 минуты 2 секунды:

SubМарина писал(а): Перейти к сообщению
Orey88 писал(а): Перейти к сообщению
Сильно замешан на религии фильмец?

Очень сильно замешан! В двух словах: если не веруешь - сдохнешь однозначно! ежели искренне, истово, до безумия веруешь - нууу, может быть, возможно и не помрёшь... Концовка не то, чтобы предсказуема, но какая-то не очень внятная, с акцентом на "если веруешь!" Особенно не понимаю, как Дж.Гарнер "подписалась" на данный проект - видать, просто от безысходности, ничё толкового не предлагают ей в последнее время. Сыграла, кстати, также - на отъ.бись, отработала гонорар..
Спасибо за релиз!

Иисус Христос сказал(да и вся Библия об этом говорит) "По вере вашей вам и дано будет"(как уверуем так и получаем и получим).

_________________
И так во всём как хотите, чтобы с вами поступали люди, так поступайте и вы с ними.
Показать сообщения:   
Начать новую тему   Ответить на тему    Торрент-трекер NNM-Club -> Зарубежное кино -> Фильмы в оригинале (HD) Часовой пояс: GMT + 3
Страница 1 из 1