Интеллигентный торрент-трекер
canvas not supported
Нас вместе: 4 303 844

Полтора шпиона / Central Intelligence (2016) BDRip [H.264/720p][Unrated] [EN / EN, Fr, Sp Sub]


 
 
RSS
Начать новую тему   Ответить на тему    Торрент-трекер NNM-Club -> Зарубежное кино -> Фильмы в оригинале (HD)
Автор Сообщение
smaster67 ®
Модератор Видео
Покровитель талантов Uploader 300+
Стаж: 7 лет 8 мес.
Сообщений: 6586
Ratio: 192,455
Поблагодарили: 189868
100%
Полтора шпиона / Central Intelligence (2016) BDRip [H.264/720p][Unrated] [EN / EN, Fr, Sp Sub]

Производство: США
Жанр: боевик, комедия, криминал

Режиссер: Роусон Маршалл Тёрбер
Актеры: Дуэйн Джонсон, Кевин Харт, Эми Райан, Даниэль Николет, Джейсон Бейтман, Аарон Пол, Райан Хансен, Тим Гриффин, Тимоти Джон Смит, Сион Келепи, Дилан Бойяк, Томас Кречман

Описание:
От лайка в соцсети до спасения мира - один шаг. Сегодня ты френдишь бывшего одноклассника, а завтра - он тащит тебя под пули. Кто ж знал, что заядлый любитель пончиков превратится в похожего на скалу супершпиона.



Продолжительность: 01:56:26
Качество видео: BDRip 720p
Перевод: Отсутствует
Язык озвучки: Английский
Язык субтитров: английский, французский, испанский
Вид субтитров: Вшитые

Видео: AVC, 1280x536 (2.40:1), 5208 kbps, 23,976 fps, 0,317 bpp
Аудио: английский / DTS / 5.1 / 48 kHz / 1509 kbps / 24 bit
Код:
General
Unique ID                             Central.Intelligence.2016.720p.mkv
Format                                   : Matroska
Format version                           : Version 4 / Version 2
File size                                : 5.48 GiB
Duration                                 : 1 h 56 min
Overall bit rate                         : 6 741 kb/s
Encoded date                             : UTC 2016-09-13 04:57:12
Writing application                      : mkvmerge v7.5.0 ('Glass Culture') 64bit built on Jan  4 2015 16:48:44
Writing library                          : libebml v1.3.1 + libmatroska v1.4.2

Video
ID                                       : 1
Format                                   : AVC
Format/Info                              : Advanced Video Codec
Format profile                           : High@L4.1
Format settings, CABAC                   : Yes
Format settings, ReFrames                : 5 frames
Codec ID                                 : V_MPEG4/ISO/AVC
Duration                                 : 1 h 56 min
Bit rate                                 : 5 208 kb/s
Width                                    : 1 280 pixels
Height                                   : 536 pixels
Display aspect ratio                     : 2.40:1
Frame rate mode                          : Constant
Frame rate                               : 23.976 FPS
Color space                              : YUV
Chroma subsampling                       : 4:2:0
Bit depth                                : 8 bits
Scan type                                : Progressive
Bits/(Pixel*Frame)                       : 0.317
Stream size                              : 4.24 GiB (77%)
Writing library                          : x264 core 148 r2692 64f4e24
Encoding settings                        : cabac=1 / ref=5 / deblock=1:0:0 / analyse=0x3:0x133 / me=umh / subme=7 / psy=1 / psy_rd=1.00:0.00 / mixed_ref=1 / me_range=16 / chroma_me=1 / trellis=1 / 8x8dct=1 / cqm=0 / deadzone=21,11 / fast_pskip=0 / chroma_qp_offset=-2 / threads=17 / lookahead_threads=2 / sliced_threads=0 / nr=0 / decimate=1 / interlaced=0 / bluray_compat=0 / constrained_intra=0 / bframes=3 / b_pyramid=2 / b_adapt=1 / b_bias=0 / direct=1 / weightb=1 / open_gop=0 / weightp=2 / keyint=250 / keyint_min=23 / scenecut=40 / intra_refresh=0 / rc_lookahead=40 / rc=2pass / mbtree=1 / bitrate=5208 / ratetol=1.0 / qcomp=0.60 / qpmin=0 / qpmax=69 / qpstep=4 / cplxblur=20.0 / qblur=0.5 / ip_ratio=1.40 / aq=1:1.00
Language                                 : English
Default                                  : Yes
Forced                                   : No

Audio
ID                                       : 2
Format                                   : DTS
Format/Info                              : Digital Theater Systems
Mode                                     : 16
Format settings, Endianness              : Big
Codec ID                                 : A_DTS
Duration                                 : 1 h 56 min
Bit rate mode                            : Constant
Bit rate                                 : 1 509 kb/s
Channel(s)                               : 6 channels
Channel positions                        : Front: L C R, Side: L R, LFE
Sampling rate                            : 48.0 kHz
Frame rate                               : 93.750 FPS (512 spf)
Bit depth                                : 24 bits
Compression mode                         : Lossy
Stream size                              : 1.23 GiB (22%)
Language                                 : English
Default                                  : Yes
Forced                                   : No

Text #1
ID                                       : 3
Format                                   : VobSub
Muxing mode                              : zlib
Codec ID                                 : S_VOBSUB
Codec ID/Info                            : Picture based subtitle format used on DVDs
Duration                                 : 1 h 56 min
Bit rate                                 : 8 668 b/s
Count of elements                        : 2513
Stream size                              : 7.21 MiB (0%)
Language                                 : English
Default                                  : Yes
Forced                                   : No

Text #2
ID                                       : 4
Format                                   : VobSub
Muxing mode                              : zlib
Codec ID                                 : S_VOBSUB
Codec ID/Info                            : Picture based subtitle format used on DVDs
Duration                                 : 1 h 55 min
Bit rate                                 : 6 683 b/s
Count of elements                        : 2338
Stream size                              : 5.51 MiB (0%)
Language                                 : French
Default                                  : No
Forced                                   : No

Text #3
ID                                       : 5
Format                                   : VobSub
Muxing mode                              : zlib
Codec ID                                 : S_VOBSUB
Codec ID/Info                            : Picture based subtitle format used on DVDs
Duration                                 : 1 h 55 min
Bit rate                                 : 7 331 b/s
Count of elements                        : 2311
Stream size                              : 6.05 MiB (0%)
Language                                 : Spanish
Default                                  : No
Forced                                   : No

Text #4
ID                                       : 6
Format                                   : VobSub
Muxing mode                              : zlib
Codec ID                                 : S_VOBSUB
Codec ID/Info                            : Picture based subtitle format used on DVDs
Duration                                 : 1 h 55 min
Bit rate                                 : 157 b/s
Count of elements                        : 42
Stream size                              : 133 KiB (0%)
Language                                 : French
Default                                  : No
Forced                                   : No

Text #5
ID                                       : 7
Format                                   : VobSub
Muxing mode                              : zlib
Codec ID                                 : S_VOBSUB
Codec ID/Info                            : Picture based subtitle format used on DVDs
Duration                                 : 1 h 55 min
Bit rate                                 : 155 b/s
Count of elements                        : 49
Stream size                              : 131 KiB (0%)
Language                                 : Spanish
Default                                  : No
Forced                                   : No

Menu
00:00:00.000                             : en:00:00:00.000
00:09:32.238                             : en:00:09:32.238
00:21:47.848                             : en:00:21:47.848
00:32:26.861                             : en:00:32:26.861
00:47:37.104                             : en:00:47:37.104
00:57:28.528                             : en:00:57:28.528
01:03:15.750                             : en:01:03:15.750
01:17:23.222                             : en:01:17:23.222
01:26:11.541                             : en:01:26:11.541
01:36:29.992                             : en:01:36:29.992
01:48:21.411                             : en:01:48:21.411

Скриншоты:



Время раздачи: с 13:00 до 23:00
[NNMClub.to]_Central.Intelligence.2016.720p.mkv.torrent
 Торрент: Серебряная раздча  Зарегистрирован
 
Примагнититься
Free Leech
Зарегистрируйтесь и скачайте торрент!
27,6 KB
 Зарегистрирован:   13 Сен 2016 08:05:44
 Размер:   5,48 GB  (
 Рейтинг:    (Голосов: 9)
 Поблагодарили:   41
 Проверка:   Оформление проверено модератором 13 Сен 2016 08:06:14
Как cкачать  ·  Как раздать  ·  Правильно оформить  ·  Поднять ратио!  
alebard24
Стаж: 3 года
Сообщений: 429
Раздал: 0
100%
ussr.gif
..включил и ...славно выспался!

_________________
Никандр
Показать сообщения:   
Начать новую тему   Ответить на тему    Торрент-трекер NNM-Club -> Зарубежное кино -> Фильмы в оригинале (HD) Часовой пояс: GMT + 3
Страница 1 из 1