Интеллигентный торрент-трекер
canvas not supported
Нас вместе: 4 191 504

Альтамира / Altamira / Finding Altamira (2016) BDRemux [H.264/1080p] [EN]


 
 
RSS
Начать новую тему   Ответить на тему    Торрент-трекер NNM-Club -> Зарубежное кино -> Фильмы в оригинале (HD)
Автор Сообщение
smaster67 ®
Модератор Видео
Покровитель талантов Uploader 300+
Стаж: 7 лет 6 мес.
Сообщений: 6385
Ratio: 186,421
Поблагодарили: 179794
100%
Альтамира / Altamira / Finding Altamira (2016) BDRemux [H.264/1080p] [EN]

Производство: Испания, Великобритания, Франция
Жанр: драма, история

Режиссер: Хью Хадсон
Актеры: Антонио Бандерас, Руперт Эверетт, Голшифте Фарахани, Николас Фэррел, Пьер Нинэ, Генри Гудман, Клеман Сибони, Ирен Эсколар, Луис Солер, Хавьер Лаорден, Дилан Морено.

Описание:
Фильм о жизни Марселино Санс де Саутуола, открывшего пещеру Альтамира. На сегодняшний день она внесена в список всемирного наследия ЮНЕСКО, однако при жизни Саутоле пришлось столкнуться с насмешками со стороны научного сообщества и жить с клеймом обманщика.



Продолжительность: 01:33:31
Качество видео: BDRemux
Перевод: Отсутствует
Язык озвучки: Английский

Видео: AVC, 1920x1080 (16:9), 25033 kbps, 24 fps, 0,503 bpp
Аудио: английский / DTS-HD / 5.1 / 48 kHz / 3938 kbps / 24 bit (Core: 5.1 / 48 kHz / 1509 kbps / 24 bit)
Код:
General
Unique ID                              Finding.Altamira.2016.1080p.BluRay.REMUX.AVC.DTS-HD.MA.5.1-Manning\Finding.Altamira.2016.1080p.BluRay.REMUX.AVC.DTS-HD.MA.5.1-Manning.mkv
Format                                   : Matroska
Format version                           : Version 4 / Version 2
File size                                : 18.9 GiB
Duration                                 : 1 h 33 min
Overall bit rate mode                    : Variable
Overall bit rate                         : 29.0 Mb/s
Movie name                               : Manning
Encoded date                             : UTC 2016-09-13 11:40:08
Writing application                      : mkvmerge v8.3.0 ('Over the Horizon') 64bit
Writing library                          : libebml v1.3.1 + libmatroska v1.4.2

Video
ID                                       : 1
Format                                   : AVC
Format/Info                              : Advanced Video Codec
Format profile                           : High@L4.1
Format settings, CABAC                   : Yes
Format settings, ReFrames                : 4 frames
Format settings, GOP                     : M=2, N=24
Codec ID                                 : V_MPEG4/ISO/AVC
Duration                                 : 1 h 33 min
Bit rate mode                            : Variable
Bit rate                                 : 25.0 Mb/s
Maximum bit rate                         : 30.0 Mb/s
Width                                    : 1 920 pixels
Height                                   : 1 080 pixels
Display aspect ratio                     : 16:9
Frame rate mode                          : Constant
Frame rate                               : 24.000 FPS
Standard                                 : NTSC
Color space                              : YUV
Chroma subsampling                       : 4:2:0
Bit depth                                : 8 bits
Scan type                                : Progressive
Bits/(Pixel*Frame)                       : 0.503
Stream size                              : 16.4 GiB (86%)
Language                                 : English
Default                                  : Yes
Forced                                   : No
Color range                              : Limited
Color primaries                          : BT.709
Transfer characteristics                 : BT.709
Matrix coefficients                      : BT.709

Audio
ID                                       : 2
Format                                   : DTS
Format/Info                              : Digital Theater Systems
Format profile                           : MA / Core
Mode                                     : 16
Format settings, Endianness              : Big
Codec ID                                 : A_DTS
Duration                                 : 1 h 33 min
Bit rate mode                            : Variable / Constant
Bit rate                                 : 3 938 kb/s / 1 509 kb/s
Channel(s)                               : 6 channels
Channel positions                        : Front: L C R, Side: L R, LFE
Sampling rate                            : 48.0 kHz
Frame rate                               : 93.750 FPS (512 spf)
Bit depth                                : 24 bits
Compression mode                         : Lossless / Lossy
Stream size                              : 2.57 GiB (14%)
Language                                 : English
Default                                  : Yes
Forced                                   : No

Скриншоты:



Время раздачи: с 13:00 до 23:00
[NNMClub.to]_Finding.Altamira.2016.1080p.BluRay.REMUX.AVC.DTS-HD.MA.5.1-Manning.mkv.torrent
 Торрент: Золотая раздача  Зарегистрирован
 
Примагнититься

Зарегистрируйтесь и скачайте торрент!
94,9 KB
 Зарегистрирован:   13 Сен 2016 17:23:28
 Размер:   18,9 GB  (
 Рейтинг:    (Голосов: 6)
 Поблагодарили:   40
 Проверка:   Оформление проверено модератором 13 Сен 2016 17:24:18
Как cкачать  ·  Как раздать  ·  Правильно оформить  ·  Поднять ратио!  


Последний раз редактировалось: smaster67 (13 Сен 2016 17:34:24), всего редактировалось 1 раз
Alex_ya
Стаж: 6 лет 10 мес.
Сообщений: 27
Ratio: 5,568
Раздал: 24,2 TB
3.27%
Откуда: Волго​донск​,​ РО
russia.gif
Второй скриншот вдохновляет...
yoght
Стаж: 6 лет 7 мес.
Сообщений: 170
Ratio: 10,443
77.58%
Alex_ya писал(а): Перейти к сообщению
Второй скриншот вдохновляет...

прям радует я бы сказал. веселит... - а на 3-ем Павел воля что то забыл )))
psiklopik
Стаж: 5 лет 5 мес.
Сообщений: 58
Ratio: 12,12
0.24%
что там на втором?
Показать сообщения:   
Начать новую тему   Ответить на тему    Торрент-трекер NNM-Club -> Зарубежное кино -> Фильмы в оригинале (HD) Часовой пояс: GMT + 3
Страница 1 из 1