Интеллигентный торрент-трекер
canvas not supported
Нас вместе: 4 340 068

Новый уровень / Level Up (2016) BDRip [H.264/1080p] [EN]


 
 
RSS
Начать новую тему   Ответить на тему    Торрент-трекер NNM-Club -> Зарубежное кино -> Фильмы в оригинале (HD)
Автор Сообщение
smaster67 ®
Модератор Видео
Покровитель талантов Uploader 300+
Стаж: 7 лет 9 мес.
Сообщений: 6610
Ratio: 195,323
Поблагодарили: 191310
100%
Новый уровень / Level Up (2016) BDRip [H.264/1080p] [EN]

Производство: Великобритания
Жанр: триллер

Режиссер: Адам Рэндолл
Актеры: Джош Боуман, Нил Мэскелл, Уильям Хьюстон, Кулвиндер Гир, Док Браун, Лейла Миммек, Кристина Вульф, Пол Рейнольдс, Камерон Джек, Джонатан Аркрайт, Оливер Джексон

Описание:
Быстро развивающийся, концептуальный триллер о бездельнике двадцати с лишним лет, который в ходе дня вынужден проделать путь через всё более странные и зловещие места Лондона для того, чтобы спасти похищенную девушку.



Продолжительность: 01:24:48
Качество видео: BDRip 1080p
Перевод: Отсутствует
Язык озвучки: Английский

Видео: AVC, 1920x808 (2.40:1), 9562 kbps, 23,976 fps, 0,257 bpp
Аудио: английский / DTS / 5.1 / 48 kHz / 1509 kbps / 24 bit
Код:
General
Unique ID                              Level.Up.2016.1080p.mkv
Format                                   : Matroska
Format version                           : Version 4 / Version 2
File size                                : 6.56 GiB
Duration                                 : 1 h 24 min
Overall bit rate                         : 11.1 Mb/s
Encoded date                             : UTC 2016-09-13 19:26:47
Writing application                      : mkvmerge v8.3.0 ('Over the Horizon') 64bit
Writing library                          : libebml v1.3.1 + libmatroska v1.4.2

Video
ID                                       : 1
Format                                   : AVC
Format/Info                              : Advanced Video Codec
Format profile                           : High@L4.1
Format settings, CABAC                   : Yes
Format settings, ReFrames                : 5 frames
Codec ID                                 : V_MPEG4/ISO/AVC
Duration                                 : 1 h 24 min
Bit rate                                 : 9 562 kb/s
Width                                    : 1 920 pixels
Height                                   : 808 pixels
Display aspect ratio                     : 2.40:1
Frame rate mode                          : Constant
Frame rate                               : 23.976 FPS
Color space                              : YUV
Chroma subsampling                       : 4:2:0
Bit depth                                : 8 bits
Scan type                                : Progressive
Bits/(Pixel*Frame)                       : 0.257
Stream size                              : 5.66 GiB (86%)
Writing library                          : x264 core 148 r2692 64f4e24
Encoding settings                        : cabac=1 / ref=5 / deblock=1:0:0 / analyse=0x3:0x133 / me=umh / subme=7 / psy=1 / psy_rd=1.00:0.00 / mixed_ref=1 / me_range=16 / chroma_me=1 / trellis=1 / 8x8dct=1 / cqm=0 / deadzone=21,11 / fast_pskip=0 / chroma_qp_offset=-2 / threads=12 / lookahead_threads=2 / sliced_threads=0 / nr=0 / decimate=1 / interlaced=0 / bluray_compat=0 / constrained_intra=0 / bframes=3 / b_pyramid=2 / b_adapt=1 / b_bias=0 / direct=1 / weightb=1 / open_gop=0 / weightp=2 / keyint=250 / keyint_min=23 / scenecut=40 / intra_refresh=0 / rc_lookahead=40 / rc=2pass / mbtree=1 / bitrate=9562 / ratetol=1.0 / qcomp=0.60 / qpmin=0 / qpmax=69 / qpstep=4 / cplxblur=20.0 / qblur=0.5 / ip_ratio=1.40 / aq=1:1.00
Language                                 : English
Default                                  : Yes
Forced                                   : No

Audio
ID                                       : 2
Format                                   : DTS
Format/Info                              : Digital Theater Systems
Mode                                     : 16
Format settings, Endianness              : Big
Codec ID                                 : A_DTS
Duration                                 : 1 h 24 min
Bit rate mode                            : Constant
Bit rate                                 : 1 509 kb/s
Channel(s)                               : 6 channels
Channel positions                        : Front: L C R, Side: L R, LFE
Sampling rate                            : 48.0 kHz
Frame rate                               : 93.750 FPS (512 spf)
Bit depth                                : 24 bits
Compression mode                         : Lossy
Stream size                              : 915 MiB (14%)
Language                                 : English
Default                                  : Yes
Forced                                   : No

Menu
00:00:00.000                             : en:00:00:00.000
00:05:16.858                             : en:00:05:16.858
00:10:45.103                             : en:00:10:45.103
00:15:32.765                             : en:00:15:32.765
00:19:53.651                             : en:00:19:53.651
00:26:30.005                             : en:00:26:30.005
00:32:20.438                             : en:00:32:20.438
00:35:53.026                             : en:00:35:53.026
00:40:49.947                             : en:00:40:49.947
00:45:44.033                             : en:00:45:44.033
00:51:58.574                             : en:00:51:58.574
00:57:41.333                             : en:00:57:41.333
01:02:50.642                             : en:01:02:50.642
01:06:08.131                             : en:01:06:08.131
01:12:29.136                             : en:01:12:29.136
01:16:55.027                             : en:01:16:55.027
01:19:50.786                             : en:01:19:50.786

Скриншоты:



Время раздачи: с 13:00 до 23:00
[NNMClub.to]_Level.Up.2016.1080p.mkv.torrent
 Торрент: Золотая раздача  Зарегистрирован
 
Примагнититься
Free Leech
Зарегистрируйтесь и скачайте торрент!
33 KB
 Зарегистрирован:   14 Сен 2016 10:29:16
 Размер:   6,56 GB  (
 Рейтинг:    (Голосов: 4)
 Поблагодарили:   27
 Проверка:   Оформление проверено модератором 14 Сен 2016 10:29:37
Как cкачать  ·  Как раздать  ·  Правильно оформить  ·  Поднять ратио!  
Загрузка...
Показать сообщения:   
Начать новую тему   Ответить на тему    Торрент-трекер NNM-Club -> Зарубежное кино -> Фильмы в оригинале (HD) Часовой пояс: GMT + 3
Страница 1 из 1

День смеха и юмора отмечается 1 апреля. В этот день принято шутить и разыгрывать друзей, коллег по работе, домашних, словом всех, с кем Вам предстоит увидеться в этот праздник – первое апреля. Первоапрельские розыгрыши, приколы на 1 апреля, первоапрельские шутки должны быть веселыми и безобидными. Приколы на 1 апреля, как правило, удаются в том случае, если человек забыл какой сегодня месяц и день, словом, забыл про 1 апреля – день смеха, шуток, день дурака.

Желаем Вам много улыбок и хорошего настроения в этот день!
С Уважением, администрация NNM-Club :)