Интеллигентный торрент-трекер
canvas not supported
Нас вместе: 4 200 472

Альтамира / Altamira / Finding Altamira(2016) BDRip [H.264/1080p] [EN / EN Sub]


 
 
RSS
Начать новую тему   Ответить на тему    Торрент-трекер NNM-Club -> Зарубежное кино -> Фильмы в оригинале (HD)
Автор Сообщение
smaster67 ®
Модератор Видео
Покровитель талантов Uploader 300+
Стаж: 7 лет 6 мес.
Сообщений: 6395
Ratio: 186,962
Поблагодарили: 180305
100%
Альтамира / Altamira / Finding Altamira (2016) BDRip [H.264/1080p] [EN / EN Sub]

Производство: Испания, Великобритания, Франция
Жанр: драма, история

Режиссер: Хью Хадсон
Актеры: Антонио Бандерас, Руперт Эверетт, Голшифте Фарахани, Николас Фэррел, Пьер Нинэ, Генри Гудман, Клеман Сибони, Ирен Эсколар, Луис Солер, Хавьер Лаорден, Дилан Морено.

Описание:
Фильм о жизни Марселино Санс де Саутуола, открывшего пещеру Альтамира. На сегодняшний день она внесена в список всемирного наследия ЮНЕСКО, однако при жизни Саутоле пришлось столкнуться с насмешками со стороны научного сообщества и жить с клеймом обманщика.



Продолжительность: 01:33:31
Качество видео: BDRip 1080p
Перевод: Отсутствует
Язык озвучки: Английский
Язык субтитров: английский
Вид субтитров: Вшитые

Видео: AVC, 1920x1040 (1.85:1), 8512 kbps, 24 fps, 0,178 bpp
Аудио: английский / DTS / 5.1 / 48 kHz / 1509 kbps / 24 bit
Код:
General
Unique ID                                Altamira.1080p.mkv
Format                                   : Matroska
Format version                           : Version 4 / Version 2
File size                                : 6.54 GiB
Duration                                 : 1 h 33 min
Overall bit rate                         : 10.0 Mb/s
Encoded date                             : UTC 2016-09-13 20:43:40
Writing application                      : mkvmerge v9.4.2 ('So High') 64bit
Writing library                          : libebml v1.3.4 + libmatroska v1.4.5

Video
ID                                       : 1
Format                                   : AVC
Format/Info                              : Advanced Video Codec
Format profile                           : High@L4.1
Format settings, CABAC                   : Yes
Format settings, ReFrames                : 4 frames
Codec ID                                 : V_MPEG4/ISO/AVC
Duration                                 : 1 h 33 min
Bit rate                                 : 8 512 kb/s
Width                                    : 1 920 pixels
Height                                   : 1 040 pixels
Display aspect ratio                     : 1.85:1
Frame rate mode                          : Constant
Frame rate                               : 24.000 FPS
Color space                              : YUV
Chroma subsampling                       : 4:2:0
Bit depth                                : 8 bits
Scan type                                : Progressive
Bits/(Pixel*Frame)                       : 0.178
Stream size                              : 5.56 GiB (85%)
Writing library                          : x264 core 148 r2705 3f5ed56
Encoding settings                        : cabac=1 / ref=4 / deblock=1:0:0 / analyse=0x3:0x113 / me=umh / subme=8 / psy=1 / psy_rd=1.00:0.00 / mixed_ref=1 / me_range=16 / chroma_me=1 / trellis=1 / 8x8dct=1 / cqm=0 / deadzone=21,11 / fast_pskip=0 / chroma_qp_offset=-2 / threads=12 / lookahead_threads=2 / sliced_threads=0 / nr=0 / decimate=1 / interlaced=0 / bluray_compat=0 / constrained_intra=0 / bframes=3 / b_pyramid=2 / b_adapt=2 / b_bias=0 / direct=3 / weightb=1 / open_gop=0 / weightp=2 / keyint=250 / keyint_min=24 / scenecut=40 / intra_refresh=0 / rc_lookahead=50 / rc=2pass / mbtree=1 / bitrate=8512 / ratetol=1.0 / qcomp=0.60 / qpmin=0 / qpmax=69 / qpstep=4 / cplxblur=20.0 / qblur=0.5 / ip_ratio=1.40 / aq=1:1.00
Default                                  : Yes
Forced                                   : No

Audio
ID                                       : 2
Format                                   : DTS
Format/Info                              : Digital Theater Systems
Mode                                     : 16
Format settings, Endianness              : Big
Codec ID                                 : A_DTS
Duration                                 : 1 h 33 min
Bit rate mode                            : Constant
Bit rate                                 : 1 509 kb/s
Channel(s)                               : 6 channels
Channel positions                        : Front: L C R, Side: L R, LFE
Sampling rate                            : 48.0 kHz
Frame rate                               : 93.750 FPS (512 spf)
Bit depth                                : 24 bits
Compression mode                         : Lossy
Stream size                              : 1 009 MiB (15%)
Language                                 : English
Default                                  : Yes
Forced                                   : No

Text
ID                                       : 3
Format                                   : UTF-8
Codec ID                                 : S_TEXT/UTF8
Codec ID/Info                            : UTF-8 Plain Text
Duration                                 : 1 h 24 min
Bit rate                                 : 0 b/s
Count of elements                        : 9
Stream size                              : 521 Bytes (0%)
Language                                 : English
Default                                  : Yes
Forced                                   : Yes

Menu
00:00:00.000                             : en:00:00:00.000
00:07:48.500                             : en:00:07:48.500
00:13:30.000                             : en:00:13:30.000
00:23:08.000                             : en:00:23:08.000
00:32:01.500                             : en:00:32:01.500
00:39:12.500                             : en:00:39:12.500
00:45:54.000                             : en:00:45:54.000
00:55:08.000                             : en:00:55:08.000
01:06:07.000                             : en:01:06:07.000
01:10:06.500                             : en:01:10:06.500
01:16:05.250                             : en:01:16:05.250
01:24:04.000                             : en:01:24:04.000
01:27:49.000                             : en:01:27:49.000

Скриншоты:



Время раздачи: с 13:00 до 23:00
[NNMClub.to]_Altamira.1080p.mkv.torrent
 Торрент: Золотая раздача  Зарегистрирован
 
Примагнититься
Free Leech
Зарегистрируйтесь и скачайте торрент!
32,9 KB
 Зарегистрирован:   14 Сен 2016 11:14:01
 Размер:   6,54 GB  (
 Рейтинг:    (Голосов: 7)
 Поблагодарили:   47
 Проверка:   Оформление проверено модератором 14 Сен 2016 11:14:26
Как cкачать  ·  Как раздать  ·  Правильно оформить  ·  Поднять ратио!  
rogala51
Стаж: 2 года 9 мес.
Сообщений: 567
Ratio: 4,358
100%
usa.gif
Благодарю! Должно быть очень интересный фильм, раз Бандерас снялся.
kosopin
Стаж: 5 лет 4 мес.
Сообщений: 26
Ratio: 3,771
40.03%
Эх, русскую дорожку бы еще или сабы.. Хотел с женой на выходных посмотреть. Но спасибо в любом случае за релиз.
Показать сообщения:   
Начать новую тему   Ответить на тему    Торрент-трекер NNM-Club -> Зарубежное кино -> Фильмы в оригинале (HD) Часовой пояс: GMT + 3
Страница 1 из 1