Интеллигентный торрент-трекер
canvas not supported
Нас вместе: 4 348 498

Неоновый демон / The Neon Demon (2016) BDRip [H.264/1080p] [EN]


 
 
RSS
Начать новую тему   Ответить на тему    Торрент-трекер NNM-Club -> Зарубежное кино -> Фильмы в оригинале (HD)
Автор Сообщение
smaster67 ®
Модератор Видео
Покровитель талантов Uploader 300+
Стаж: 7 лет 10 мес.
Сообщений: 6629
Ratio: 198,686
Поблагодарили: 192369
100%
Неоновый демон / The Neon Demon (2016) BDRip [H.264/1080p] [EN]

Производство: Франция, Дания, США
Жанр: ужасы, триллер

Режиссер: Николас Виндинг Рефн
Актеры: Эль Фаннинг, Карл Глусман, Джена Мэлоун, Белла Хиткот, Эбби Ли, Десмонд Хэррингтон, Кристина Хендрикс, Киану Ривз, Чарльз Бэйкер, Джеми Клейтон, Стэйси Дейнджер, Ребекка Дайан

Описание:
Провинциалка Джесси, мечтающая стать супермоделью, едва окончив школу, отправляется покорять Лос-Анджелес. Через тернии (одна, без денег, чужой город, дешевый мотель), но и через нужные знакомства, фотосессии, вечеринки - к звездам. И вот это сладкое слово «слава» становится былью для юной красавицы. Но за стремительный карьерный взлет придется расплатиться - конкурентки из ненависти и безумной зависти готовы на многое.



Продолжительность: 01:57:42
Качество видео: BDRip 1080p
Перевод: Отсутствует
Язык озвучки: Английский

Видео: AVC, 1920x808 (2.40:1), 9128 kbps, 23,976 fps, 0,245 bpp
Аудио: английский / DTS / 5.1 / 48 kHz / 1509 kbps / 24 bit
Код:
General
Unique ID                               The.Neon.Demon.2016.1080p.mkv
Format                                   : Matroska
Format version                           : Version 4 / Version 2
File size                                : 8.74 GiB
Duration                                 : 1 h 57 min
Overall bit rate                         : 10.6 Mb/s
Encoded date                             : UTC 2016-09-14 04:56:27
Writing application                      : mkvmerge v8.3.0 ('Over the Horizon') 64bit
Writing library                          : libebml v1.3.1 + libmatroska v1.4.2

Video
ID                                       : 1
Format                                   : AVC
Format/Info                              : Advanced Video Codec
Format profile                           : High@L4.1
Format settings, CABAC                   : Yes
Format settings, ReFrames                : 5 frames
Codec ID                                 : V_MPEG4/ISO/AVC
Duration                                 : 1 h 57 min
Bit rate                                 : 9 128 kb/s
Width                                    : 1 920 pixels
Height                                   : 808 pixels
Display aspect ratio                     : 2.40:1
Frame rate mode                          : Constant
Frame rate                               : 23.976 FPS
Color space                              : YUV
Chroma subsampling                       : 4:2:0
Bit depth                                : 8 bits
Scan type                                : Progressive
Bits/(Pixel*Frame)                       : 0.245
Stream size                              : 7.50 GiB (86%)
Writing library                          : x264 core 148 r2692 64f4e24
Encoding settings                        : cabac=1 / ref=5 / deblock=1:0:0 / analyse=0x3:0x133 / me=umh / subme=7 / psy=1 / psy_rd=1.00:0.00 / mixed_ref=1 / me_range=16 / chroma_me=1 / trellis=1 / 8x8dct=1 / cqm=0 / deadzone=21,11 / fast_pskip=0 / chroma_qp_offset=-2 / threads=12 / lookahead_threads=2 / sliced_threads=0 / nr=0 / decimate=1 / interlaced=0 / bluray_compat=0 / constrained_intra=0 / bframes=3 / b_pyramid=2 / b_adapt=1 / b_bias=0 / direct=1 / weightb=1 / open_gop=0 / weightp=2 / keyint=250 / keyint_min=23 / scenecut=40 / intra_refresh=0 / rc_lookahead=40 / rc=2pass / mbtree=1 / bitrate=9128 / ratetol=1.0 / qcomp=0.60 / qpmin=0 / qpmax=69 / qpstep=4 / cplxblur=20.0 / qblur=0.5 / ip_ratio=1.40 / aq=1:1.00
Language                                 : English
Default                                  : Yes
Forced                                   : No

Audio
ID                                       : 2
Format                                   : DTS
Format/Info                              : Digital Theater Systems
Mode                                     : 16
Format settings, Endianness              : Big
Codec ID                                 : A_DTS
Duration                                 : 1 h 57 min
Bit rate mode                            : Constant
Bit rate                                 : 1 509 kb/s
Channel(s)                               : 6 channels
Channel positions                        : Front: L C R, Side: L R, LFE
Sampling rate                            : 48.0 kHz
Frame rate                               : 93.750 FPS (512 spf)
Bit depth                                : 24 bits
Compression mode                         : Lossy
Stream size                              : 1.24 GiB (14%)
Language                                 : English
Default                                  : Yes
Forced                                   : No

Menu
00:00:00.000                             : en:00:00:00.000
00:07:27.822                             : en:00:07:27.822
00:15:43.901                             : en:00:15:43.901
00:21:05.931                             : en:00:21:05.931
00:26:36.637                             : en:00:26:36.637
00:30:33.915                             : en:00:30:33.915
00:36:39.656                             : en:00:36:39.656
00:43:15.843                             : en:00:43:15.843
00:50:39.328                             : en:00:50:39.328
00:56:44.109                             : en:00:56:44.109
01:04:59.604                             : en:01:04:59.604
01:09:24.619                             : en:01:09:24.619
01:17:38.862                             : en:01:17:38.862
01:23:37.679                             : en:01:23:37.679
01:31:53.800                             : en:01:31:53.800
01:41:10.314                             : en:01:41:10.314
01:47:28.734                             : en:01:47:28.734
01:51:56.460                             : en:01:51:56.460

Скриншоты:



Время раздачи: с 13:00 до 23:00
[NNMClub.to]_The.Neon.Demon.2016.1080p.mkv.torrent
 Торрент: Золотая раздача  Зарегистрирован
 
Примагнититься
Free Leech
Зарегистрируйтесь и скачайте торрент!
43,9 KB
 Зарегистрирован:   14 Сен 2016 13:20:57
 Размер:   8,74 GB  (
 Рейтинг:   4,2 (Голосов: 11)
 Поблагодарили:   54
 Проверка:   Оформление проверено модератором 14 Сен 2016 13:21:24
Как cкачать  ·  Как раздать  ·  Правильно оформить  ·  Поднять ратио!  
Загрузка...
Dma321
Стаж: 8 лет 2 мес.
Сообщений: 321
Ratio: 32,843
100%
russia.gif
Очень красивый и продуманный фильм.
Наслаждался просмотром.
Спасибо за раздачу в качестве.
Vian
Стаж: 5 лет 3 мес.
Сообщений: 167
Ratio: 48,359
100%
argentina.gif
Ждем качество на русском!
tihon​ov110​9​
Стаж: 4 года 11 мес.
Сообщений: 375
Ratio: 66,256
Поблагодарили: 3
100%
Dma321 писал(а): Перейти к сообщению
Очень красивый и продуманный фильм.
Наслаждался просмотром.
Спасибо за раздачу в качестве.


У вас своеобразное чувство юмора, такого треша давно не видел.
Dma321
Стаж: 8 лет 2 мес.
Сообщений: 321
Ratio: 32,843
100%
russia.gif
tihonov1109 писал(а): Перейти к сообщению
У вас своеобразное чувство юмора, такого треша давно не видел.


Вы его по видимому не посмотрели. А зря. Фильм реально классный. Давно таких реально качественных фильмов не было.
tihon​ov110​9​
Стаж: 4 года 11 мес.
Сообщений: 375
Ratio: 66,256
Поблагодарили: 3
100%
Dma321 писал(а): Перейти к сообщению
tihonov1109 писал(а): Перейти к сообщению
У вас своеобразное чувство юмора, такого треша давно не видел.


Вы его по видимому не посмотрели. А зря. Фильм реально классный. Давно таких реально качественных фильмов не было.
Именно потому что смотрел и пишу такое. Хотя, на вкус и цвет.
hujok
Стаж: 3 года 8 мес.
Сообщений: 92
Ratio: 4,867
98.35%
Девушку могли и получше подобрать, раз по сценарию она неотразима
lolka_88
Стаж: 5 лет 10 мес.
Сообщений: 22
Ratio: 14,95
76.56%
Откуда: с Марса
brazil.gif
О4ень даже милая девушка, музыка классно подобрана.
andre​y-max​ne198​6​
Стаж: 5 лет 3 мес.
Сообщений: 5
Ratio: 43,937
Поблагодарили: 318
100%
Dma321 писал(а): Перейти к сообщению
Очень красивый и продуманный фильм.
Наслаждался просмотром.
Спасибо за раздачу в качестве.

Ты что наркоман ?!!! :злость:
Фильм шлак!
Показать сообщения:   
Начать новую тему   Ответить на тему    Торрент-трекер NNM-Club -> Зарубежное кино -> Фильмы в оригинале (HD) Часовой пояс: GMT + 3
Страница 1 из 1