Интеллигентный торрент-трекер
canvas not supported
Нас вместе: 4 348 032

Свободный штат Джонса / Free State of Jones (2016) BDRemux [H.264/1080p] [EN / EN, Fr, Sp Sub]


 
 
RSS
Начать новую тему   Ответить на тему    Торрент-трекер NNM-Club -> Зарубежное кино -> Фильмы в оригинале (HD)
Автор Сообщение
smaster67 ®
Модератор Видео
Покровитель талантов Uploader 300+
Стаж: 7 лет 10 мес.
Сообщений: 6628
Ratio: 198,281
Поблагодарили: 192257
100%
Свободный штат Джонса / Free State of Jones (2016) BDRemux [H.264/1080p] [EN / EN, Fr, Sp Sub]

Производство: США
Жанр: боевик, драма, военный, биография, история

Режиссер: Гэри Росс
Актеры: Мэттью МакКонахи, Гугу Эмбата-Ро, Махершала Али, Кери Рассел, Кристофер Берри, Шон Бриджерс, Джейкоб Лофленд, Томас Мерфи, Билл Тангради, Брайан Франклин, Керри Кехилл, Джо Крест

Описание:
События фильма разворачиваются во время гражданской войны в США. После участия в битве при Коринфе Ньютон Найт - бедный фермер из Миссисипи возглавляет группу дезертиров из армии Конфедерации, выступающих за отмену рабства. Вместе они обустраиваются в округе Джонс, и начинают борьбу против сил Конфедерации.



Продолжительность: 02:19:55
Качество видео: BDRemux
Перевод: Отсутствует
Язык озвучки: Английский
Язык субтитров: английский, испанский, французский
Вид субтитров: Вшитые

Видео: AVC, 1920x1080 (16:9), 26745 kbps, 23,976 fps, 0,538 bpp
Аудио: DTS-HD / 5.1 / 48 kHz / 3425 kbps / 24 bit (Core: 5.1 / 48 kHz / 1509 kbps / 24 bit)
Код:
General
Unique ID                               Free.State.of.Jones.2016.REMUX.BluRay.1080p.AVC.DTS-HD.MA5.1-iFT\Free.State.of.Jones.2016.REMUX.BluRay.1080p.AVC.DTS-HD.MA5.1-iFT.mkv
Format                                   : Matroska
Format version                           : Version 4 / Version 2
File size                                : 29.5 GiB
Duration                                 : 2 h 19 min
Overall bit rate mode                    : Variable
Overall bit rate                         : 30.2 Mb/s
Encoded date                             : UTC 2016-09-14 13:12:51
Writing application                      : mkvmerge v8.5.1 ('Where you lead I will follow') 64bit
Writing library                          : libebml v1.3.3 + libmatroska v1.4.4

Video
ID                                       : 1
Format                                   : AVC
Format/Info                              : Advanced Video Codec
Format profile                           : High@L4.1
Format settings, CABAC                   : Yes
Format settings, ReFrames                : 4 frames
Codec ID                                 : V_MPEG4/ISO/AVC
Duration                                 : 2 h 19 min
Bit rate mode                            : Variable
Bit rate                                 : 26.7 Mb/s
Maximum bit rate                         : 33.0 Mb/s
Width                                    : 1 920 pixels
Height                                   : 1 080 pixels
Display aspect ratio                     : 16:9
Frame rate mode                          : Constant
Frame rate                               : 23.976 (24000/1001) FPS
Color space                              : YUV
Chroma subsampling                       : 4:2:0
Bit depth                                : 8 bits
Scan type                                : Progressive
Bits/(Pixel*Frame)                       : 0.538
Stream size                              : 26.1 GiB (89%)
Default                                  : No
Forced                                   : No

Audio
ID                                       : 2
Format                                   : DTS
Format/Info                              : Digital Theater Systems
Format profile                           : MA / Core
Mode                                     : 16
Format settings, Endianness              : Big
Codec ID                                 : A_DTS
Duration                                 : 2 h 19 min
Bit rate mode                            : Variable / Constant
Bit rate                                 : 3 425 kb/s / 1 509 kb/s
Channel(s)                               : 6 channels
Channel positions                        : Front: L C R, Side: L R, LFE
Sampling rate                            : 48.0 kHz
Frame rate                               : 93.750 FPS (512 spf)
Bit depth                                : 24 bits
Compression mode                         : Lossless / Lossy
Stream size                              : 3.35 GiB (11%)
Default                                  : Yes
Forced                                   : No

Text #1
ID                                       : 3
Format                                   : PGS
Muxing mode                              : zlib
Codec ID                                 : S_HDMV/PGS
Codec ID/Info                            : Picture based subtitle format used on BDs/HD-DVDs
Duration                                 : 2 h 11 min
Bit rate                                 : 9 653 b/s
Count of elements                        : 3359
Stream size                              : 9.10 MiB (0%)
Language                                 : English
Default                                  : Yes
Forced                                   : No

Text #2
ID                                       : 4
Format                                   : PGS
Muxing mode                              : zlib
Codec ID                                 : S_HDMV/PGS
Codec ID/Info                            : Picture based subtitle format used on BDs/HD-DVDs
Duration                                 : 2 h 18 min
Bit rate                                 : 7 511 b/s
Count of elements                        : 2709
Stream size                              : 7.45 MiB (0%)
Language                                 : Spanish
Default                                  : No
Forced                                   : No

Text #3
ID                                       : 5
Format                                   : PGS
Muxing mode                              : zlib
Codec ID                                 : S_HDMV/PGS
Codec ID/Info                            : Picture based subtitle format used on BDs/HD-DVDs
Duration                                 : 2 h 18 min
Bit rate                                 : 7 625 b/s
Count of elements                        : 2792
Stream size                              : 7.56 MiB (0%)
Language                                 : French
Default                                  : No
Forced                                   : No

Menu
00:00:00.000                             : en:00:00:00.000
00:08:19.499                             : en:00:08:19.499
00:13:55.835                             : en:00:13:55.835
00:22:14.250                             : en:00:22:14.250
00:30:56.313                             : en:00:30:56.313
00:37:39.924                             : en:00:37:39.924
00:46:02.635                             : en:00:46:02.635
00:49:49.195                             : en:00:49:49.195
00:56:08.615                             : en:00:56:08.615
01:05:06.027                             : en:01:05:06.027
01:13:32.199                             : en:01:13:32.199
01:19:58.752                             : en:01:19:58.752
01:30:22.667                             : en:01:30:22.667
01:36:43.172                             : en:01:36:43.172
01:42:49.747                             : en:01:42:49.747
01:50:23.492                             : en:01:50:23.492
01:55:44.729                             : en:01:55:44.729
02:02:43.731                             : en:02:02:43.731
02:06:56.526                             : en:02:06:56.526
02:13:11.942                             : en:02:13:11.942

Скриншоты:



Время раздачи: с 13:00 до 23:00
[NNMClub.to]_Free.State.of.Jones.2016.REMUX.BluRay.1080p.AVC.DTS-HD.MA5.1-iFT.mkv.torrent
 Торрент: Золотая раздача  Зарегистрирован
 
Примагнититься
Free Leech
Зарегистрируйтесь и скачайте торрент!
148 KB
 Зарегистрирован:   14 Сен 2016 21:30:34
 Размер:   29,5 GB  (
 Рейтинг:    (Голосов: 8)
 Поблагодарили:   36
 Проверка:   Оформление проверено модератором 14 Сен 2016 21:31:14
Как cкачать  ·  Как раздать  ·  Правильно оформить  ·  Поднять ратио!  
Chaos​Koyot​ee​
Стаж: 5 лет 1 мес.
Сообщений: 26
Ratio: 14,003
4.35%
А вот и хорошо что озвучки нету. Я лично всё равно в оригинале смотрю, так что мне даже качать меньше. Отличненько.
Показать сообщения:   
Начать новую тему   Ответить на тему    Торрент-трекер NNM-Club -> Зарубежное кино -> Фильмы в оригинале (HD) Часовой пояс: GMT + 3
Страница 1 из 1