Интеллигентный торрент-трекер
canvas not supported
Нас вместе: 4 193 761

Светская жизнь / Cafе Society (2016) BDRemux [H.264/1080p] [EN / Fr Sub]


 
 
RSS
Начать новую тему   Ответить на тему    Торрент-трекер NNM-Club -> Зарубежное кино -> Фильмы в оригинале (HD)
Автор Сообщение
smaster67 ®
Модератор Видео
Покровитель талантов Uploader 300+
Стаж: 7 лет 6 мес.
Сообщений: 6391
Ratio: 186,626
Поблагодарили: 180014
100%
Светская жизнь / Cafе Society (2016) BDRemux [H.264/1080p] [EN / Fr Sub]

Производство: США
Жанр: драма, мелодрама, комедия

Режиссер: Вуди Аллен
Актеры: Дженни Берлин, Стив Карелл, Джесси Айзенберг, Кристен Стюарт, Блейк Лайвли, Паркер Поузи, Кори Столл, Кен Стотт, Анна Кэмп, Пол Шнайдер, Шерил Ли, Тони Сирико

Описание:
1930-е годы. Молодой человек приезжает из Нью-Йорка в Голливуд в надежде найти работу в киноиндустрии. В Лос-Анджелесе он влюбляется и обнаруживает себя в самом центре водоворота бурной светской жизни и событий, определивших дух того времени.



Продолжительность: 01:36:05
Качество видео: BDRemux
Перевод: Отсутствует
Язык озвучки: Английский
Язык субтитров: французский
Вид субтитров: Вшитые

Видео: AVC, 1920x1080 (16:9), 32000 kbps, 23,976 fps, 0,644 bpp
Аудио: английский / DTS-HD / 5.1 / 48 kHz / 3220 kbps / 24 bit (Core: 5.1 / 48 kHz / 1509 kbps / 24 bit)
Код:
General
Unique ID                               Cafe.Society.2016.BluRay.1080p.DTS-HD.MA.5.1.AVC.REMUX-FraMeSToR\Cafe.Society.2016.BluRay.1080p.DTS-HD.MA.5.1.AVC.REMUX-FraMeSToR.mkv
Format                                   : Matroska
Format version                           : Version 4 / Version 2
File size                                : 23.6 GiB
Duration                                 : 1 h 36 min
Overall bit rate mode                    : Variable
Overall bit rate                         : 35.2 Mb/s
Movie name                               : Cafe Society
Encoded date                             : UTC 2016-09-13 17:00:32
Writing application                      : mkvmerge v9.4.2 ('So High') 64bit
Writing library                          : libebml v1.3.4 + libmatroska v1.4.5

Video
ID                                       : 1
Format                                   : AVC
Format/Info                              : Advanced Video Codec
Format profile                           : High@L4.1
Format settings, CABAC                   : Yes
Format settings, ReFrames                : 3 frames
Codec ID                                 : V_MPEG4/ISO/AVC
Duration                                 : 1 h 36 min
Bit rate mode                            : Variable
Bit rate                                 : 32.0 Mb/s
Maximum bit rate                         : 35.0 Mb/s
Width                                    : 1 920 pixels
Height                                   : 1 080 pixels
Display aspect ratio                     : 16:9
Frame rate mode                          : Constant
Frame rate                               : 23.976 (24000/1001) FPS
Color space                              : YUV
Chroma subsampling                       : 4:2:0
Bit depth                                : 8 bits
Scan type                                : Progressive
Bits/(Pixel*Frame)                       : 0.644
Stream size                              : 21.4 GiB (91%)
Writing library                          : x264 core 146 r2538 121396c
Encoding settings                        : cabac=1 / ref=4 / deblock=1:-1:-1 / analyse=0x3:0x133 / me=umh / subme=10 / psy=1 / psy_rd=1.00:0.15 / mixed_ref=1 / me_range=24 / chroma_me=1 / trellis=2 / 8x8dct=1 / cqm=0 / deadzone=21,11 / fast_pskip=1 / chroma_qp_offset=-3 / threads=48 / lookahead_threads=4 / sliced_threads=0 / slices=4 / nr=0 / decimate=1 / interlaced=0 / bluray_compat=1 / constrained_intra=0 / bframes=3 / b_pyramid=1 / b_adapt=2 / b_bias=0 / direct=3 / weightb=1 / open_gop=1 / weightp=1 / keyint=24 / keyint_min=1 / scenecut=40 / intra_refresh=0 / rc_lookahead=24 / rc=2pass / mbtree=1 / bitrate=32000 / ratetol=1.0 / qcomp=0.60 / qpmin=0 / qpmax=69 / qpstep=4 / cplxblur=20.0 / qblur=0.5 / vbv_maxrate=35000 / vbv_bufsize=30000 / nal_hrd=vbr / filler=0 / ip_ratio=1.40 / aq=1:1.00
Default                                  : Yes
Forced                                   : No
Color range                              : Limited
Color primaries                          : BT.709
Transfer characteristics                 : BT.709
Matrix coefficients                      : BT.709

Audio
ID                                       : 2
Format                                   : DTS
Format/Info                              : Digital Theater Systems
Format profile                           : MA / Core
Mode                                     : 16
Format settings, Endianness              : Big
Codec ID                                 : A_DTS
Duration                                 : 1 h 36 min
Bit rate mode                            : Variable / Constant
Bit rate                                 : 3 221 kb/s / 1 509 kb/s
Channel(s)                               : 6 channels
Channel positions                        : Front: L C R, Side: L R, LFE
Sampling rate                            : 48.0 kHz
Frame rate                               : 93.750 FPS (512 spf)
Bit depth                                : 24 bits
Compression mode                         : Lossless / Lossy
Stream size                              : 2.16 GiB (9%)
Title                                    : DTS-HD MA 5.1
Language                                 : English
Default                                  : Yes
Forced                                   : No

Text
ID                                       : 3
Format                                   : PGS
Codec ID                                 : S_HDMV/PGS
Codec ID/Info                            : Picture based subtitle format used on BDs/HD-DVDs
Duration                                 : 1 h 29 min
Bit rate                                 : 50.2 kb/s
Count of elements                        : 3404
Stream size                              : 32.2 MiB (0%)
Title                                    : French
Language                                 : French
Default                                  : Yes
Forced                                   : No

Menu
00:00:00.000                             : en:Chapter 1
00:08:35.848                             : en:Chapter 2
00:16:40.165                             : en:Chapter 3
00:26:28.628                             : en:Chapter 4
00:32:30.990                             : en:Chapter 5
00:43:12.506                             : en:Chapter 6
00:54:03.865                             : en:Chapter 7
01:02:38.755                             : en:Chapter 8
01:10:05.659                             : en:Chapter 9
01:14:41.101                             : en:Chapter 10
01:20:46.174                             : en:Chapter 11
01:31:57.094                             : en:Chapter 12

Скриншоты:



Время раздачи: с 13:00 до 23:00
[NNMClub.to]_Cafe.Society.2016.BluRay.1080p.DTS-HD.MA.5.1.AVC.REMUX-FraMeSToR.mkv.torrent
 Торрент: Золотая раздача  Зарегистрирован
 
Примагнититься

Зарегистрируйтесь и скачайте торрент!
118 KB
 Зарегистрирован:   14 Сен 2016 22:44:00
 Размер:   23,6 GB  (
 Рейтинг:    (Голосов: 8)
 Поблагодарили:   36
 Проверка:   Оформление проверено модератором 14 Сен 2016 22:45:08
Как cкачать  ·  Как раздать  ·  Правильно оформить  ·  Поднять ратио!  
karfa​gen19​75​
Стаж: 6 лет 1 мес.
Сообщений: 1035
Ratio: 34,678
Раздал: 20,94 TB
Поблагодарили: 54077
100%
Откуда: планета Земля
russia.gif
Выдержка из MediaInfo:
В ремуксе конечно-же быть такое не должно, но оказывается такое бывает, очень редко но бывает, спорил помню с кем-то по этому поводу...причина наверно в запоротом видеопотоке (блюрик некачественный или скопировали с ошибками).
Vian
Стаж: 4 года 11 мес.
Сообщений: 162
Ratio: 49,48
100%
argentina.gif
Дайте русский звук!!!
Показать сообщения:   
Начать новую тему   Ответить на тему    Торрент-трекер NNM-Club -> Зарубежное кино -> Фильмы в оригинале (HD) Часовой пояс: GMT + 3
Страница 1 из 1