Интеллигентный торрент-трекер
canvas not supported
Нас вместе: 4 310 849

Неоновый демон / The Neon Demon (2016) BDRemux [H.264/1080p] [EN / EN, Sp Sub]


 
 
RSS
Начать новую тему   Ответить на тему    Торрент-трекер NNM-Club -> Зарубежное кино -> Фильмы в оригинале (HD)
Автор Сообщение
smaster67 ®
Модератор Видео
Покровитель талантов Uploader 300+
Стаж: 7 лет 8 мес.
Сообщений: 6591
Ratio: 193,055
Поблагодарили: 190174
100%
Неоновый демон / The Neon Demon (2016) BDRemux [H.264/1080p] [EN / EN, Sp Sub]

Производство: Франция, Дания, США
Жанр: ужасы, триллер

Режиссер: Николас Виндинг Рефн
Актеры: Эль Фаннинг, Карл Глусман, Джена Мэлоун, Белла Хиткот, Эбби Ли, Десмонд Хэррингтон, Кристина Хендрикс, Киану Ривз, Чарльз Бэйкер, Джеми Клейтон, Стэйси Дейнджер, Ребекка Дайан

Описание:
Провинциалка Джесси, мечтающая стать супермоделью, едва окончив школу, отправляется покорять Лос-Анджелес. Через тернии (одна, без денег, чужой город, дешевый мотель), но и через нужные знакомства, фотосессии, вечеринки - к звездам. И вот это сладкое слово «слава» становится былью для юной красавицы. Но за стремительный карьерный взлет придется расплатиться - конкурентки из ненависти и безумной зависти готовы на многое.



Продолжительность: 01:57:42
Качество видео: BDRemux
Перевод: Отсутствует
Язык озвучки: Английский
Язык субтитров: английский, испанский
Вид субтитров: Вшитые

Видео: AVC, 1920x1080 (16:9), 29713 kbps, 23,976 fps, 0,598 bpp
Аудио №1: английский / DTS-HD / 5.1 / 48 kHz / 3185 kbps / 24 bit (Core: 5.1 / 48 kHz / 1509 kbps / 24 bit)
Аудио №2: английский / AC3 / 2.0 / 48 kHz / 224 kbps /
Код:
General
Unique ID                                The.Neon.Demon.2016.BluRay.1080p.DTS-HD.MA.5.1.AVC.REMUX-FraMeSToR\The.Neon.Demon.2016.BluRay.1080p.DTS-HD.MA.5.1.AVC.REMUX-FraMeSToR.mkv
Format                                   : Matroska
Format version                           : Version 4 / Version 2
File size                                : 27.3 GiB
Duration                                 : 1 h 57 min
Overall bit rate mode                    : Variable
Overall bit rate                         : 33.2 Mb/s
Movie name                               : The Neon Demon
Encoded date                             : UTC 2016-09-17 11:42:06
Writing application                      : mkvmerge v9.4.2 ('So High') 64bit
Writing library                          : libebml v1.3.4 + libmatroska v1.4.5

Video
ID                                       : 1
Format                                   : AVC
Format/Info                              : Advanced Video Codec
Format profile                           : High@L4.1
Format settings, CABAC                   : Yes
Format settings, ReFrames                : 4 frames
Codec ID                                 : V_MPEG4/ISO/AVC
Duration                                 : 1 h 57 min
Bit rate mode                            : Variable
Bit rate                                 : 29.7 Mb/s
Maximum bit rate                         : 38.0 Mb/s
Width                                    : 1 920 pixels
Height                                   : 1 080 pixels
Display aspect ratio                     : 16:9
Frame rate mode                          : Constant
Frame rate                               : 23.976 (24000/1001) FPS
Color space                              : YUV
Chroma subsampling                       : 4:2:0
Bit depth                                : 8 bits
Scan type                                : Progressive
Bits/(Pixel*Frame)                       : 0.598
Stream size                              : 24.4 GiB (90%)
Default                                  : Yes
Forced                                   : No

Audio #1
ID                                       : 2
Format                                   : DTS
Format/Info                              : Digital Theater Systems
Format profile                           : MA / Core
Mode                                     : 16
Format settings, Endianness              : Big
Codec ID                                 : A_DTS
Duration                                 : 1 h 57 min
Bit rate mode                            : Variable / Constant
Bit rate                                 : 3 186 kb/s / 1 509 kb/s
Channel(s)                               : 6 channels
Channel positions                        : Front: L C R, Side: L R, LFE
Sampling rate                            : 48.0 kHz
Frame rate                               : 93.750 FPS (512 spf)
Bit depth                                : 24 bits
Compression mode                         : Lossless / Lossy
Stream size                              : 2.62 GiB (10%)
Title                                    : DTS-HD MA 5.1
Language                                 : English
Default                                  : Yes
Forced                                   : No

Audio #2
ID                                       : 3
Format                                   : AC-3
Format/Info                              : Audio Coding 3
Mode extension                           : CM (complete main)
Format settings, Endianness              : Big
Codec ID                                 : A_AC3
Duration                                 : 1 h 57 min
Bit rate mode                            : Constant
Bit rate                                 : 224 kb/s
Channel(s)                               : 2 channels
Channel positions                        : Front: L R
Sampling rate                            : 48.0 kHz
Frame rate                               : 31.250 FPS (1536 spf)
Compression mode                         : Lossy
Stream size                              : 189 MiB (1%)
Title                                    : Commentary by Nicolas Winding Refn/Elle Fanning
Language                                 : English
Default                                  : No
Forced                                   : No

Text #1
ID                                       : 4
Format                                   : PGS
Codec ID                                 : S_HDMV/PGS
Codec ID/Info                            : Picture based subtitle format used on BDs/HD-DVDs
Duration                                 : 1 h 45 min
Bit rate                                 : 15.3 kb/s
Count of elements                        : 1458
Stream size                              : 11.6 MiB (0%)
Title                                    : English (SDH)
Language                                 : English
Default                                  : Yes
Forced                                   : No

Text #2
ID                                       : 5
Format                                   : PGS
Codec ID                                 : S_HDMV/PGS
Codec ID/Info                            : Picture based subtitle format used on BDs/HD-DVDs
Duration                                 : 1 h 44 min
Bit rate                                 : 12.6 kb/s
Count of elements                        : 1186
Stream size                              : 9.44 MiB (0%)
Title                                    : Spanish (Latin American)
Language                                 : Spanish
Default                                  : No
Forced                                   : No

Menu
00:00:00.000                             : en:Chapter 1
00:07:27.822                             : en:Chapter 2
00:15:43.901                             : en:Chapter 3
00:21:05.931                             : en:Chapter 4
00:26:36.636                             : en:Chapter 5
00:30:33.915                             : en:Chapter 6
00:36:39.655                             : en:Chapter 7
00:43:15.843                             : en:Chapter 8
00:50:39.327                             : en:Chapter 9
00:56:44.108                             : en:Chapter 10
01:04:59.603                             : en:Chapter 11
01:09:24.618                             : en:Chapter 12
01:17:38.862                             : en:Chapter 13
01:23:37.679                             : en:Chapter 14
01:31:53.799                             : en:Chapter 15
01:41:10.314                             : en:Chapter 16
01:47:28.733                             : en:Chapter 17
01:51:56.459                             : en:Chapter 18

Скриншоты:



Время раздачи: с 13:00 до 23:00
[NNMClub.to]_The.Neon.Demon.2016.BluRay.1080p.DTS-HD.MA.5.1.AVC.REMUX-FraMeSToR.mkv.torrent
 Торрент: Золотая раздача  Зарегистрирован
 
Примагнититься
Free Leech
Зарегистрируйтесь и скачайте торрент!
137 KB
 Зарегистрирован:   18 Сен 2016 08:21:01
 Размер:   27,3 GB  (
 Рейтинг:    (Голосов: 9)
 Поблагодарили:   36
 Проверка:   Оформление проверено модератором 18 Сен 2016 08:21:51
Как cкачать  ·  Как раздать  ·  Правильно оформить  ·  Поднять ратио!  
Показать сообщения:   
Начать новую тему   Ответить на тему    Торрент-трекер NNM-Club -> Зарубежное кино -> Фильмы в оригинале (HD) Часовой пояс: GMT + 3
Страница 1 из 1