Интеллигентный торрент-трекер
canvas not supported
Нас вместе: 4 187 607

АмериГеддон / AmeriGeddon (2016) BDRip [H.264/1080p] [EN]


 
 
RSS
Начать новую тему   Ответить на тему    Торрент-трекер NNM-Club -> Зарубежное кино -> Фильмы в оригинале (HD)
Автор Сообщение
smaster67 ®
Модератор Видео
Покровитель талантов Uploader 300+
Стаж: 7 лет 6 мес.
Сообщений: 6378
Ratio: 186,128
Поблагодарили: 179610
100%
АмериГеддон / AmeriGeddon (2016) BDRip [H.264/1080p] [EN]

Производство: США
Жанр: боевик

Режиссер: Майк Норрис
Актеры: Дина Мейер, Дайан Лэдд, Индиа Айсли, Маршалл Р. Тиг, Майк Норрис, Джонни Крус, Ганс Марреро, Чак Хубер, Эмили Грэйс Данн, Спенсер Невилл, Гари Тиг, Скотт Эдвард Логан

Описание:
В недалёком будущем американское правительство совместно с ООН организует атаку на энергосистему США. В стране вводится военное положение. Группа патриотов пытается спасти население от необратимого хаоса. Фильм наглядно показывает то, к чему может привести отмена второй поправки к Конституции США.



Продолжительность: 01:31:44
Качество видео: BDRip 1080p
Перевод: Отсутствует
Язык озвучки: Английский

Видео: AVC, 1920x808 (2.40:1), 8724 kbps, 23,976 fps, 0,235 bpp
Аудио: английский / DTS / 5.1 / 48 kHz / 1509 kbps / 24 bit
Код:
General
Unique ID
Complete name                           AmeriGeddon.2016.1080p.mkv
Format                                   : Matroska
Format version                           : Version 4 / Version 2
File size                                : 6.56 GiB
Duration                                 : 1 h 31 min
Overall bit rate                         : 10.2 Mb/s
Encoded date                             : UTC 2016-09-18 07:33:50
Writing application                      : mkvmerge v8.3.0 ('Over the Horizon') 64bit
Writing library                          : libebml v1.3.1 + libmatroska v1.4.2

Video
ID                                       : 1
Format                                   : AVC
Format/Info                              : Advanced Video Codec
Format profile                           : High@L4.1
Format settings, CABAC                   : Yes
Format settings, ReFrames                : 5 frames
Codec ID                                 : V_MPEG4/ISO/AVC
Duration                                 : 1 h 31 min
Bit rate                                 : 8 724 kb/s
Width                                    : 1 920 pixels
Height                                   : 808 pixels
Display aspect ratio                     : 2.40:1
Frame rate mode                          : Constant
Frame rate                               : 23.976 FPS
Color space                              : YUV
Chroma subsampling                       : 4:2:0
Bit depth                                : 8 bits
Scan type                                : Progressive
Bits/(Pixel*Frame)                       : 0.235
Stream size                              : 5.59 GiB (85%)
Writing library                          : x264 core 148 r2692 64f4e24
Encoding settings                        : cabac=1 / ref=5 / deblock=1:0:0 / analyse=0x3:0x133 / me=umh / subme=7 / psy=1 / psy_rd=1.00:0.00 / mixed_ref=1 / me_range=16 / chroma_me=1 / trellis=1 / 8x8dct=1 / cqm=0 / deadzone=21,11 / fast_pskip=0 / chroma_qp_offset=-2 / threads=12 / lookahead_threads=2 / sliced_threads=0 / nr=0 / decimate=1 / interlaced=0 / bluray_compat=0 / constrained_intra=0 / bframes=3 / b_pyramid=2 / b_adapt=1 / b_bias=0 / direct=1 / weightb=1 / open_gop=0 / weightp=2 / keyint=250 / keyint_min=23 / scenecut=40 / intra_refresh=0 / rc_lookahead=40 / rc=2pass / mbtree=1 / bitrate=8724 / ratetol=1.0 / qcomp=0.60 / qpmin=0 / qpmax=69 / qpstep=4 / cplxblur=20.0 / qblur=0.5 / ip_ratio=1.40 / aq=1:1.00
Language                                 : English
Default                                  : Yes
Forced                                   : No

Audio
ID                                       : 2
Format                                   : DTS
Format/Info                              : Digital Theater Systems
Mode                                     : 16
Format settings, Endianness              : Big
Codec ID                                 : A_DTS
Duration                                 : 1 h 31 min
Bit rate mode                            : Constant
Bit rate                                 : 1 509 kb/s
Channel(s)                               : 6 channels
Channel positions                        : Front: L C R, Side: L R, LFE
Sampling rate                            : 48.0 kHz
Frame rate                               : 93.750 FPS (512 spf)
Bit depth                                : 24 bits
Compression mode                         : Lossy
Stream size                              : 990 MiB (15%)
Language                                 : English
Default                                  : Yes
Forced                                   : No

Menu
00:00:00.000                             : en:00:00:00.000
00:07:04.257                             : en:00:07:04.257
00:12:13.816                             : en:00:12:13.816
00:17:24.252                             : en:00:17:24.252
00:24:25.381                             : en:00:24:25.381
00:29:05.410                             : en:00:29:05.410
00:34:40.787                             : en:00:34:40.787
00:41:25.358                             : en:00:41:25.358
00:46:21.070                             : en:00:46:21.070
00:52:01.201                             : en:00:52:01.201
00:58:14.116                             : en:00:58:14.116
01:04:58.603                             : en:01:04:58.603
01:11:17.106                             : en:01:11:17.106
01:16:38.052                             : en:01:16:38.052
01:22:17.599                             : en:01:22:17.599
01:28:21.796                             : en:01:28:21.796

Скриншоты:



Время раздачи: с 13:00 до 23:00
[NNMClub.to]_AmeriGeddon.2016.1080p.mkv.torrent
 Торрент: Золотая раздача  Зарегистрирован
 
Примагнититься
Free Leech
Зарегистрируйтесь и скачайте торрент!
33 KB
 Зарегистрирован:   18 Сен 2016 21:26:12
 Размер:   6,56 GB  (
 Рейтинг:   4,3 (Голосов: 11)
 Поблагодарили:   48
 Проверка:   Оформление проверено модератором 18 Сен 2016 21:26:54
Как cкачать  ·  Как раздать  ·  Правильно оформить  ·  Поднять ратио!  
Алекс​&​&​&​
Стаж: 6 лет 2 мес.
Сообщений: 37
Ratio: 11,765
26.47%
hong_kong.gif
А в этом фильме есть злые "Русские"?
DSL_RU
Стаж: 5 лет 7 мес.
Сообщений: 41
Ratio: 6,416
100%
russia.gif
Алекс&&& писал(а): Перейти к сообщению
А в этом фильме есть злые "Русские"?
От "злых русских" видимо уже избавились. Теперь приходится "злых" американцев отстреливать)))
LIS27-07

Online
Стаж: 5 лет 10 мес.
Сообщений: 32
Ratio: 20,488
59.15%
Откуда: Москва
russia.gif
Алекс&&& писал(а): Перейти к сообщению
А в этом фильме есть злые "Русские"?


Справа, рядом с китайским коллегой


Последний раз редактировалось: LIS27-07 (19 Сен 2016 06:30:40), всего редактировалось 1 раз
saint​stalk​er​
Стаж: 7 лет
Сообщений: 189
Ratio: 3,035
6.1%
Откуда: Земля witch.png
russia.gif
Это они спецом сняли фильм что если не будет пендоских законов то миру хана.
bazooka_76
Стаж: 7 лет 3 мес.
Сообщений: 259
Ratio: 194,519
Раздал: 48,94 TB
100%
Откуда: Ворон​ежска​я​ губерния
russia.gif
LIS27-07 писал(а): Перейти к сообщению
Алекс&&& писал(а): Перейти к сообщению
А в этом фильме есть злые "Русские"?


Справа, рядом с китайским коллегой

американцы как только не издевались над русской и российской формой
drewgogo
Стаж: 4 года 8 мес.
Сообщений: 15
Ratio: 15,939
79.11%
Бюджет $131 000
Сборы $316 554
О чем вообще тут может идти разговор, тем более русские или не русские?!

Я бы вообще запретил на nnm выкладывать фильмы с рейтингом ниже 5 звезд!!!
Алекс​&​&​&​
Стаж: 6 лет 2 мес.
Сообщений: 37
Ratio: 11,765
26.47%
hong_kong.gif
drewgogo писал(а): Перейти к сообщению
Бюджет $131 000
Сборы $316 554
О чем вообще тут может идти разговор, тем более русские или не русские?!

Я бы вообще запретил на nnm выкладывать фильмы с рейтингом ниже 5 звезд!!!


Нет не соглашусь с тобой) выкладывать нужно все, мало ли кому пригодиться)) у нас все так на трекере коммунизм) а то если так по рейтингу выкладывать - то и до "пятой поправки" дойдет, а там мало ли что еще))

Добавлено спустя 8 минут 9 секунд:

Насчет "русских" в кадре, я вообще не уважаю американский фильм если в нем нет колоритного русского персонажа который может починить шатл гаечным ключом!

_________________
Left this place
Показать сообщения:   
Начать новую тему   Ответить на тему    Торрент-трекер NNM-Club -> Зарубежное кино -> Фильмы в оригинале (HD) Часовой пояс: GMT + 3
Страница 1 из 1