Интеллигентный торрент-трекер
canvas not supported
Нас вместе: 4 331 069

Человек – швейцарский нож / Swiss Army Man (2016) BDRip [H.264/1080p] [EN / EN Sub]


 
 
RSS
Начать новую тему   Ответить на тему    Торрент-трекер NNM-Club -> Зарубежное кино -> Фильмы в оригинале (HD)
Автор Сообщение
smaster67 ®
Модератор Видео
Покровитель талантов Uploader 300+
Стаж: 8 лет
Сообщений: 6668
Ratio: 202,663
Поблагодарили: 194079
100%
Человек – швейцарский нож / Swiss Army Man (2016) BDRip [H.264/1080p] [EN / EN Sub]

Производство: США
Жанр: фэнтези, драма, мелодрама, комедия, приключения

Режиссер: Дэн Кван , Дэниэл Шайнерт
Актеры: Пол Дано, Дэниэл Рэдклифф, Мэри Элизабет Уинстэд, Антония Риберо, Тимоти Йолих, Ричард Гросс, Марика Кастил, Энди Халл, Аарон Маршалл, Шейн Каррут, Джессика Харбек

Описание:
Оказавшись на необитаемом острове, Хэнк уже был готов потерять всякую надежду, но все меняется, когда на берегу он находит труп по имени Мэнни.
Многофункциональность Мэнни поможет Хэнку выжить в диких условиях и заново обрести радость жизни. Вместе они отправятся в эпическое приключение, которое вернет Хэнка к девушке его мечты.



Продолжительность: 01:37:23
Качество видео: BDRip 1080р
Перевод: Отсутствует
Язык озвучки: Английский
Язык субтитров: английский
Вид субтитров: Вшитые

Видео: AVC, 1920x800 (2.40:1), 10598 kbps, 23,976 fps, 0,288 bpp
Аудио: английский / AC3 / 5.1 / 48 kHz / 640 kbps /
Код: выделить все
General
Unique ID                              Swiss.Army.Man.2016.1080p.mkv
Format                                   : Matroska
Format version                           : Version 4 / Version 2
File size                                : 7.64 GiB
Duration                                 : 1 h 37 min
Overall bit rate                         : 11.2 Mb/s
Encoded date                             : UTC 2016-09-22 00:54:36
Writing application                      : mkvmerge v9.4.2 ('So High') 64bit
Writing library                          : libebml v1.3.4 + libmatroska v1.4.5

Video
ID                                       : 1
Format                                   : AVC
Format/Info                              : Advanced Video Codec
Format profile                           : High@L4.1
Format settings, CABAC                   : Yes
Format settings, ReFrames                : 5 frames
Codec ID                                 : V_MPEG4/ISO/AVC
Duration                                 : 1 h 37 min
Bit rate                                 : 10.6 Mb/s
Width                                    : 1 920 pixels
Height                                   : 800 pixels
Display aspect ratio                     : 2.40:1
Frame rate mode                          : Constant
Frame rate                               : 23.976 (24000/1001) FPS
Color space                              : YUV
Chroma subsampling                       : 4:2:0
Bit depth                                : 8 bits
Scan type                                : Progressive
Bits/(Pixel*Frame)                       : 0.288
Stream size                              : 7.20 GiB (94%)
Writing library                          : x264 core 148 r2705 3f5ed56
Encoding settings                        : cabac=1 / ref=5 / deblock=1:-3:-3 / analyse=0x3:0x113 / me=umh / subme=8 / psy=1 / psy_rd=1.00:0.00 / mixed_ref=1 / me_range=16 / chroma_me=1 / trellis=1 / 8x8dct=1 / cqm=0 / deadzone=21,11 / fast_pskip=1 / chroma_qp_offset=-2 / threads=24 / lookahead_threads=4 / sliced_threads=0 / nr=0 / decimate=1 / interlaced=0 / bluray_compat=0 / constrained_intra=0 / bframes=3 / b_pyramid=2 / b_adapt=2 / b_bias=0 / direct=3 / weightb=1 / open_gop=0 / weightp=2 / keyint=240 / keyint_min=24 / scenecut=40 / intra_refresh=0 / rc_lookahead=50 / rc=2pass / mbtree=1 / bitrate=10598 / ratetol=1.0 / qcomp=0.60 / qpmin=0 / qpmax=69 / qpstep=4 / cplxblur=20.0 / qblur=0.5 / ip_ratio=1.40 / aq=1:1.00
Default                                  : Yes
Forced                                   : No

Audio
ID                                       : 2
Format                                   : AC-3
Format/Info                              : Audio Coding 3
Mode extension                           : CM (complete main)
Format settings, Endianness              : Big
Codec ID                                 : A_AC3
Duration                                 : 1 h 37 min
Bit rate mode                            : Constant
Bit rate                                 : 640 kb/s
Channel(s)                               : 6 channels
Channel positions                        : Front: L C R, Side: L R, LFE
Sampling rate                            : 48.0 kHz
Frame rate                               : 31.250 FPS (1536 spf)
Compression mode                         : Lossy
Stream size                              : 446 MiB (6%)
Language                                 : English
Default                                  : Yes
Forced                                   : No

Text #1
ID                                       : 3
Format                                   : UTF-8
Codec ID                                 : S_TEXT/UTF8
Codec ID/Info                            : UTF-8 Plain Text
Duration                                 : 1 h 33 min
Bit rate                                 : 52 b/s
Count of elements                        : 1163
Stream size                              : 35.8 KiB (0%)
Language                                 : English
Default                                  : No
Forced                                   : No

Text #2
ID                                       : 4
Format                                   : UTF-8
Codec ID                                 : S_TEXT/UTF8
Codec ID/Info                            : UTF-8 Plain Text
Duration                                 : 1 h 36 min
Bit rate                                 : 55 b/s
Count of elements                        : 1389
Stream size                              : 39.5 KiB (0%)
Title                                    : SDH
Language                                 : English
Default                                  : No
Forced                                   : No

Menu
00:00:00.000                             : en:00:00:00.000
00:08:47.902                             : en:00:08:47.902
00:13:14.335                             : en:00:13:14.335
00:17:42.228                             : en:00:17:42.228
00:25:11.593                             : en:00:25:11.593
00:32:46.256                             : en:00:32:46.256
00:37:17.068                             : en:00:37:17.068
00:44:39.260                             : en:00:44:39.260
00:51:44.101                             : en:00:51:44.101
00:57:57.224                             : en:00:57:57.224
01:03:19.337                             : en:01:03:19.337
01:06:17.140                             : en:01:06:17.140
01:10:05.535                             : en:01:10:05.535
01:16:40.679                             : en:01:16:40.679
01:22:10.092                             : en:01:22:10.092
01:27:31.788                             : en:01:27:31.788

Скриншоты:



Время раздачи: с 13:00 до 23:00
[NNMClub.to]_Swiss.Army.Man.2016.1080p.mkv.torrent
 Торрент: Платиновая раздача  Зарегистрирован
 
Примагнититься

Скачать
 Зарегистрирован:   22 Сен 2016 20:35:44
 Размер:   7,64 GB  (
 Рейтинг:   4 (Голосов: 21)
 Поблагодарили:   98
 Проверка:   Оформление проверено модератором 22 Сен 2016 20:36:50
Как cкачать  ·  Как раздать  ·  Правильно оформить  ·  Поднять ратио!  
serb1982
Стаж: 7 лет 5 мес.
Сообщений: 11
Ratio: 8,77
1.05%
Откуда: Алексин
russia.gif
отлично
swz1968
Стаж: 4 года 11 мес.
Сообщений: 17
Ratio: 14,357
20.88%
УРА!!!
Теперь бы еще дубляж...
Tarkett12
Стаж: 6 лет 2 мес.
Сообщений: 1183
Ratio: 7,378
Раздал: 2,413 TB
Поблагодарили: 2867
100%
ussr.gif
Наитупейший фильм, удалил.
Поттер скатился до съемок в таком шлаке :шок:
twiceaday
Стаж: 8 лет 11 мес.
Сообщений: 4
Ratio: 20,375
29.44%
russia.gif
swz1968
Дубляж 24го числа. С тунца
Aroshigami
Стаж: 5 лет
Сообщений: 129
Ratio: 121,723
100%
Откуда: Белорецк
twiceaday
Спасибо, ждём!
Видео​монта​ж​
Стаж: 3 года 1 мес.
Сообщений: 165
Ratio: 17,817
Поблагодарили: 7
78.74%
Дождался!
Max_A​lekse​yev​
Стаж: 6 лет 4 мес.
Сообщений: 4020
Ratio: 56,169
Раздал: 65,81 TB
Поблагодарили: 876
100%
Откуда: Kharkov, UA
ukraine.gif
Цитата:
Поттер скатился до съемок в таком шлаке

На самом деле он никакой актер, а кушать хочется.
Жора Суперстар
Стаж: 6 лет 5 мес.
Сообщений: 130
Ratio: 8,942
Раздал: 4,46 TB
11.63%
russia.gif
мертвый Поттер тоже Поттер

_________________
Искусство посредством торрентов принадлежит народу...
skunz77
Стаж: 6 лет 2 мес.
Сообщений: 435
Ratio: 13,172
1.16%
Tarkett12 писал(а): Перейти к сообщению
Наитупейший фильм, удалил.
Поттер скатился до съемок в таком шлаке :шок:

Отличный фильм, стёбный! Дэниэл Рэдклифф в этом фильме играет в разы интересней, чем в том же унылом Поттере.
atibatin
Стаж: 3 года 10 мес.
Сообщений: 872
Ratio: 6,649
Поблагодарили: 2875
100%
Откуда: Жигулевск
russia.gif
Дорога с тунца, прикрутил к этому релизу, все отлично)))
Antone0
Стаж: 5 лет 11 мес.
Сообщений: 2
Ratio: 1,973
96.94%
pirates.png
atibatin писал(а): Перейти к сообщению
Дорога с тунца, прикрутил к этому релизу, все отлично)))
Цитата:

спасибо, бро)
Показать сообщения:   
Начать новую тему   Ответить на тему    Торрент-трекер NNM-Club -> Зарубежное кино -> Фильмы в оригинале (HD) Часовой пояс: GMT + 3
Страница 1 из 1