Интеллигентный торрент-трекер
canvas not supported
Нас вместе: 4 348 782

Охота на дикарей / Hunt for the Wilderpeople (2016) BDRip [H.264/720p] [EN / EN Sub]


 
 
RSS
Начать новую тему   Ответить на тему    Торрент-трекер NNM-Club -> Зарубежное кино -> Фильмы в оригинале (HD)
Автор Сообщение
smaster67 ®
Модератор Видео
Покровитель талантов Uploader 300+
Стаж: 7 лет 10 мес.
Сообщений: 6630
Ratio: 198,952
Поблагодарили: 192460
100%
Охота на дикарей / Hunt for the Wilderpeople (2016) BDRip [H.264/720p] [EN / EN Sub]

Производство: Новая Зеландия
Жанр: драма, комедия, приключения

Режиссер: Тайка Вайтити
Актеры: Сэм Нил, Джулиан Деннисон, Рима Те Вьята, Рэйчел Хаус, Оскар Кайтли, Стэн Уокер, Майк Миноуг, Коэн Холлоуэй, Риз Дэрби, Трой Кинги, Тайка Вайтити

Описание:
Рикки Бэйкер - упитанный городской хулиган. Сотрудница социальной службы Пола отвозит подростка в сельскую местность, где живёт единственная готовая принять его семья - Белла и её нелюдимый муж Гек. Когда Белла умирает и социальная защита собирается забрать Рикки, тот убегает в леса. Гек отправляется за ним. Сумасбродная Пола убеждена, что странный Гек слетел с катушек из-за смерти жены и похитил подростка. Она развязывает общенациональную охоту на мальчика и его «совратителя».



Продолжительность: 01:40:58
Качество видео: BDRip 720p
Перевод: Отсутствует
Язык озвучки: Английский
Язык субтитров: английский
Вид субтитров: Вшитые

Видео: AVC, 1280x536 (2.40:1), 4686 kbps, 24 fps, 0,285 bpp
Аудио: английский / DTS / 5.1 / 48 kHz / 1509 kbps / 24 bit
Код:
General
Unique ID                                : 0 (0x0)
Complete name                            Hunt.for.the.Wilderpeople.2016.720p.mkv
Format                                   : Matroska
Format version                           : Version 4 / Version 2
File size                                : 4.37 GiB
Duration                                 : 1 h 40 min
Overall bit rate                         : 6 197 kb/s
Encoded date                             : UTC 2010-02-22 21:41:29
Writing application                      : no_variable_data
Writing library                          : no_variable_data

Video
ID                                       : 1
Format                                   : AVC
Format/Info                              : Advanced Video Codec
Format profile                           : High@L4.1
Format settings, CABAC                   : Yes
Format settings, ReFrames                : 5 frames
Codec ID                                 : V_MPEG4/ISO/AVC
Duration                                 : 1 h 40 min
Bit rate                                 : 4 686 kb/s
Width                                    : 1 280 pixels
Height                                   : 536 pixels
Display aspect ratio                     : 2.40:1
Frame rate mode                          : Constant
Frame rate                               : 24.000 FPS
Color space                              : YUV
Chroma subsampling                       : 4:2:0
Bit depth                                : 8 bits
Scan type                                : Progressive
Bits/(Pixel*Frame)                       : 0.285
Stream size                              : 3.22 GiB (74%)
Writing library                          : x264 core 148 r2705 3f5ed56
Encoding settings                        : cabac=1 / ref=5 / deblock=1:-3:-3 / analyse=0x3:0x113 / me=umh / subme=8 / psy=1 / psy_rd=1.00:0.00 / mixed_ref=1 / me_range=16 / chroma_me=1 / trellis=1 / 8x8dct=1 / cqm=0 / deadzone=21,11 / fast_pskip=1 / chroma_qp_offset=-2 / threads=12 / lookahead_threads=2 / sliced_threads=0 / nr=0 / decimate=1 / interlaced=0 / bluray_compat=0 / constrained_intra=0 / bframes=3 / b_pyramid=2 / b_adapt=2 / b_bias=0 / direct=3 / weightb=1 / open_gop=0 / weightp=2 / keyint=240 / keyint_min=24 / scenecut=40 / intra_refresh=0 / rc_lookahead=50 / rc=2pass / mbtree=1 / bitrate=4686 / ratetol=1.0 / qcomp=0.60 / qpmin=0 / qpmax=69 / qpstep=4 / cplxblur=20.0 / qblur=0.5 / ip_ratio=1.40 / aq=3:0.80
Default                                  : Yes
Forced                                   : No
Statistics Tags Issue                    : no_variable_data 1970-01-01 00:00:00 / no_variable_data 2010-02-22 21:41:29
FromStats_BitRate                        : 4685845
FromStats_Duration                       : 01:40:58.750000000
FromStats_FrameCount                     : 145410
FromStats_StreamSize                     : 3548795938

Audio
ID                                       : 2
Format                                   : DTS
Format/Info                              : Digital Theater Systems
Mode                                     : 16
Format settings, Endianness              : Big
Codec ID                                 : A_DTS
Duration                                 : 1 h 40 min
Bit rate mode                            : Constant
Bit rate                                 : 1 509 kb/s
Channel(s)                               : 6 channels
Channel positions                        : Front: L C R, Side: L R, LFE
Sampling rate                            : 48.0 kHz
Frame rate                               : 93.750 FPS (512 spf)
Bit depth                                : 24 bits
Compression mode                         : Lossy
Stream size                              : 1.06 GiB (24%)
Language                                 : English
Default                                  : Yes
Forced                                   : No
Statistics Tags Issue                    : no_variable_data 1970-01-01 00:00:00 / no_variable_data 2010-02-22 21:41:29
FromStats_BitRate                        : 1509000
FromStats_Duration                       : 01:40:58.240000000
FromStats_FrameCount                     : 567960
FromStats_StreamSize                     : 1142735520

Text #1
ID                                       : 3
Format                                   : UTF-8
Codec ID                                 : S_TEXT/UTF8
Codec ID/Info                            : UTF-8 Plain Text
Language                                 : English
Default                                  : No
Forced                                   : No
Statistics Tags Issue                    : no_variable_data 1970-01-01 00:00:00 / no_variable_data 2010-02-22 21:41:29
FromStats_BitRate                        : 61
FromStats_Duration                       : 01:37:21.375000000
FromStats_FrameCount                     : 1301
FromStats_StreamSize                     : 44822

Text #2
ID                                       : 4
Format                                   : UTF-8
Codec ID                                 : S_TEXT/UTF8
Codec ID/Info                            : UTF-8 Plain Text
Title                                    : SDH
Language                                 : English
Default                                  : No
Forced                                   : No
Statistics Tags Issue                    : no_variable_data 1970-01-01 00:00:00 / no_variable_data 2010-02-22 21:41:29
FromStats_BitRate                        : 66
FromStats_Duration                       : 01:39:33.750000000
FromStats_FrameCount                     : 1545
FromStats_StreamSize                     : 49422

Menu
00:00:00.000                             : en:00:00:00.000
00:06:04.792                             : en:00:06:04.792
00:16:58.917                             : en:00:16:58.917
00:25:29.375                             : en:00:25:29.375
00:36:20.042                             : en:00:36:20.042
00:43:50.958                             : en:00:43:50.958
00:51:02.833                             : en:00:51:02.833
00:59:52.167                             : en:00:59:52.167
01:08:52.208                             : en:01:08:52.208
01:18:39.583                             : en:01:18:39.583
01:29:48.417                             : en:01:29:48.417
01:36:13.625                             : en:01:36:13.625

Скриншоты:



Время раздачи: с 13:00 до 23:00
[NNMClub.to]_Hunt.for.the.Wilderpeople.2016.720p.mkv.torrent
 Торрент: Платиновая раздача  Зарегистрирован
 
Примагнититься

Скачать
 Зарегистрирован:   23 Сен 2016 07:44:29
 Размер:   4,37 GB  (
 Рейтинг:   4,4 (Голосов: 10)
 Поблагодарили:   52
 Проверка:   Оформление проверено модератором 23 Сен 2016 07:45:26
Как cкачать  ·  Как раздать  ·  Правильно оформить  ·  Поднять ратио!  
Загрузка...
mcczoom
Стаж: 5 лет 7 мес.
Сообщений: 29
Ratio: 13,907
0.58%
canada.gif
Какая сочная картинка новозеландской природы в трейлере, можно качать уже ради этого.А бонусом еще и редкий акцент послушать :)
Показать сообщения:   
Начать новую тему   Ответить на тему    Торрент-трекер NNM-Club -> Зарубежное кино -> Фильмы в оригинале (HD) Часовой пояс: GMT + 3
Страница 1 из 1