Интеллигентный торрент-трекер
canvas not supported
Нас вместе: 4 330 198

Судная ночь 3 / The Purge: Election Year (2016) BDRemux [H.264/1080p] [EN / EN, Fr, Sp Sub]


 
 
RSS
Начать новую тему   Ответить на тему    Торрент-трекер NNM-Club -> Зарубежное кино -> Фильмы в оригинале (HD)
Автор Сообщение
smaster67 ®
Модератор Видео
Покровитель талантов Uploader 300+
Стаж: 8 лет
Сообщений: 6668
Ratio: 202,663
Поблагодарили: 194089
100%
Судная ночь 3 / The Purge: Election Year (2016) BDRemux [H.264/1080p] [EN / EN, Fr, Sp Sub]

Производство: США, Франция
Жанр: ужасы, фантастика, боевик, триллер

Режиссер: Джеймс ДеМонако
Актеры: Фрэнк Грилло, Элизабет Митчелл, Майкелти Уильямсон, Джозеф Джулиан Сория, Бетти Гэбриел, Терри Серпико, Эдвин Ходж, Кайл Сикор, Бэрри Нолан, Лиза Колон-Зайас, Итэн Филлипс, Адам Кантор

Описание:
Добро пожаловать в идеальное будущее, в котором Судная ночь превратилась в международный тренд. Туристы со всего мира прибывают в аэропорты Америки: ведь всего лишь раз в году здесь позволено все, главное - дожить до рассвета.

Продолжительность: 01:48:47
Качество видео: BDRemux
Перевод: Отсутствует
Язык озвучки: Английский
Язык субтитров: английский, испанский, французский
Вид субтитров: Вшитые

Видео: AVC, 1920x1080 (16:9), 31429 kbps, 23,976 fps, 0,632 bpp
Аудио: DTS-HD / 5.1 / 48 kHz / 3840 kbps / 24 bit (Core: 5.1 / 48 kHz / 1509 kbps / 24 bit)
Код: выделить все
General
Unique ID                               The.Purge.Election.Year.2016.REMUX.BluRay.1080p.AVC.DTS-HD.MA5.1-iFT\The.Purge.Election.Year.2016.REMUX.BluRay.1080p.AVC.DTS-HD.MA5.1-iFT.mkv
Format                                   : Matroska
Format version                           : Version 4 / Version 2
File size                                : 26.8 GiB
Duration                                 : 1 h 48 min
Overall bit rate mode                    : Variable
Overall bit rate                         : 35.3 Mb/s
Encoded date                             : UTC 2016-09-22 19:54:33
Writing application                      : mkvmerge v9.1.0 ('Little Earthquakes') 64bit
Writing library                          : libebml v1.3.3 + libmatroska v1.4.4

Video
ID                                       : 1
Format                                   : AVC
Format/Info                              : Advanced Video Codec
Format profile                           : High@L4.1
Format settings, CABAC                   : Yes
Format settings, ReFrames                : 4 frames
Codec ID                                 : V_MPEG4/ISO/AVC
Duration                                 : 1 h 48 min
Bit rate mode                            : Variable
Bit rate                                 : 31.4 Mb/s
Maximum bit rate                         : 37.0 Mb/s
Width                                    : 1 920 pixels
Height                                   : 1 080 pixels
Display aspect ratio                     : 16:9
Frame rate mode                          : Constant
Frame rate                               : 23.976 (24000/1001) FPS
Color space                              : YUV
Chroma subsampling                       : 4:2:0
Bit depth                                : 8 bits
Scan type                                : Progressive
Bits/(Pixel*Frame)                       : 0.632
Stream size                              : 23.9 GiB (89%)
Default                                  : Yes
Forced                                   : No

Audio
ID                                       : 2
Format                                   : DTS
Format/Info                              : Digital Theater Systems
Format profile                           : MA / Core
Mode                                     : 16
Format settings, Endianness              : Big
Codec ID                                 : A_DTS
Duration                                 : 1 h 48 min
Bit rate mode                            : Variable / Constant
Bit rate                                 : 3 840 kb/s / 1 509 kb/s
Channel(s)                               : 6 channels
Channel positions                        : Front: L C R, Side: L R, LFE
Sampling rate                            : 48.0 kHz
Frame rate                               : 93.750 FPS (512 spf)
Bit depth                                : 24 bits
Compression mode                         : Lossless / Lossy
Stream size                              : 2.91 GiB (11%)
Default                                  : Yes
Forced                                   : No

Text #1
ID                                       : 3
Format                                   : PGS
Muxing mode                              : zlib
Codec ID                                 : S_HDMV/PGS
Codec ID/Info                            : Picture based subtitle format used on BDs/HD-DVDs
Duration                                 : 1 h 43 min
Bit rate                                 : 12.3 kb/s
Count of elements                        : 2872
Stream size                              : 9.05 MiB (0%)
Language                                 : English
Default                                  : Yes
Forced                                   : No

Text #2
ID                                       : 4
Format                                   : PGS
Muxing mode                              : zlib
Codec ID                                 : S_HDMV/PGS
Codec ID/Info                            : Picture based subtitle format used on BDs/HD-DVDs
Duration                                 : 1 h 47 min
Bit rate                                 : 9 274 b/s
Count of elements                        : 2437
Stream size                              : 7.14 MiB (0%)
Language                                 : Spanish
Default                                  : No
Forced                                   : No

Text #3
ID                                       : 5
Format                                   : PGS
Muxing mode                              : zlib
Codec ID                                 : S_HDMV/PGS
Codec ID/Info                            : Picture based subtitle format used on BDs/HD-DVDs
Duration                                 : 1 h 47 min
Bit rate                                 : 9 288 b/s
Count of elements                        : 2448
Stream size                              : 7.12 MiB (0%)
Language                                 : French
Default                                  : No
Forced                                   : No

Text #4
ID                                       : 6
Format                                   : PGS
Muxing mode                              : zlib
Codec ID                                 : S_HDMV/PGS
Codec ID/Info                            : Picture based subtitle format used on BDs/HD-DVDs
Duration                                 : 1 h 47 min
Bit rate                                 : 175 b/s
Count of elements                        : 44
Stream size                              : 139 KiB (0%)
Language                                 : Spanish
Default                                  : No
Forced                                   : No

Text #5
ID                                       : 7
Format                                   : PGS
Muxing mode                              : zlib
Codec ID                                 : S_HDMV/PGS
Codec ID/Info                            : Picture based subtitle format used on BDs/HD-DVDs
Duration                                 : 1 h 46 min
Bit rate                                 : 196 b/s
Count of elements                        : 50
Stream size                              : 153 KiB (0%)
Language                                 : French
Default                                  : No
Forced                                   : No

Menu
00:00:00.000                             : en:00:00:00.000
00:05:47.347                             : en:00:05:47.347
00:09:21.978                             : en:00:09:21.978
00:17:15.618                             : en:00:17:15.618
00:22:49.493                             : en:00:22:49.493
00:28:43.180                             : en:00:28:43.180
00:35:58.490                             : en:00:35:58.490
00:41:50.508                             : en:00:41:50.508
00:47:03.112                             : en:00:47:03.112
00:53:30.374                             : en:00:53:30.374
00:57:31.531                             : en:00:57:31.531
01:02:20.820                             : en:01:02:20.820
01:10:43.614                             : en:01:10:43.614
01:17:32.731                             : en:01:17:32.731
01:22:16.765                             : en:01:22:16.765
01:27:03.093                             : en:01:27:03.093
01:32:12.819                             : en:01:32:12.819
01:36:17.480                             : en:01:36:17.480
01:41:35.715                             : en:01:41:35.715
01:43:36.752                             : en:01:43:36.752

Скриншоты:



Время раздачи: с 13:00 до 23:00
[NNMClub.to]_The.Purge.Election.Year.2016.REMUX.BluRay.1080p.AVC.DTS-HD.MA5.1-iFT.mkv.torrent
 Торрент: Золотая раздача  Зарегистрирован
 
Примагнититься
Free Leech
Зарегистрируйтесь и скачайте торрент!
134 KB
 Зарегистрирован:   23 Сен 2016 21:34:39
 Размер:   26,8 GB  (
 Рейтинг:    (Голосов: 4)
 Поблагодарили:   35
 Проверка:   Оформление проверено модератором 23 Сен 2016 21:35:15
Как cкачать  ·  Как раздать  ·  Правильно оформить  ·  Поднять ратио!  
Показать сообщения:   
Начать новую тему   Ответить на тему    Торрент-трекер NNM-Club -> Зарубежное кино -> Фильмы в оригинале (HD) Часовой пояс: GMT + 3
Страница 1 из 1