Интеллигентный торрент-трекер
canvas not supported
Нас вместе: 4 114 325

Джоши / Joshy (2016) BDRip [H.264/1080p] [EN]


 
 
RSS
Начать новую тему   Ответить на тему    Торрент-трекер NNM-Club -> Зарубежное кино -> Фильмы в оригинале (HD)
Автор Сообщение
smaster67 ®
Модератор Видео
Покровитель талантов Uploader 300+
Стаж: 7 лет 5 мес.
Сообщений: 6275
Ratio: 180,943
Поблагодарили: 174473
100%
Джоши / Joshy (2016) BDRip [H.264/1080p] [EN]

Производство: США
Жанр: комедия

Режиссер: Джефф Бэйна
Актеры: Томас Миддлдитч, Адам Палли, Алекс Росс Перри, Ник Кролл, Бретт Гельман, Дженни Слейт, Лорен Грэм, Обри Плаза, Джо Сванберг, Крис Сванберг, Элисон Бри, Пол Вайц

Описание:
Джош не хочет упустить отличную возможность воссоединиться со старыми друзьями на своем мальчишнике, который он решает устроить даже несмотря на отменившуюся свадьбу.

Продолжительность: 01:33:13
Качество видео: BDRip 1080p
Перевод: Отсутствует
Язык озвучки: Английский

Видео: AVC, 1920x808 (2.40:1), 8561 kbps, 23,976 fps, 0,230 bpp
Аудио: английский / DTS / 5.1 / 48 kHz / 1509 kbps / 24 bit
Код:
General
Unique ID                               Joshy.2016.BDRip.1080p.NNMClub.mkv
Format                                   : Matroska
Format version                           : Version 4 / Version 2
File size                                : 6.55 GiB
Duration                                 : 1 h 33 min
Overall bit rate                         : 10.1 Mb/s
Encoded date                             : UTC 2016-09-23 05:02:51
Writing application                      : mkvmerge v8.3.0 ('Over the Horizon') 64bit
Writing library                          : libebml v1.3.1 + libmatroska v1.4.2

Video
ID                                       : 1
Format                                   : AVC
Format/Info                              : Advanced Video Codec
Format profile                           : High@L4.1
Format settings, CABAC                   : Yes
Format settings, ReFrames                : 5 frames
Codec ID                                 : V_MPEG4/ISO/AVC
Duration                                 : 1 h 33 min
Bit rate                                 : 8 561 kb/s
Width                                    : 1 920 pixels
Height                                   : 808 pixels
Display aspect ratio                     : 2.40:1
Frame rate mode                          : Constant
Frame rate                               : 23.976 FPS
Color space                              : YUV
Chroma subsampling                       : 4:2:0
Bit depth                                : 8 bits
Scan type                                : Progressive
Bits/(Pixel*Frame)                       : 0.230
Stream size                              : 5.57 GiB (85%)
Writing library                          : x264 core 148 r2692 64f4e24
Encoding settings                        : cabac=1 / ref=5 / deblock=1:0:0 / analyse=0x3:0x133 / me=umh / subme=7 / psy=1 / psy_rd=1.00:0.00 / mixed_ref=1 / me_range=16 / chroma_me=1 / trellis=1 / 8x8dct=1 / cqm=0 / deadzone=21,11 / fast_pskip=0 / chroma_qp_offset=-2 / threads=24 / lookahead_threads=4 / sliced_threads=0 / nr=0 / decimate=1 / interlaced=0 / bluray_compat=0 / constrained_intra=0 / bframes=3 / b_pyramid=2 / b_adapt=1 / b_bias=0 / direct=1 / weightb=1 / open_gop=0 / weightp=2 / keyint=250 / keyint_min=23 / scenecut=40 / intra_refresh=0 / rc_lookahead=40 / rc=2pass / mbtree=1 / bitrate=8561 / ratetol=1.0 / qcomp=0.60 / qpmin=0 / qpmax=69 / qpstep=4 / cplxblur=20.0 / qblur=0.5 / ip_ratio=1.40 / aq=1:1.00
Language                                 : English
Default                                  : Yes
Forced                                   : No

Audio
ID                                       : 2
Format                                   : DTS
Format/Info                              : Digital Theater Systems
Mode                                     : 16
Format settings, Endianness              : Big
Codec ID                                 : A_DTS
Duration                                 : 1 h 33 min
Bit rate mode                            : Constant
Bit rate                                 : 1 509 kb/s
Channel(s)                               : 6 channels
Channel positions                        : Front: L C R, Side: L R, LFE
Sampling rate                            : 48.0 kHz
Frame rate                               : 93.750 FPS (512 spf)
Bit depth                                : 24 bits
Compression mode                         : Lossy
Stream size                              : 1 006 MiB (15%)
Language                                 : English
Default                                  : Yes
Forced                                   : No

Menu
00:00:00.000                             : en:00:00:00.000
00:04:08.165                             : en:00:04:08.165
00:11:17.635                             : en:00:11:17.635
00:17:53.489                             : en:00:17:53.489
00:23:27.323                             : en:00:23:27.323
00:27:21.431                             : en:00:27:21.431
00:36:23.473                             : en:00:36:23.473
00:41:29.612                             : en:00:41:29.612
00:46:38.212                             : en:00:46:38.212
00:51:41.432                             : en:00:51:41.432
00:57:26.276                             : en:00:57:26.276
01:04:14.017                             : en:01:04:14.017
01:10:42.447                             : en:01:10:42.447
01:15:59.221                             : en:01:15:59.221
01:19:57.459                             : en:01:19:57.459
01:25:58.278                             : en:01:25:58.278

Скриншоты:



Время раздачи: с 13:00 до 23:00
Joshy.2016.BDRip.1080p.NNMClub.mkv.torrent
 Торрент: Золотая раздача  Зарегистрирован
 
Примагнититься
Free Leech
Зарегистрируйтесь и скачайте торрент!
33 KB
 Зарегистрирован:   23 Сен 2016 22:50:18
 Размер:   6,55 GB  (
 Рейтинг:    (Голосов: 3)
 Поблагодарили:   25
 Проверка:   Оформление проверено модератором 23 Сен 2016 22:50:53
Как cкачать  ·  Как раздать  ·  Правильно оформить  ·  Поднять ратио!  
Показать сообщения:   
Начать новую тему   Ответить на тему    Торрент-трекер NNM-Club -> Зарубежное кино -> Фильмы в оригинале (HD) Часовой пояс: GMT + 3
Страница 1 из 1