Интеллигентный торрент-трекер
canvas not supported
Нас вместе: 4 343 137

Джоши / Joshy (2016) BDRip [H.264/720p] [EN]


 
 
RSS
Начать новую тему   Ответить на тему    Торрент-трекер NNM-Club -> Зарубежное кино -> Фильмы в оригинале (HD)
Автор Сообщение
smaster67 ®
Модератор Видео
Покровитель талантов Uploader 300+
Стаж: 7 лет 9 мес.
Сообщений: 6615
Ratio: 195,842
Поблагодарили: 191484
100%
Джоши / Joshy (2016) BDRip [H.264/720p] [EN]

Производство: США
Жанр: комедия

Режиссер: Джефф Бэйна
Актеры: Томас Миддлдитч, Адам Палли, Алекс Росс Перри, Ник Кролл, Бретт Гельман, Дженни Слейт, Лорен Грэм, Обри Плаза, Джо Сванберг, Крис Сванберг, Элисон Бри, Пол Вайц

Описание:
Джош не хочет упустить отличную возможность воссоединиться со старыми друзьями на своем мальчишнике, который он решает устроить даже несмотря на отменившуюся свадьбу.

Продолжительность: 01:33:13
Качество видео: BDRip 720p
Перевод: Отсутствует
Язык озвучки: Английский

Видео: AVC, 1280x536 (2.40:1), 5202 kbps, 23,976 fps, 0,316 bpp
Аудио: английский / DTS / 5.1 / 48 kHz / 1509 kbps / 24 bit
Код:
General
Unique ID                               Joshy.2016.BDRip.720p.NNMClub.mkv
Format                                   : Matroska
Format version                           : Version 4 / Version 2
File size                                : 4.37 GiB
Duration                                 : 1 h 33 min
Overall bit rate                         : 6 711 kb/s
Encoded date                             : UTC 2016-09-23 02:57:31
Writing application                      : mkvmerge v8.3.0 ('Over the Horizon') 64bit
Writing library                          : libebml v1.3.1 + libmatroska v1.4.2

Video
ID                                       : 1
Format                                   : AVC
Format/Info                              : Advanced Video Codec
Format profile                           : High@L4.1
Format settings, CABAC                   : Yes
Format settings, ReFrames                : 5 frames
Codec ID                                 : V_MPEG4/ISO/AVC
Duration                                 : 1 h 33 min
Bit rate                                 : 5 202 kb/s
Width                                    : 1 280 pixels
Height                                   : 536 pixels
Display aspect ratio                     : 2.40:1
Frame rate mode                          : Constant
Frame rate                               : 23.976 FPS
Color space                              : YUV
Chroma subsampling                       : 4:2:0
Bit depth                                : 8 bits
Scan type                                : Progressive
Bits/(Pixel*Frame)                       : 0.316
Stream size                              : 3.39 GiB (77%)
Writing library                          : x264 core 148 r2692 64f4e24
Encoding settings                        : cabac=1 / ref=5 / deblock=1:0:0 / analyse=0x3:0x133 / me=umh / subme=7 / psy=1 / psy_rd=1.00:0.00 / mixed_ref=1 / me_range=16 / chroma_me=1 / trellis=1 / 8x8dct=1 / cqm=0 / deadzone=21,11 / fast_pskip=0 / chroma_qp_offset=-2 / threads=17 / lookahead_threads=2 / sliced_threads=0 / nr=0 / decimate=1 / interlaced=0 / bluray_compat=0 / constrained_intra=0 / bframes=3 / b_pyramid=2 / b_adapt=1 / b_bias=0 / direct=1 / weightb=1 / open_gop=0 / weightp=2 / keyint=250 / keyint_min=23 / scenecut=40 / intra_refresh=0 / rc_lookahead=40 / rc=2pass / mbtree=1 / bitrate=5202 / ratetol=1.0 / qcomp=0.60 / qpmin=0 / qpmax=69 / qpstep=4 / cplxblur=20.0 / qblur=0.5 / ip_ratio=1.40 / aq=1:1.00
Language                                 : English
Default                                  : Yes
Forced                                   : No

Audio
ID                                       : 2
Format                                   : DTS
Format/Info                              : Digital Theater Systems
Mode                                     : 16
Format settings, Endianness              : Big
Codec ID                                 : A_DTS
Duration                                 : 1 h 33 min
Bit rate mode                            : Constant
Bit rate                                 : 1 509 kb/s
Channel(s)                               : 6 channels
Channel positions                        : Front: L C R, Side: L R, LFE
Sampling rate                            : 48.0 kHz
Frame rate                               : 93.750 FPS (512 spf)
Bit depth                                : 24 bits
Compression mode                         : Lossy
Stream size                              : 1 006 MiB (22%)
Language                                 : English
Default                                  : Yes
Forced                                   : No

Menu
00:00:00.000                             : en:00:00:00.000
00:04:08.165                             : en:00:04:08.165
00:11:17.635                             : en:00:11:17.635
00:17:53.489                             : en:00:17:53.489
00:23:27.323                             : en:00:23:27.323
00:27:21.431                             : en:00:27:21.431
00:36:23.473                             : en:00:36:23.473
00:41:29.612                             : en:00:41:29.612
00:46:38.212                             : en:00:46:38.212
00:51:41.432                             : en:00:51:41.432
00:57:26.276                             : en:00:57:26.276
01:04:14.017                             : en:01:04:14.017
01:10:42.447                             : en:01:10:42.447
01:15:59.221                             : en:01:15:59.221
01:19:57.459                             : en:01:19:57.459
01:25:58.278                             : en:01:25:58.278

Скриншоты:



Время раздачи: с 13:00 до 23:00
Joshy.2016.BDRip.720p.NNMClub.mkv.torrent
 Торрент: Серебряная раздча  Зарегистрирован
 
Примагнититься

Зарегистрируйтесь и скачайте торрент!
22 KB
 Зарегистрирован:   23 Сен 2016 23:06:14
 Размер:   4,37 GB  (
 Рейтинг:    (Голосов: 5)
 Поблагодарили:   22
 Проверка:   Оформление проверено модератором 23 Сен 2016 23:06:42
Как cкачать  ·  Как раздать  ·  Правильно оформить  ·  Поднять ратио!  
Загрузка...
Vanes​sa201​3​
Стаж: 3 года 9 мес.
Сообщений: 92
Ratio: 435,179
Раздал: 122,1 TB
100%
ussr.gif
Ой, дергунчик Я пою из "Bronze" :да:

_________________
Россия – единственная страна, которая оказала правительству Линкольна непосредственную военную помощь.
Показать сообщения:   
Начать новую тему   Ответить на тему    Торрент-трекер NNM-Club -> Зарубежное кино -> Фильмы в оригинале (HD) Часовой пояс: GMT + 3
Страница 1 из 1

День смеха и юмора отмечается 1 апреля. В этот день принято шутить и разыгрывать друзей, коллег по работе, домашних, словом всех, с кем Вам предстоит увидеться в этот праздник – первое апреля. Первоапрельские розыгрыши, приколы на 1 апреля, первоапрельские шутки должны быть веселыми и безобидными. Приколы на 1 апреля, как правило, удаются в том случае, если человек забыл какой сегодня месяц и день, словом, забыл про 1 апреля – день смеха, шуток, день дурака.

Желаем Вам много улыбок и хорошего настроения в этот день!
С Уважением, администрация NNM-Club :)