Интеллигентный торрент-трекер
canvas not supported
Нас вместе: 4 200 328

Непорочные / Les innocentes / The Innocents (2016) BDRip [H.264/720p] [Fr / EN Sub]


 
 
RSS
Начать новую тему   Ответить на тему    Торрент-трекер NNM-Club -> Зарубежное кино -> Фильмы в оригинале (HD)
Автор Сообщение
smaster67 ®
Модератор Видео
Покровитель талантов Uploader 300+
Стаж: 7 лет 6 мес.
Сообщений: 6395
Ratio: 186,932
Поблагодарили: 180297
100%
Непорочные / Les innocentes / The Innocents (2016) BDRip [H.264/720p] [Fr / EN Sub]

Производство: Франция, Польша
Жанр: драма

Режиссер: Анн Фонтен
Актеры: Лу де Лааж, Агата Бузек, Агата Кулеша, Венсан Макень, Джоэнна Кулиг, Элиза Рыцембель, Катажина Дабровска, Анна Прухняк, Хелена Суецкая, Мира Малюжинска

Описание:
Польша, зима 1945 года. Французский Красный крест занимается репатриацией своих граждан, уцелевших в фашистских концлагерях, и временно размещает их в больнице. Среди медиков работает молоденькая Матильда Больё. Однажды в больницу приезжает монахиня из близлежащего монастыря и на ломаном французском умоляет о помощи умирающей. Как оказалось, надо принять роды у одной из монахинь. Настоятельница монастыря хочет любой ценой сохранить тайну, чтобы избежать скандала. Встреченная с недоверием, Матильда вступает в неизвестный ей мир и близко знакомится с сестрой Марией. Вместе они открывают ужасающую правду, скрытую за стенами монастыря...



Продолжительность: 01:55:00
Качество видео: BDRip 720p
Перевод: Отсутствует
Язык озвучки: Французский
Язык субтитров: английский
Вид субтитров: Вшитые

Видео: AVC, 1280x688 (1.85:1), 5285 kbps, 24 fps, 0,250 bpp
Аудио: французский / DTS / 5.1 / 48 kHz / 1509 kbps / 24 bit
Код:
General
Unique ID                               The Innocents.2016.BDRip.720p.NNMClub.mkv
Format                                   : Matroska
Format version                           : Version 4 / Version 2
File size                                : 5.46 GiB
Duration                                 : 1 h 55 min
Overall bit rate                         : 6 796 kb/s
Encoded date                             : UTC 2016-09-24 11:45:08
Writing application                      : mkvmerge v9.4.2 ('So High') 64bit
Writing library                          : libebml v1.3.4 + libmatroska v1.4.5

Video
ID                                       : 1
Format                                   : AVC
Format/Info                              : Advanced Video Codec
Format profile                           : High@L4.1
Format settings, CABAC                   : Yes
Format settings, ReFrames                : 5 frames
Codec ID                                 : V_MPEG4/ISO/AVC
Duration                                 : 1 h 55 min
Bit rate                                 : 5 285 kb/s
Width                                    : 1 280 pixels
Height                                   : 688 pixels
Display aspect ratio                     : 1.85:1
Frame rate mode                          : Constant
Frame rate                               : 24.000 FPS
Color space                              : YUV
Chroma subsampling                       : 4:2:0
Bit depth                                : 8 bits
Scan type                                : Progressive
Bits/(Pixel*Frame)                       : 0.250
Stream size                              : 4.25 GiB (78%)
Writing library                          : x264 core 148 r2705 3f5ed56
Encoding settings                        : cabac=1 / ref=5 / deblock=1:-3:-3 / analyse=0x3:0x113 / me=umh / subme=8 / psy=1 / psy_rd=1.00:0.00 / mixed_ref=1 / me_range=16 / chroma_me=1 / trellis=1 / 8x8dct=1 / cqm=0 / deadzone=21,11 / fast_pskip=1 / chroma_qp_offset=-2 / threads=21 / lookahead_threads=3 / sliced_threads=0 / nr=0 / decimate=1 / interlaced=0 / bluray_compat=0 / constrained_intra=0 / bframes=3 / b_pyramid=2 / b_adapt=2 / b_bias=0 / direct=3 / weightb=1 / open_gop=0 / weightp=2 / keyint=240 / keyint_min=24 / scenecut=40 / intra_refresh=0 / rc_lookahead=50 / rc=2pass / mbtree=1 / bitrate=5285 / ratetol=1.0 / qcomp=0.60 / qpmin=0 / qpmax=69 / qpstep=4 / cplxblur=20.0 / qblur=0.5 / ip_ratio=1.40 / aq=1:1.00
Default                                  : Yes
Forced                                   : No

Audio
ID                                       : 2
Format                                   : DTS
Format/Info                              : Digital Theater Systems
Mode                                     : 16
Format settings, Endianness              : Big
Codec ID                                 : A_DTS
Duration                                 : 1 h 55 min
Bit rate mode                            : Constant
Bit rate                                 : 1 509 kb/s
Channel(s)                               : 6 channels
Channel positions                        : Front: L C R, Side: L R, LFE
Sampling rate                            : 48.0 kHz
Frame rate                               : 93.750 FPS (512 spf)
Bit depth                                : 24 bits
Compression mode                         : Lossy
Stream size                              : 1.21 GiB (22%)
Language                                 : French
Default                                  : Yes
Forced                                   : No

Text
ID                                       : 3
Format                                   : UTF-8
Codec ID                                 : S_TEXT/UTF8
Codec ID/Info                            : UTF-8 Plain Text
Duration                                 : 1 h 50 min
Bit rate                                 : 23 b/s
Count of elements                        : 703
Stream size                              : 19.1 KiB (0%)
Language                                 : English
Default                                  : Yes
Forced                                   : No

Menu
00:00:00.000                             : en:00:00:00.000
00:07:44.917                             : en:00:07:44.917
00:14:52.833                             : en:00:14:52.833
00:22:17.917                             : en:00:22:17.917
00:28:11.333                             : en:00:28:11.333
00:35:30.833                             : en:00:35:30.833
00:43:48.042                             : en:00:43:48.042
00:52:46.750                             : en:00:52:46.750
00:59:57.292                             : en:00:59:57.292
01:08:22.958                             : en:01:08:22.958
01:14:54.500                             : en:01:14:54.500
01:24:14.458                             : en:01:24:14.458
01:29:40.833                             : en:01:29:40.833
01:36:27.375                             : en:01:36:27.375
01:40:55.792                             : en:01:40:55.792
01:50:27.417                             : en:01:50:27.417

Скриншоты:



Время раздачи: с 13:00 до 23:00
The Innocents.2016.BDRip.720p.NNMClub.mkv.torrent
 Торрент: Серебряная раздча  Зарегистрирован
 
Примагнититься
Free Leech
Зарегистрируйтесь и скачайте торрент!
27,5 KB
 Зарегистрирован:   24 Сен 2016 18:37:10
 Размер:   5,46 GB  (
 Рейтинг:    (Голосов: 5)
 Поблагодарили:   35
 Проверка:   Оформление проверено модератором 24 Сен 2016 18:37:34
Как cкачать  ·  Как раздать  ·  Правильно оформить  ·  Поднять ратио!  
Показать сообщения:   
Начать новую тему   Ответить на тему    Торрент-трекер NNM-Club -> Зарубежное кино -> Фильмы в оригинале (HD) Часовой пояс: GMT + 3
Страница 1 из 1