Интеллигентный торрент-трекер
canvas not supported
Нас вместе: 4 309 896

Eluvium (Matthew Robert Cooper, Martin Eden) - Discography 24 Releases (2003-2016) [FLAC|Lossless|tracks+.cue, tracks] <Ambient, Modern Classical, Drone, Experimental>


 
 
RSS
Начать новую тему   Ответить на тему    Торрент-трекер NNM-Club -> Electronic -> Easy listening (Lossless)
Автор Сообщение
vilator ®
Модератор Музыки
RG Music
 
Стаж: 7 лет 11 мес.
Сообщений: 5696
Ratio: 126,392
Поблагодарили: 111949
100%
Откуда: Minsk
pirates.png
Eluvium Discography

Eluvium - это псевдоним эмбиент-музыканта Мэтью Купера, живущего в Портланде, штат Орегон.
Купер родился в Теннеси и вырос в Луисвилле, Кентукки. Музыкант смешивает в своих композициях такие стили экспериментальной музыки как шугейзинг, электроника и эмбиент. В его композициях, помимо вышеуказанных стилей, важную часть играет пианино. Буклеты его релизов и фотографии делает фотограф Дженни Паске. Музыкант в настоящее время издается на рекорд-лейбле под названием Temporary Residence.

Жанр: Ambient, Modern Classical, Drone, Experimental • Страна: US • Год издания: 2003-2016 • Тип издания: CD, Web, Vinyl
Аудиокодек: FLAC (*.flac) • Тип рипа: tracks+.cue, tracks • Продолжительность: 18:22:16 • Источник: What, Waffles, bandcamp
Треклист:
Год выпуска: 2003
Продолжительность: 00:35:54
Треклист:

01. The Unfinished (04:38)
02. Under The Water It Glowed (05:10)
03. There Wasn't Anything (04:41)
04. Zerthis Was A Shivering Human Image (15:35)
05. I Am So Much More Me That You Are Perfectly You (05:50)

Exact Audio Copy V0.99 prebeta 4 from 23. January 2008

EAC extraction logfile from 6. July 2008, 22:07

Eluvium / Lambent Material

Used drive : MATSHITADVD-RAM UJ-861H Adapter: 0 ID: 0

Read mode : Secure
Utilize accurate stream : Yes
Defeat audio cache : Yes
Make use of C2 pointers : No

Read offset correction : 102
Overread into Lead-In and Lead-Out : No
Fill up missing offset samples with silence : Yes
Delete leading and trailing silent blocks : No
Null samples used in CRC calculations : Yes
Used interface : Native Win32 interface for Win NT & 2000
Gap handling : Appended to previous track

Used output format : User Defined Encoder
Selected bitrate : 320 kBit/s
Quality : High
Add ID3 tag : No
Command line compressor : C:\Program Files\Exact Audio Copy\Flac\flac.exe
Additional command line options : -V -8 -T "artist=%a" -T "title=%t" -T "album=%g" -T "date=%y" -T "tracknumber=%n" -T "genre=%m" %s

TOC of the extracted CD

Track | Start | Length | Start sector | End sector
---------------------------------------------------------
1 | 0:00.00 | 4:38.13 | 0 | 20862
2 | 4:38.13 | 5:09.42 | 20863 | 44079
3 | 9:47.55 | 4:40.62 | 44080 | 65141
4 | 14:28.42 | 15:35.16 | 65142 | 135282
5 | 30:03.58 | 5:49.41 | 135283 | 161498

Track 1

Filename D:\FLAC\01 - The Unfinished.wav

Pre-gap length 0:00:02.00

Peak level 98.8 %
Track quality 100.0 %
Test CRC 7E43A202
Copy CRC 7E43A202
Cannot be verified as accurate (confidence 5) [D3AF1D46], AccurateRip returned [3D648C88]
Copy OK

Track 2

Filename D:\FLAC\02 - Under the Water It Glowed.wav

Peak level 98.8 %
Track quality 100.0 %
Test CRC EB00E305
Copy CRC EB00E305
Cannot be verified as accurate (confidence 5) [4CFB317C], AccurateRip returned [915CC290]
Copy OK

Track 3

Filename D:\FLAC\03 - There Wasn't Anything.wav

Pre-gap length 0:00:00.52

Peak level 98.8 %
Track quality 100.0 %
Test CRC C17B3006
Copy CRC C17B3006
Cannot be verified as accurate (confidence 5) [2A849A2A], AccurateRip returned [7CA36CEF]
Copy OK

Track 4

Filename D:\FLAC\04 - Zerthis Was a Shivering Human Image.wav

Pre-gap length 0:00:00.22

Peak level 51.3 %
Track quality 100.0 %
Test CRC CEE37DD1
Copy CRC CEE37DD1
Cannot be verified as accurate (confidence 5) [2275F69E], AccurateRip returned [CDE75B16]
Copy OK

Track 5

Filename D:\FLAC\05 - I Am So Much More Me That You Are Perfectly You.wav

Pre-gap length 0:00:01.68

Peak level 98.8 %
Track quality 100.0 %
Test CRC E4C9167D
Copy CRC E4C9167D
Cannot be verified as accurate (confidence 5) [9C2F8B26], AccurateRip returned [1B5F95E9]
Copy OK

No tracks could be verified as accurate
You may have a different pressing from the one(s) in the database

No errors occurred

End of status report


REM GENRE Electronic
REM DATE 2003
REM DISCID 3F086905
REM COMMENT "ExactAudioCopy v0.99pb4"
PERFORMER "Eluvium"
TITLE "Lambent Material"
FILE "01 - The Unfinished.wav" WAVE
TRACK 01 AUDIO
TITLE "The Unfinished"
PERFORMER "Eluvium"
INDEX 01 00:00:00
FILE "02 - Under the Water It Glowed.wav" WAVE
TRACK 02 AUDIO
TITLE "Under the Water It Glowed"
PERFORMER "Eluvium"
INDEX 01 00:00:00
TRACK 03 AUDIO
TITLE "There Wasn't Anything"
PERFORMER "Eluvium"
INDEX 00 05:09:03
FILE "03 - There Wasn't Anything.wav" WAVE
INDEX 01 00:00:00
TRACK 04 AUDIO
TITLE "Zerthis Was a Shivering Human Image"
PERFORMER "Eluvium"
INDEX 00 04:40:45
FILE "04 - Zerthis Was a Shivering Human Image.wav" WAVE
INDEX 01 00:00:00
TRACK 05 AUDIO
TITLE "I Am So Much More Me That You Are Perfectly You"
PERFORMER "Eluvium"
INDEX 00 15:33:40
FILE "05 - I Am So Much More Me That You Are Perfectly You.wav" WAVE
INDEX 01 00:00:00

Год выпуска: 2004
Продолжительность: 00:26:30
Треклист:

01. An Accidental Memory (01:12)
02. Genius And The Thieves (02:26)
03. Perfect Neglect In A Field Of Statues (05:26)
04. Nepenthe (03:42)
05. In A Sense (01:46)
06. The Well-Meaning Professor (07:35)
07. An Accidental Memory In The Case Of Death (04:23)

EAC extraction logfile from 26. November 2006, 11:51 for CD
Eluvium / An Accidental Memory in the Case of Death

Used drive : TSSTcorpCD/DVDW SH-W162C Adapter: 1 ID: 0
Read mode : Secure with NO C2, accurate stream, disable cache
Read offset correction : 6
Overread into Lead-In and Lead-Out : No

Used output format : C:\Program Files\FLAC\flac.exe (User Defined Encoder)
128 kBit/s
Additional command line options : -V -8 -T "artist=%a" -T "title=%t" -T "album=%g" -T "date=%y" -T "tracknumber=%n" -T "genre=%m" %s

Other options :
Fill up missing offset samples with silence : Yes
Delete leading and trailing silent blocks : No
Native Win32 interface for Win NT & 2000

Track 1
Filename C:\Documents and Settings\Billy1\My Documents\Torrents\An Accidental Memory in the Case of Death\01 - An Accidental Memory.wav

Pre-gap length 0:00:02.00

Peak level 100.0 %
Track quality 100.0 %
Test CRC A58E6FC3
Copy CRC A58E6FC3
Copy OK

Track 2
Filename C:\Documents and Settings\Billy1\My Documents\Torrents\An Accidental Memory in the Case of Death\02 - Genius and the Thieves.wav

Pre-gap length 0:00:04.00

Peak level 96.2 %
Track quality 99.9 %
Test CRC 9C12604D
Copy CRC 9C12604D
Copy OK

Track 3
Filename C:\Documents and Settings\Billy1\My Documents\Torrents\An Accidental Memory in the Case of Death\03 - Perfect Neglect in a Field of Statues.wav

Pre-gap length 0:00:04.00

Peak level 100.0 %
Track quality 100.0 %
Test CRC 246D1F14
Copy CRC 246D1F14
Copy OK

Track 4
Filename C:\Documents and Settings\Billy1\My Documents\Torrents\An Accidental Memory in the Case of Death\04 - Nepenthe.wav

Pre-gap length 0:00:04.00

Peak level 100.0 %
Track quality 100.0 %
Test CRC 79D814F7
Copy CRC 79D814F7
Copy OK

Track 5
Filename C:\Documents and Settings\Billy1\My Documents\Torrents\An Accidental Memory in the Case of Death\05 - In a Sense.wav

Pre-gap length 0:00:04.00

Peak level 100.0 %
Track quality 99.8 %
Test CRC 961D85DC
Copy CRC 961D85DC
Copy OK

Track 6
Filename C:\Documents and Settings\Billy1\My Documents\Torrents\An Accidental Memory in the Case of Death\06 - The Well-Meaning Professor.wav

Pre-gap length 0:00:04.00

Peak level 100.0 %
Track quality 99.9 %
Test CRC 6BF7C302
Copy CRC 6BF7C302
Copy OK

Track 7
Filename C:\Documents and Settings\Billy1\My Documents\Torrents\An Accidental Memory in the Case of Death\07 - An Accidental Memory in the Case of Death.wav

Pre-gap length 0:00:04.00

Peak level 100.0 %
Track quality 100.0 %
Test CRC 5CCA2A60
Copy CRC 5CCA2A60
Copy OK

No errors occured

End of status report


REM GENRE Post-Rock
REM DATE 2004
REM DISCID 5A063507
REM COMMENT "ExactAudioCopy v0.95b4"
PERFORMER "Eluvium"
TITLE "An Accidental Memory in the Case of Death"
FILE "01 - An Accidental Memory.wav" WAVE
TRACK 01 AUDIO
TITLE "An Accidental Memory"
PERFORMER "Eluvium"
INDEX 01 00:00:00
TRACK 02 AUDIO
TITLE "Genius and the Thieves"
PERFORMER "Eluvium"
INDEX 00 01:07:40
FILE "02 - Genius and the Thieves.wav" WAVE
INDEX 01 00:00:00
TRACK 03 AUDIO
TITLE "Perfect Neglect in a Field of Statues"
PERFORMER "Eluvium"
INDEX 00 02:22:34
FILE "03 - Perfect Neglect in a Field of Statues.wav" WAVE
INDEX 01 00:00:00
TRACK 04 AUDIO
TITLE "Nepenthe"
PERFORMER "Eluvium"
INDEX 00 05:21:47
FILE "04 - Nepenthe.wav" WAVE
INDEX 01 00:00:00
TRACK 05 AUDIO
TITLE "In a Sense"
PERFORMER "Eluvium"
INDEX 00 03:38:13
FILE "05 - In a Sense.wav" WAVE
INDEX 01 00:00:00
TRACK 06 AUDIO
TITLE "The Well-Meaning Professor"
PERFORMER "Eluvium"
INDEX 00 01:41:69
FILE "06 - The Well-Meaning Professor.wav" WAVE
INDEX 01 00:00:00
TRACK 07 AUDIO
TITLE "An Accidental Memory in the Case of Death"
PERFORMER "Eluvium"
INDEX 00 07:30:68
FILE "07 - An Accidental Memory in the Case of Death.wav" WAVE
INDEX 01 00:00:00

Год выпуска: 2005
Продолжительность: 00:54:36
Треклист:

01. New Animals From The Air (10:48)
02. Show Us Our Homes (04:47)
03. Area 41 (00:59)
04. Everything To Come (05:41)
05. Calm Of The Cast-Light Cloud (05:31)
06. Taken (16:56)
07. We Say Goodbye To Ourselves (02:10)
08. One (07:44)

EAC extraction logfile from 14. May 2007, 17:51 for CD
Eluvium / Talk Amongst The Trees

Used drive : HL-DT-STCD-RW GCE-8483B Adapter: 0 ID: 1
Read mode : Secure with NO C2, accurate stream, disable cache
Read offset correction : 6
Overread into Lead-In and Lead-Out : No

Used output format : C:\Program Files\FLAC\flac.exe (User Defined Encoder)
192 kBit/s
Additional command line options : -V -8 -T "artist=%a" -T "title=%t" -T "album=%g" -T "date=%y" -T "tracknumber=%n" -T "genre=%m" %s

Other options :
Fill up missing offset samples with silence : Yes
Delete leading and trailing silent blocks : No
Native Win32 interface for Win NT & 2000

Track 1
Filename C:\Documents and Settings\Patrick\Desktop\Ripped\Eluvium - Talk Amongst the Trees\01 - New Animals From The Air.wav

Pre-gap length 0:00:02.00

Peak level 98.8 %
Track quality 100.0 %
Test CRC 44088A97
Copy CRC 44088A97
Copy OK

Track 2
Filename C:\Documents and Settings\Patrick\Desktop\Ripped\Eluvium - Talk Amongst the Trees\02 - Show Us Our Homes.wav

Peak level 98.8 %
Track quality 100.0 %
Test CRC 76471FC6
Copy CRC 76471FC6
Copy OK

Track 3
Filename C:\Documents and Settings\Patrick\Desktop\Ripped\Eluvium - Talk Amongst the Trees\03 - Area 41.wav

Peak level 98.8 %
Track quality 100.0 %
Test CRC CC331F78
Copy CRC CC331F78
Copy OK

Track 4
Filename C:\Documents and Settings\Patrick\Desktop\Ripped\Eluvium - Talk Amongst the Trees\04 - Everything To Come.wav

Peak level 98.8 %
Track quality 100.0 %
Test CRC 202199E6
Copy CRC 202199E6
Copy OK

Track 5
Filename C:\Documents and Settings\Patrick\Desktop\Ripped\Eluvium - Talk Amongst the Trees\05 - Calm Of The Cast-Light Cloud.wav

Peak level 98.8 %
Track quality 100.0 %
Test CRC FD182639
Copy CRC FD182639
Copy OK

Track 6
Filename C:\Documents and Settings\Patrick\Desktop\Ripped\Eluvium - Talk Amongst the Trees\06 - Taken.wav

Peak level 98.8 %
Track quality 99.9 %
Test CRC 0C2632A6
Copy CRC 0C2632A6
Copy OK

Track 7
Filename C:\Documents and Settings\Patrick\Desktop\Ripped\Eluvium - Talk Amongst the Trees\07 - We Say Goodbye To Ourselves.wav

Peak level 98.8 %
Track quality 99.9 %
Test CRC 9469ECB7
Copy CRC 9469ECB7
Copy OK

Track 8
Filename C:\Documents and Settings\Patrick\Desktop\Ripped\Eluvium - Talk Amongst the Trees\08 - One.wav

Peak level 98.8 %
Track quality 100.0 %
Test CRC F77EC030
Copy CRC F77EC030
Copy OK

No errors occured

End of status report


REM GENRE Ambient
REM DATE 2005
REM DISCID 7C0CCA08
REM COMMENT "ExactAudioCopy v0.95b4"
PERFORMER "Eluvium"
TITLE "Talk Amongst The Trees"
FILE "01 - New Animals From The Air.wav" WAVE
TRACK 01 AUDIO
TITLE "New Animals From The Air"
PERFORMER "Eluvium"
INDEX 01 00:00:00
FILE "02 - Show Us Our Homes.wav" WAVE
TRACK 02 AUDIO
TITLE "Show Us Our Homes"
PERFORMER "Eluvium"
INDEX 01 00:00:00
FILE "03 - Area 41.wav" WAVE
TRACK 03 AUDIO
TITLE "Area 41"
PERFORMER "Eluvium"
INDEX 01 00:00:00
FILE "04 - Everything To Come.wav" WAVE
TRACK 04 AUDIO
TITLE "Everything To Come"
PERFORMER "Eluvium"
INDEX 01 00:00:00
FILE "05 - Calm Of The Cast-Light Cloud.wav" WAVE
TRACK 05 AUDIO
TITLE "Calm Of The Cast-Light Cloud"
PERFORMER "Eluvium"
INDEX 01 00:00:00
FILE "06 - Taken.wav" WAVE
TRACK 06 AUDIO
TITLE "Taken"
PERFORMER "Eluvium"
INDEX 01 00:00:00
FILE "07 - We Say Goodbye To Ourselves.wav" WAVE
TRACK 07 AUDIO
TITLE "We Say Goodbye To Ourselves"
PERFORMER "Eluvium"
INDEX 01 00:00:00
FILE "08 - One.wav" WAVE
TRACK 08 AUDIO
TITLE "One"
PERFORMER "Eluvium"
INDEX 01 00:00:00

Год выпуска: 2007
Продолжительность: 00:54:50
Треклист:

01. Amreik (03:18)
02. Indoor Swimming At The Space Station (10:29)
03. Seeing You Off The Edges (05:03)
04. Prelude For Time Feelers (05:49)
05. Requiem On Frankfort Ave. (02:41)
06. Radio Ballet (03:12)
07. (Intermission) (00:51)
08. After Nature (01:52)
09. Reciting The Airships (04:36)
10. Ostinato (06:09)
11. Hymn #1 (01:32)
12. Repose In Blue (09:18)

Exact Audio Copy V0.99 prebeta 4 from 23. January 2008

EAC extraction logfile from 22. February 2009, 18:50

Eluvium / Copia

Used drive : PIONEER DVD-RW DVR-K05 Adapter: 1 ID: 0

Read mode : Secure
Utilize accurate stream : Yes
Defeat audio cache : Yes
Make use of C2 pointers : No

Read offset correction : 48
Overread into Lead-In and Lead-Out : No
Fill up missing offset samples with silence : Yes
Delete leading and trailing silent blocks : No
Null samples used in CRC calculations : Yes
Used interface : Installed external ASPI interface
Gap handling : Appended to previous track

Used output format : User Defined Encoder
Selected bitrate : 320 kBit/s
Quality : High
Add ID3 tag : No
Command line compressor : C:\Program Files\Exact Audio Copy\FLAC\FLAC.EXE
Additional command line options : -V -8 -T "artist=%a" -T "title=%t" -T "album=%g" -T "date=%y" -T "tracknumber=%n" -T "genre=%m" %s

TOC of the extracted CD

Track | Start | Length | Start sector | End sector
---------------------------------------------------------
1 | 0:00.00 | 3:18.09 | 0 | 14858
2 | 3:18.09 | 10:29.28 | 14859 | 62061
3 | 13:47.37 | 5:03.28 | 62062 | 84814
4 | 18:50.65 | 5:48.58 | 84815 | 110972
5 | 24:39.48 | 2:41.02 | 110973 | 123049
6 | 27:20.50 | 3:12.16 | 123050 | 137465
7 | 30:32.66 | 0:50.41 | 137466 | 141256
8 | 31:23.32 | 1:51.49 | 141257 | 149630
9 | 33:15.06 | 4:35.59 | 149631 | 170314
10 | 37:50.65 | 6:08.66 | 170315 | 197980
11 | 43:59.56 | 1:31.72 | 197981 | 204877
12 | 45:31.53 | 9:18.22 | 204878 | 246749

Track 1

Filename C:\WAFFLES\FLAC\Eluvium - Copia (2007) [FLAC]\01 Amreik.wav

Pre-gap length 0:00:02.00

Peak level 89.4 %
Track quality 100.0 %
Test CRC 51B4EFEE
Copy CRC 51B4EFEE
Cannot be verified as accurate (confidence 16) [CDC4C8DD], AccurateRip returned [D676AA9E]
Copy OK

Track 2

Filename C:\WAFFLES\FLAC\Eluvium - Copia (2007) [FLAC]\02 Indoor Swimming At The Space Station.wav

Pre-gap length 0:00:06.65

Peak level 90.5 %
Track quality 100.0 %
Test CRC 07E4FB87
Copy CRC 07E4FB87
Cannot be verified as accurate (confidence 16) [8A9E0BC0], AccurateRip returned [EBE0F12B]
Copy OK

Track 3

Filename C:\WAFFLES\FLAC\Eluvium - Copia (2007) [FLAC]\03 Seeing You Off The Edges.wav

Peak level 91.6 %
Track quality 100.0 %
Test CRC CBDB0437
Copy CRC CBDB0437
Cannot be verified as accurate (confidence 16) [1EF783F3], AccurateRip returned [E5FE92D3]
Copy OK

Track 4

Filename C:\WAFFLES\FLAC\Eluvium - Copia (2007) [FLAC]\04 Prelude For Time Feelers.wav

Peak level 90.9 %
Track quality 100.0 %
Test CRC 34C2C419
Copy CRC 34C2C419
Cannot be verified as accurate (confidence 16) [1B34978C], AccurateRip returned [2277CA64]
Copy OK

Track 5

Filename C:\WAFFLES\FLAC\Eluvium - Copia (2007) [FLAC]\05 Requiem On Frankfort Ave..wav

Peak level 88.8 %
Track quality 99.9 %
Test CRC C7AFEBB7
Copy CRC C7AFEBB7
Cannot be verified as accurate (confidence 16) [2079FAA1], AccurateRip returned [0AF5311D]
Copy OK

Track 6

Filename C:\WAFFLES\FLAC\Eluvium - Copia (2007) [FLAC]\06 Radio Ballet.wav

Pre-gap length 0:00:02.36

Peak level 89.9 %
Track quality 100.0 %
Test CRC 71002633
Copy CRC 71002633
Cannot be verified as accurate (confidence 16) [A1BABF64], AccurateRip returned [4E21472D]
Copy OK

Track 7

Filename C:\WAFFLES\FLAC\Eluvium - Copia (2007) [FLAC]\07 (Intermission).wav

Peak level 46.0 %
Track quality 100.0 %
Test CRC 7F9BE08C
Copy CRC 7F9BE08C
Cannot be verified as accurate (confidence 16) [61215982], AccurateRip returned [DA90A6B1]
Copy OK

Track 8

Filename C:\WAFFLES\FLAC\Eluvium - Copia (2007) [FLAC]\08 After Nature.wav

Peak level 49.6 %
Track quality 100.0 %
Test CRC 2FB0C07A
Copy CRC 2FB0C07A
Cannot be verified as accurate (confidence 16) [DD7D819F], AccurateRip returned [9E0ECAE6]
Copy OK

Track 9

Filename C:\WAFFLES\FLAC\Eluvium - Copia (2007) [FLAC]\09 Reciting The Airships.wav

Pre-gap length 0:00:00.30

Peak level 91.7 %
Track quality 100.0 %
Test CRC 39ED6C95
Copy CRC 39ED6C95
Cannot be verified as accurate (confidence 16) [1F76B715], AccurateRip returned [446CAE22]
Copy OK

Track 10

Filename C:\WAFFLES\FLAC\Eluvium - Copia (2007) [FLAC]\10 Ostinato.wav

Peak level 91.1 %
Track quality 100.0 %
Test CRC 4B3FBEB5
Copy CRC 4B3FBEB5
Cannot be verified as accurate (confidence 16) [D4AFB9D9], AccurateRip returned [076D6164]
Copy OK

Track 11

Filename C:\WAFFLES\FLAC\Eluvium - Copia (2007) [FLAC]\11 Hymn #1.wav

Peak level 30.6 %
Track quality 99.8 %
Test CRC F0225B0E
Copy CRC F0225B0E
Cannot be verified as accurate (confidence 16) [BBBFCA61], AccurateRip returned [C949192B]
Copy OK

Track 12

Filename C:\WAFFLES\FLAC\Eluvium - Copia (2007) [FLAC]\12 Repose In Blue.wav

Peak level 91.7 %
Track quality 100.0 %
Test CRC A00BCAD0
Copy CRC A00BCAD0
Cannot be verified as accurate (confidence 16) [E78E263F], AccurateRip returned [6D29BA87]
Copy OK

No tracks could be verified as accurate
You may have a different pressing from the one(s) in the database

No errors occurred

End of status report


REM GENRE Ambient
REM DATE 2007
REM DISCID A20CDA0C
REM COMMENT "ExactAudioCopy v0.99pb4"
PERFORMER "Eluvium"
TITLE "Copia"
FILE "01 Amreik.wav" WAVE
TRACK 01 AUDIO
TITLE "Amreik"
PERFORMER "Eluvium"
INDEX 01 00:00:00
TRACK 02 AUDIO
TITLE "Indoor Swimming At The Space Station"
PERFORMER "Eluvium"
INDEX 00 03:11:35
FILE "02 Indoor Swimming At The Space Station.wav" WAVE
INDEX 01 00:00:00
FILE "03 Seeing You Off The Edges.wav" WAVE
TRACK 03 AUDIO
TITLE "Seeing You Off The Edges"
PERFORMER "Eluvium"
INDEX 01 00:00:00
FILE "04 Prelude For Time Feelers.wav" WAVE
TRACK 04 AUDIO
TITLE "Prelude For Time Feelers"
PERFORMER "Eluvium"
INDEX 01 00:00:00
FILE "05 Requiem On Frankfort Ave..wav" WAVE
TRACK 05 AUDIO
TITLE "Requiem On Frankfort Ave."
PERFORMER "Eluvium"
INDEX 01 00:00:00
TRACK 06 AUDIO
TITLE "Radio Ballet"
PERFORMER "Eluvium"
INDEX 00 02:38:50
FILE "06 Radio Ballet.wav" WAVE
INDEX 01 00:00:00
FILE "07 (Intermission).wav" WAVE
TRACK 07 AUDIO
TITLE "(Intermission)"
PERFORMER "Eluvium"
INDEX 01 00:00:00
FILE "08 After Nature.wav" WAVE
TRACK 08 AUDIO
TITLE "After Nature"
PERFORMER "Eluvium"
INDEX 01 00:00:00
TRACK 09 AUDIO
TITLE "Reciting The Airships"
PERFORMER "Eluvium"
INDEX 00 01:51:26
FILE "09 Reciting The Airships.wav" WAVE
INDEX 01 00:00:00
FILE "10 Ostinato.wav" WAVE
TRACK 10 AUDIO
TITLE "Ostinato"
PERFORMER "Eluvium"
INDEX 01 00:00:00
FILE "11 Hymn #1.wav" WAVE
TRACK 11 AUDIO
TITLE "Hymn #1"
PERFORMER "Eluvium"
INDEX 01 00:00:00
FILE "12 Repose In Blue.wav" WAVE
TRACK 12 AUDIO
TITLE "Repose In Blue"
PERFORMER "Eluvium"
INDEX 01 00:00:00

Год выпуска: 2010
Продолжительность: 00:42:40
Треклист:

01. Leaves Eclipse The Light (05:42)
02. The Motion Makes Me Last (05:26)
03. In Culmination (02:57)
04. Weird Creatures (04:35)
05. Nightmare 5 (03:30)
06. Making Up Minds (06:31)
07. Bending Dream (02:42)
08. Cease To Know (11:17)

X Lossless Decoder version 20100123 (115.4)

XLD extraction logfile from 2010-01-27 12:59:16 -0500

Eluvium / Similes

Used drive : PIONEER DVD-RW DVR-218L (revision 1.02)

Use cdparanoia mode : YES (CDParanoia III 10.2 engine)
Disable audio cache : OK for the drive with cache less than 2750KB
Make use of C2 pointers : NO
Read offset correction : 6
Max retry count : 100

TOC of the extracted CD
Track | Start | Length | Start sector | End sector
---------------------------------------------------------
1 | 00:00:00 | 05:42:10 | 0 | 25659
2 | 05:42:10 | 05:25:68 | 25660 | 50102
3 | 11:08:03 | 02:56:49 | 50103 | 63351
4 | 14:04:52 | 04:35:14 | 63352 | 83990
5 | 18:39:66 | 03:29:42 | 83991 | 99707
6 | 22:09:33 | 06:30:61 | 99708 | 129018
7 | 28:40:19 | 02:42:18 | 129019 | 141186
8 | 31:22:37 | 11:16:38 | 141187 | 191924

All Tracks
Album gain : -6.37 dB
Peak : 0.917114

Track 01
Filename : /Users/shaneshirey/Downloads/01 - Leaves Eclipse the Light.flac

Pre-gap length : 00:02:00

Track gain : -6.09 dB
Peak : 0.796631
CRC32 hash (test run) : 0253302C
CRC32 hash : 0253302C
CRC32 hash (skip zero) : A5E2A7C2
AccurateRip signature : AF439834
->Track not present in AccurateRip database.
Statistics
Read error : 0
Skipped (treated as error) : 0
Edge jitter error (maybe fixed) : 0
Atom jitter error (maybe fixed) : 0
Drift error (maybe fixed) : 0
Dropped bytes error (maybe fixed) : 0
Duplicated bytes error (maybe fixed) : 0
Inconsistency in error sectors : 0

Track 02
Filename : /Users/shaneshirey/Downloads/02 - The Motion Makes Me Last.flac

Pre-gap length : 00:02:65

Track gain : -7.19 dB
Peak : 0.917114
CRC32 hash (test run) : 67381EBD
CRC32 hash : 67381EBD
CRC32 hash (skip zero) : 10B3AE3C
AccurateRip signature : B723F054
->Track not present in AccurateRip database.
Statistics
Read error : 0
Skipped (treated as error) : 0
Edge jitter error (maybe fixed) : 0
Atom jitter error (maybe fixed) : 0
Drift error (maybe fixed) : 0
Dropped bytes error (maybe fixed) : 0
Duplicated bytes error (maybe fixed) : 0
Inconsistency in error sectors : 0

Track 03
Filename : /Users/shaneshirey/Downloads/03 - In Culmination.flac

Pre-gap length : 00:01:65

Track gain : -4.09 dB
Peak : 0.890900
CRC32 hash (test run) : D703F62F
CRC32 hash : D703F62F
CRC32 hash (skip zero) : EA387F48
AccurateRip signature : B06F769C
->Track not present in AccurateRip database.
Statistics
Read error : 0
Skipped (treated as error) : 0
Edge jitter error (maybe fixed) : 0
Atom jitter error (maybe fixed) : 0
Drift error (maybe fixed) : 0
Dropped bytes error (maybe fixed) : 0
Duplicated bytes error (maybe fixed) : 0
Inconsistency in error sectors : 0

Track 04
Filename : /Users/shaneshirey/Downloads/04 - Weird Creatures.flac

Pre-gap length : 00:01:65

Track gain : -7.58 dB
Peak : 0.911133
CRC32 hash (test run) : 0C8B8637
CRC32 hash : 0C8B8637
CRC32 hash (skip zero) : 586020ED
AccurateRip signature : 00FEDBBA
->Track not present in AccurateRip database.
Statistics
Read error : 0
Skipped (treated as error) : 0
Edge jitter error (maybe fixed) : 0
Atom jitter error (maybe fixed) : 0
Drift error (maybe fixed) : 0
Dropped bytes error (maybe fixed) : 0
Duplicated bytes error (maybe fixed) : 0
Inconsistency in error sectors : 0

Track 05
Filename : /Users/shaneshirey/Downloads/05 - Nightmare 5.flac

Pre-gap length : 00:03:65

Track gain : -4.64 dB
Peak : 0.879211
CRC32 hash (test run) : 60D6123D
CRC32 hash : 60D6123D
CRC32 hash (skip zero) : CE776155
AccurateRip signature : 7ED597D2
->Track not present in AccurateRip database.
Statistics
Read error : 0
Skipped (treated as error) : 0
Edge jitter error (maybe fixed) : 0
Atom jitter error (maybe fixed) : 0
Drift error (maybe fixed) : 0
Dropped bytes error (maybe fixed) : 0
Duplicated bytes error (maybe fixed) : 0
Inconsistency in error sectors : 0

Track 06
Filename : /Users/shaneshirey/Downloads/06 - Making Up Minds.flac

Pre-gap length : 00:02:65

Track gain : -6.47 dB
Peak : 0.903625
CRC32 hash (test run) : 2AE0A213
CRC32 hash : 2AE0A213
CRC32 hash (skip zero) : 12A6F036
AccurateRip signature : EA45D927
->Track not present in AccurateRip database.
Statistics
Read error : 0
Skipped (treated as error) : 0
Edge jitter error (maybe fixed) : 0
Atom jitter error (maybe fixed) : 0
Drift error (maybe fixed) : 0
Dropped bytes error (maybe fixed) : 0
Duplicated bytes error (maybe fixed) : 0
Inconsistency in error sectors : 0

Track 07
Filename : /Users/shaneshirey/Downloads/07 - Bending Dream.flac

Pre-gap length : 00:01:65

Track gain : -3.22 dB
Peak : 0.904419
CRC32 hash (test run) : 8513E700
CRC32 hash : 8513E700
CRC32 hash (skip zero) : 3ABA8B94
AccurateRip signature : 933BCD19
->Track not present in AccurateRip database.
Statistics
Read error : 0
Skipped (treated as error) : 0
Edge jitter error (maybe fixed) : 0
Atom jitter error (maybe fixed) : 0
Drift error (maybe fixed) : 0
Dropped bytes error (maybe fixed) : 0
Duplicated bytes error (maybe fixed) : 0
Inconsistency in error sectors : 0

Track 08
Filename : /Users/shaneshirey/Downloads/08 - Cease to Know.flac

Pre-gap length : 00:01:65

Track gain : -4.44 dB
Peak : 0.908417
CRC32 hash (test run) : 1E63C719
CRC32 hash : 1E63C719
CRC32 hash (skip zero) : BD518DD9
AccurateRip signature : 042B700E
->Track not present in AccurateRip database.
Statistics
Read error : 0
Skipped (treated as error) : 0
Edge jitter error (maybe fixed) : 0
Atom jitter error (maybe fixed) : 0
Drift error (maybe fixed) : 0
Dropped bytes error (maybe fixed) : 0
Duplicated bytes error (maybe fixed) : 0
Inconsistency in error sectors : 0

No errors occurred

End of status report


TITLE "Similes"
PERFORMER "Eluvium"
REM GENRE "Ambient"
REM DATE 2010
FILE "01 - Leaves Eclipse the Light.wav" WAVE
TRACK 01 AUDIO
TITLE "Leaves Eclipse the Light"
ISRC USY6C1016301
INDEX 01 00:00:00
TRACK 02 AUDIO
TITLE "The Motion Makes Me Last"
ISRC USY6C1016302
INDEX 00 05:39:20
FILE "02 - The Motion Makes Me Last.wav" WAVE
INDEX 01 00:00:00
TRACK 03 AUDIO
TITLE "In Culmination"
ISRC USY6C1016303
INDEX 00 05:24:03
FILE "03 - In Culmination.wav" WAVE
INDEX 01 00:00:00
TRACK 04 AUDIO
TITLE "Weird Creatures"
ISRC USY6C1016305
INDEX 00 02:54:59
FILE "04 - Weird Creatures.wav" WAVE
INDEX 01 00:00:00
TRACK 05 AUDIO
TITLE "Nightmare 5"
ISRC USY6C1016306
INDEX 00 04:31:24
FILE "05 - Nightmare 5.wav" WAVE
INDEX 01 00:00:00
TRACK 06 AUDIO
TITLE "Making Up Minds"
ISRC USY6C1016306
INDEX 00 03:26:52
FILE "06 - Making Up Minds.wav" WAVE
INDEX 01 00:00:00
TRACK 07 AUDIO
TITLE "Bending Dream"
ISRC USY6C1016307
INDEX 00 06:28:71
FILE "07 - Bending Dream.wav" WAVE
INDEX 01 00:00:00
TRACK 08 AUDIO
TITLE "Cease to Know"
ISRC USY6C1016308
INDEX 00 02:40:28
FILE "08 - Cease to Know.wav" WAVE
INDEX 01 00:00:00

Год выпуска: 2010
Продолжительность: 00:50:08
Треклист:

01. Static Nocturne (50:08)

-----------------------

DON'T MODIFY THIS FILE

-----------------------

PERFORMER: auCDtect Task Manager, ver. 1.5.1RC6 build 1.5.1.7
Copyright (c) 2008-2010 y-soft. All rights reserved
http://y-soft.org

ANALYZER: auCDtect: CD records authenticity detector, version 0.8.2
Copyright (c) 2004 Oleg Berngardt. All rights reserved.
Copyright (c) 2004 Alexander Djourik. All rights reserved.

FILE: 01. Static Nocturne.flac
Size: 309043422 Hash: FB670BF2741793605CB1AC29176F4EC0 Accuracy: -m0
Conclusion: CDDA 100%
Signature: 1F427DD521CCF6ABDF471035F8B82448D0E9DB17

Год выпуска: 2013
Продолжительность: 00:42:45+00:41:00
Треклист:

CD1
01. Don't Get Any Closer (09:06)
02. Warm (07:10)
03. By The Rails (02:15)
04. Unknown Variation (08:42)
05. Caroling (03:53)
06. Sleeper (06:17)
07. Envenom Mettle (05:22)

CD2
01. Chime (03:26)
02. Rain Gently (08:49)
03. Impromptu (For The Procession) (04:01)
04. Covered In Writing (09:18)
05. Entendre (04:20)
06. Strange Arrivals (02:50)
07. Happiness (08:16)

Exact Audio Copy V1.0 beta 3 from 29. August 2011

EAC extraction logfile from 3. May 2013, 16:42

Eluvium / Nightmare Ending (Disc 1)

Used drive : PIONEER DVD-RW DVR-115D Adapter: 1 ID: 0

Read mode : Secure
Utilize accurate stream : Yes
Defeat audio cache : Yes
Make use of C2 pointers : No

Read offset correction : 48
Overread into Lead-In and Lead-Out : No
Fill up missing offset samples with silence : Yes
Delete leading and trailing silent blocks : No
Null samples used in CRC calculations : Yes
Used interface : Native Win32 interface for Win NT & 2000
Gap handling : Appended to previous track

Used output format : User Defined Encoder
Selected bitrate : 896 kBit/s
Quality : High
Add ID3 tag : No
Command line compressor : G:\EAC\App\App\EAC\FLAC\flac.exe
Additional command line options : -6 -V -T "ARTIST=%artist%" -T "TITLE=%title%" -T "ALBUM=%albumtitle%" -T "DATE=%year%" -T "TRACKNUMBER=%tracknr%" -T "GENRE=%genre%" -T "COMMENT=%comment%" %hascover%--picture="%coverfile%"%hascover% %source% -o %dest%

TOC of the extracted CD

Track | Start | Length | Start sector | End sector
---------------------------------------------------------
1 | 0:00.00 | 9:06.28 | 0 | 40977
2 | 9:06.28 | 7:09.74 | 40978 | 73226
3 | 16:16.27 | 2:15.13 | 73227 | 83364
4 | 18:31.40 | 8:42.22 | 83365 | 122536
5 | 27:13.62 | 3:53.34 | 122537 | 140045
6 | 31:07.21 | 6:16.41 | 140046 | 168286
7 | 37:23.62 | 5:22.33 | 168287 | 192469

Track 1

Filename G:\EAC\Eluvium - Nightmare Ending (Disc 1) [FLAC]\01 - Don't Get Any Closer.wav

Pre-gap length 0:00:02.00

Peak level 97.8 %
Extraction speed 5.3 X
Track quality 100.0 %
Test CRC 7AD66D5C
Copy CRC 7AD66D5C
Track not present in AccurateRip database
Copy OK

Track 2

Filename G:\EAC\Eluvium - Nightmare Ending (Disc 1) [FLAC]\02 - Warm.wav

Peak level 97.8 %
Extraction speed 6.0 X
Track quality 100.0 %
Test CRC 6F6A93D8
Copy CRC 6F6A93D8
Track not present in AccurateRip database
Copy OK

Track 3

Filename G:\EAC\Eluvium - Nightmare Ending (Disc 1) [FLAC]\03 - By The Rails.wav

Peak level 97.5 %
Extraction speed 5.3 X
Track quality 100.0 %
Test CRC 9A2C1DB5
Copy CRC 9A2C1DB5
Track not present in AccurateRip database
Copy OK

Track 4

Filename G:\EAC\Eluvium - Nightmare Ending (Disc 1) [FLAC]\04 - Unknown Variation.wav

Peak level 97.8 %
Extraction speed 6.9 X
Track quality 100.0 %
Test CRC C4FA1AD3
Copy CRC C4FA1AD3
Track not present in AccurateRip database
Copy OK

Track 5

Filename G:\EAC\Eluvium - Nightmare Ending (Disc 1) [FLAC]\05 - Caroling.wav

Peak level 97.8 %
Extraction speed 6.7 X
Track quality 100.0 %
Test CRC 053237AD
Copy CRC 053237AD
Track not present in AccurateRip database
Copy OK

Track 6

Filename G:\EAC\Eluvium - Nightmare Ending (Disc 1) [FLAC]\06 - Sleeper.wav

Peak level 97.8 %
Extraction speed 7.5 X
Track quality 100.0 %
Test CRC 0DED6B55
Copy CRC 0DED6B55
Track not present in AccurateRip database
Copy OK

Track 7

Filename G:\EAC\Eluvium - Nightmare Ending (Disc 1) [FLAC]\07 - Envenom Mettle.wav

Peak level 97.8 %
Extraction speed 7.7 X
Track quality 100.0 %
Test CRC 2934EC11
Copy CRC 2934EC11
Track not present in AccurateRip database
Copy OK

None of the tracks are present in the AccurateRip database

No errors occurred

End of status report

==== Log checksum 27FC7C1953F94CE35511D8588B44D06F4C84959A29011F7E6F23B5D7B4E10C3F ====
------------------------------------------------------------------------------------------------------------------------

Exact Audio Copy V1.0 beta 3 from 29. August 2011

EAC extraction logfile from 3. May 2013, 17:15

Eluvium / Nightmare Ending (Disc 2)

Used drive : PIONEER DVD-RW DVR-115D Adapter: 1 ID: 0

Read mode : Secure
Utilize accurate stream : Yes
Defeat audio cache : Yes
Make use of C2 pointers : No

Read offset correction : 48
Overread into Lead-In and Lead-Out : No
Fill up missing offset samples with silence : Yes
Delete leading and trailing silent blocks : No
Null samples used in CRC calculations : Yes
Used interface : Native Win32 interface for Win NT & 2000
Gap handling : Appended to previous track

Used output format : User Defined Encoder
Selected bitrate : 896 kBit/s
Quality : High
Add ID3 tag : No
Command line compressor : G:\EAC\App\App\EAC\FLAC\flac.exe
Additional command line options : -6 -V -T "ARTIST=%artist%" -T "TITLE=%title%" -T "ALBUM=%albumtitle%" -T "DATE=%year%" -T "TRACKNUMBER=%tracknr%" -T "GENRE=%genre%" -T "COMMENT=%comment%" %hascover%--picture="%coverfile%"%hascover% %source% -o %dest%

TOC of the extracted CD

Track | Start | Length | Start sector | End sector
---------------------------------------------------------
1 | 0:00.00 | 3:25.43 | 0 | 15417
2 | 3:25.43 | 8:48.63 | 15418 | 55080
3 | 12:14.31 | 4:00.49 | 55081 | 73129
4 | 16:15.05 | 9:18.22 | 73130 | 115001
5 | 25:33.27 | 4:20.11 | 115002 | 134512
6 | 29:53.38 | 2:50.18 | 134513 | 147280
7 | 32:43.56 | 8:15.63 | 147281 | 184468

Track 1

Filename G:\EAC\Eluvium - Nightmare Ending (Disc 2) [FLAC]\01 - Chime.wav

Pre-gap length 0:00:02.00

Peak level 97.8 %
Extraction speed 4.1 X
Track quality 100.0 %
Test CRC EA658F90
Copy CRC EA658F90
Track not present in AccurateRip database
Copy OK

Track 2

Filename G:\EAC\Eluvium - Nightmare Ending (Disc 2) [FLAC]\02 - Rain Gently.wav

Peak level 95.9 %
Extraction speed 1.7 X
Track quality 99.9 %
Test CRC C603D1B8
Copy CRC C603D1B8
Track not present in AccurateRip database
Copy OK

Track 3

Filename G:\EAC\Eluvium - Nightmare Ending (Disc 2) [FLAC]\03 - Impromptu (For The Procession).wav

Peak level 78.4 %
Extraction speed 4.8 X
Track quality 99.9 %
Test CRC 3F664062
Copy CRC 3F664062
Track not present in AccurateRip database
Copy OK

Track 4

Filename G:\EAC\Eluvium - Nightmare Ending (Disc 2) [FLAC]\04 - Covered In Writing.wav

Peak level 97.8 %
Extraction speed 5.2 X
Track quality 99.9 %
Test CRC 2424AE64
Copy CRC 2424AE64
Track not present in AccurateRip database
Copy OK

Track 5

Filename G:\EAC\Eluvium - Nightmare Ending (Disc 2) [FLAC]\05 - Entendre.wav

Peak level 91.7 %
Extraction speed 6.4 X
Track quality 100.0 %
Test CRC 9285CE2B
Copy CRC 9285CE2B
Track not present in AccurateRip database
Copy OK

Track 6

Filename G:\EAC\Eluvium - Nightmare Ending (Disc 2) [FLAC]\06 - Strange Arrivals.wav

Peak level 95.3 %
Extraction speed 6.2 X
Track quality 100.0 %
Test CRC 557DC2AF
Copy CRC 557DC2AF
Track not present in AccurateRip database
Copy OK

Track 7

Filename G:\EAC\Eluvium - Nightmare Ending (Disc 2) [FLAC]\07 - Happiness.wav

Peak level 97.8 %
Extraction speed 6.9 X
Track quality 99.9 %
Test CRC C8C548B9
Copy CRC C8C548B9
Track not present in AccurateRip database
Copy OK

None of the tracks are present in the AccurateRip database

No errors occurred

End of status report

==== Log checksum 7D5C07CA739C55749E8EAC3A8EEB559FC353DBAEC305FECF6B1767996492E185 ====


REM GENRE Ambient
REM DATE 2013
REM DISCID 650A0607
REM COMMENT "ExactAudioCopy v1.0b3"
CATALOG 6566053214240
PERFORMER "Eluvium"
TITLE "Nightmare Ending (Disc 1)"
FILE "01 - Don't Get Any Closer.wav" WAVE
TRACK 01 AUDIO
TITLE "Don't Get Any Closer"
PERFORMER "Eluvium"
ISRC USY6C1321401
INDEX 01 00:00:00
FILE "02 - Warm.wav" WAVE
TRACK 02 AUDIO
TITLE "Warm"
PERFORMER "Eluvium"
ISRC USY6C1321402
INDEX 01 00:00:00
FILE "03 - By The Rails.wav" WAVE
TRACK 03 AUDIO
TITLE "By The Rails"
PERFORMER "Eluvium"
ISRC USY6C1321403
INDEX 01 00:00:00
FILE "04 - Unknown Variation.wav" WAVE
TRACK 04 AUDIO
TITLE "Unknown Variation"
PERFORMER "Eluvium"
ISRC USY6C1321404
INDEX 01 00:00:00
FILE "05 - Caroling.wav" WAVE
TRACK 05 AUDIO
TITLE "Caroling"
PERFORMER "Eluvium"
ISRC USY6C1321405
INDEX 01 00:00:00
FILE "06 - Sleeper.wav" WAVE
TRACK 06 AUDIO
TITLE "Sleeper"
PERFORMER "Eluvium"
ISRC USY6C1321406
INDEX 01 00:00:00
FILE "07 - Envenom Mettle.wav" WAVE
TRACK 07 AUDIO
TITLE "Envenom Mettle"
PERFORMER "Eluvium"
ISRC USY6C1321407
INDEX 01 00:00:00
----------------------------------------------------------------------

REM GENRE Ambient
REM DATE 2013
REM DISCID 6B099B07
REM COMMENT "ExactAudioCopy v1.0b3"
PERFORMER "Eluvium"
TITLE "Nightmare Ending (Disc 2)"
FILE "01 - Chime.wav" WAVE
TRACK 01 AUDIO
TITLE "Chime"
PERFORMER "Eluvium"
ISRC USY6C1321408
INDEX 01 00:00:00
FILE "02 - Rain Gently.wav" WAVE
TRACK 02 AUDIO
TITLE "Rain Gently"
PERFORMER "Eluvium"
ISRC USY6C1321409
INDEX 01 00:00:00
FILE "03 - Impromptu (For The Procession).wav" WAVE
TRACK 03 AUDIO
TITLE "Impromptu (For The Procession)"
PERFORMER "Eluvium"
ISRC USY6C1321410
INDEX 01 00:00:00
FILE "04 - Covered In Writing.wav" WAVE
TRACK 04 AUDIO
TITLE "Covered In Writing"
PERFORMER "Eluvium"
ISRC USY6C1321411
INDEX 01 00:00:00
FILE "05 - Entendre.wav" WAVE
TRACK 05 AUDIO
TITLE "Entendre"
PERFORMER "Eluvium"
ISRC USY6C1321412
INDEX 01 00:00:00
FILE "06 - Strange Arrivals.wav" WAVE
TRACK 06 AUDIO
TITLE "Strange Arrivals"
PERFORMER "Eluvium"
ISRC USY6C1321413
INDEX 01 00:00:00
FILE "07 - Happiness.wav" WAVE
TRACK 07 AUDIO
TITLE "Happiness"
PERFORMER "Eluvium"
ISRC USY6C1321414
INDEX 01 00:00:00

Год выпуска: 2014
Продолжительность: 00:38:00
Треклист:

01. Memory Print Boutique (19:03)
02. Welcome Homes / Ceaseless Sea (18:57)

-----------------------

DON'T MODIFY THIS FILE

-----------------------

PERFORMER: auCDtect Task Manager, ver. 1.5.1RC6 build 1.5.1.7
Copyright (c) 2008-2010 y-soft. All rights reserved
http://y-soft.org

ANALYZER: auCDtect: CD records authenticity detector, version 0.8.2
Copyright (c) 2004 Oleg Berngardt. All rights reserved.
Copyright (c) 2004 Alexander Djourik. All rights reserved.

FILE: 02. Welcome Homes , Ceaseless Sea.flac
Size: 104815088 Hash: 2E70BDA940BD84F8531E13D18AAA2CB6 Accuracy: -m0
Conclusion: CDDA 100%
Signature: 3CDFB5258A025DBB9E10DE18626CC553EDD2548C
FILE: 01. Memory Print Boutique.flac
Size: 77402360 Hash: F68A8DC420D1482EA3E7456F2DCAB5B5 Accuracy: -m0
Conclusion: MPEG 90%
Signature: 7B04CCD21106657C2B4F218EDD527EAF03E55EA2

Ripped from a brand new vinyl copy,
using a Rega P2 turntable with Goldring cartridge,
JVC AK-10 amplifier and Audacity. Spectrals included.
24bit/96kHz - 16bit/48kHz
Год выпуска: 2014
Продолжительность: 00:32:11
Треклист:

01. Wisdom II (08:51)
02. Wind Book (07:57)
03. Return To Debris (05:43)
04. Night Projections (09:40)

Exact Audio Copy V1.0 beta 3 from 29. August 2011

EAC extraction logfile from 2. May 2014, 21:54

Eluvium / Wisdom For Debris

Used drive : Optiarc DVD RW AD-5240S Adapter: 3 ID: 0

Read mode : Secure
Utilize accurate stream : Yes
Defeat audio cache : Yes
Make use of C2 pointers : No

Read offset correction : 48
Overread into Lead-In and Lead-Out : No
Fill up missing offset samples with silence : Yes
Delete leading and trailing silent blocks : No
Null samples used in CRC calculations : Yes
Used interface : Native Win32 interface for Win NT & 2000
Gap handling : Appended to previous track

Used output format : User Defined Encoder
Selected bitrate : 128 kBit/s
Quality : High
Add ID3 tag : No
Command line compressor : D:\iROpack\FLAC\flac.exe
Additional command line options : -8 -V -T "ARTIST=%artist%" -T "TITLE=%title%" -T "ALBUM=%albumtitle%" -T "DATE=%year%" -T "TRACKNUMBER=%tracknr%" -T "GENRE=%genre%" %source% -o %dest%

TOC of the extracted CD

Track | Start | Length | Start sector | End sector
---------------------------------------------------------
1 | 0:00.00 | 8:50.53 | 0 | 39802
2 | 8:50.53 | 7:56.68 | 39803 | 75570
3 | 16:47.46 | 5:43.10 | 75571 | 101305
4 | 22:30.56 | 9:39.39 | 101306 | 144769

Track 1

Filename R:\iRO\Rip\Wisdom For Debris\01-Eluvium-Wisdom_II.wav

Pre-gap length 0:00:02.00

Peak level 97.1 %
Extraction speed 2.7 X
Track quality 100.0 %
Test CRC 0CC94DFD
Copy CRC 0CC94DFD
Track not present in AccurateRip database
Copy OK

Track 2

Filename R:\iRO\Rip\Wisdom For Debris\02-Eluvium-Wind_Book.wav

Peak level 99.4 %
Extraction speed 3.2 X
Track quality 100.0 %
Test CRC F27F09AA
Copy CRC F27F09AA
Track not present in AccurateRip database
Copy OK

Track 3

Filename R:\iRO\Rip\Wisdom For Debris\03-Eluvium-Return_To_Debris.wav

Peak level 98.3 %
Extraction speed 3.5 X
Track quality 100.0 %
Test CRC FD4EC88A
Copy CRC FD4EC88A
Track not present in AccurateRip database
Copy OK

Track 4

Filename R:\iRO\Rip\Wisdom For Debris\04-Eluvium-Night_Projections.wav

Peak level 88.1 %
Extraction speed 4.0 X
Track quality 100.0 %
Test CRC 7DB8467A
Copy CRC 7DB8467A
Track not present in AccurateRip database
Copy OK

None of the tracks are present in the AccurateRip database

No errors occurred

End of status report

---- CUETools DB Plugin V2.1.3

[CTDB TOCID: 2sqGcweJcqvvNQKdBKs2VWvegdQ-] disk not present in database, Submit result: 2sqGcweJcqvvNQKdBKs2VWvegdQ- has been uploaded

==== Log checksum 9C4DF2A649F8644D6357D5D259CC627C821CA8881BBC8ABA2F2CA2628AB72ED2 ====


REM GENRE Ambient
REM DATE 2014
REM DISCID 21078A04
REM COMMENT "ExactAudioCopy v1.0b3"
FILE "01 - Wisdom II.wav" WAVE
TRACK 01 AUDIO
INDEX 01 00:00:00
FILE "02 - Wind Book.wav" WAVE
TRACK 02 AUDIO
INDEX 01 00:00:00
FILE "03 - Return To Debris.wav" WAVE
TRACK 03 AUDIO
INDEX 01 00:00:00
FILE "04 - Night Projections.wav" WAVE
TRACK 04 AUDIO
INDEX 01 00:00:00

Год выпуска: 2016
Продолжительность: 01:06:23
Треклист:

01. Strangeworks (04:23)
02. Fugue State (07:36)
03. Drowning Tone (00:59)
04. Regenerative Being (07:21)
05. Washer Logistics (04:06)
06. Movie Night Revisited (04:29)
07. Beyond The Moon For Someone In Reverse (08:52)
08. False Readings On (01:22)
09. Rorschach Pavan (06:43)
10. Individuation (03:09)
11. Posturing Through Metaphysical Collapse (17:23)

-----------------------

DON'T MODIFY THIS FILE

-----------------------

PERFORMER: auCDtect Task Manager, ver. 1.5.1RC6 build 1.5.1.7
Copyright (c) 2008-2010 y-soft. All rights reserved
http://y-soft.org

ANALYZER: auCDtect: CD records authenticity detector, version 0.8.2
Copyright (c) 2004 Oleg Berngardt. All rights reserved.
Copyright (c) 2004 Alexander Djourik. All rights reserved.

FILE: 11. Posturing Through Metaphysical Collapse.flac
Size: 122870552 Hash: 99008C5B789C72374D02BA1FA2BDCDA3 Accuracy: -m0
Conclusion: CDDA 100%
Signature: 6AA306B93FD564098D4CA9BD79BACAD646DBD5FF
FILE: 10. Individuation.flac
Size: 14824341 Hash: F4D7FFCEBC345C6781B96DC7CBE2653A Accuracy: -m0
Conclusion: CDDA 100%
Signature: 129C9F58C0BE2DF0FD78A588EBAF78925612AA78
FILE: 09. Rorschach Pavan.flac
Size: 39057326 Hash: 3CD1E9E43D65C27851EFE38262276C6C Accuracy: -m0
Conclusion: CDDA 99%
Signature: 596F25B8866F2BF5B976689C604670323074B77C
FILE: 08. False Readings On.flac
Size: 6223222 Hash: 5EE298AE4C45F59F7A286B65AFCB0D77 Accuracy: -m0
Conclusion: CDDA 100%
Signature: 8D144992A38230D1B75F412FB226E172A97873EA
FILE: 07. Beyond The Moon For Someone In Reverse.flac
Size: 48690723 Hash: 222E3BC07CAA0D8D8BA2C76E2C1D66C5 Accuracy: -m0
Conclusion: CDDA 99%
Signature: 7A465B933A77A991FC467AD58199FFF956A482A0
FILE: 06. Movie Night Revisited.flac
Size: 23583811 Hash: 728479C1B7925EAAC2CD9511CD98CDA7 Accuracy: -m0
Conclusion: CDDA 99%
Signature: FF54EDDBD03055EB44BC378EA8ED3F308BDF5D14
FILE: 05. Washer Logistics.flac
Size: 28574389 Hash: 266789F31B070EBC736E6A606BDD9781 Accuracy: -m0
Conclusion: CDDA 100%
Signature: C9AAAA08ED679AEED43375B2D57E32493B41C702
FILE: 04. Regenerative Being.flac
Size: 41069079 Hash: 58996838257B55B0B727F1D2D4D4EE12 Accuracy: -m0
Conclusion: CDDA 100%
Signature: 191106D6E949C74839156658266F144FECE1F627
FILE: 03. Drowning Tone.flac
Size: 4990071 Hash: BF61110D3FF69F91597B138C8D92F26B Accuracy: -m0
Conclusion: CDDA 100%
Signature: 35DFF14CFED0E2AB8A8FED8403AE0551122648ED
FILE: 02. Fugue State.flac
Size: 47277046 Hash: 84002435C8E63E5AE974CAB7FACF5D91 Accuracy: -m0
Conclusion: CDDA 100%
Signature: 33FA8B714E8DE3916A877202CB69336C53E3471D
FILE: 01. Strangeworks.flac
Size: 24324734 Hash: 580AB0BEBE454FD40F93BFD0F21C7284 Accuracy: -m0
Conclusion: CDDA 100%
Signature: EA74D927930A89B7A2CD81FE013EBC83AF2C4EFE

Год выпуска: 2005
Продолжительность: 00:33:19
Треклист:

01. Behind Your Trouble (33:19)

-----------------------

DON'T MODIFY THIS FILE

-----------------------

PERFORMER: auCDtect Task Manager, ver. 1.5.1RC6 build 1.5.1.7
Copyright (c) 2008-2010 y-soft. All rights reserved
http://y-soft.org

ANALYZER: auCDtect: CD records authenticity detector, version 0.8.2
Copyright (c) 2004 Oleg Berngardt. All rights reserved.
Copyright (c) 2004 Alexander Djourik. All rights reserved.

FILE: 01. Behind Your Trouble.flac
Size: 152877071 Hash: DDBFE1F39DEC56C02FF322FF95C074F5 Accuracy: -m0
Conclusion: CDDA 100%
Signature: F6712471239A0AEC46EEC2E8434ACB5CEDCE06DF

Год выпуска: 2006
Продолжительность: 00:22:26
Треклист:

01. I Will Not Forget That I Have Forgotten (05:21)
02. As I Drift Off (03:48)
03. All The Sails (05:45)
04. When I Live By The Garden And The Sea (07:32)

EAC extraction logfile from 30. October 2007, 15:54 for CD
Eluvium / When I Live By The Garden And The Sea

Used drive : HL-DT-STDVD+-RW GSA-T11N Adapter: 1 ID: 0
Read mode : Secure with NO C2, accurate stream, disable cache
Read offset correction : 667
Overread into Lead-In and Lead-Out : No

Used output format : C:\Program Files\Exact Audio Copy\bin\flac.exe (User Defined Encoder)
256 kBit/s
Additional command line options : -8 -A tukey(0.25) -A gauss(0.1875) -b 4096 -V -T "artist=%a" -T "title=%t" -T "album=%g" -T "date=%y" -T "tracknumber=%n" -T "genre=%m" %s --sector-align

Other options :
Fill up missing offset samples with silence : Yes
Delete leading and trailing silent blocks : No
Installed external ASPI interface

Track 1
Filename F:\Torrents\When I Live By The Garden and the Sea\01 - Eluvium - I Will Not Forget That I Have Forgotten.wav

Pre-gap length 0:00:02.00

Peak level 98.8 %
Track quality 100.0 %
Test CRC 75E4E76A
Copy CRC 75E4E76A
Copy OK

Track 2
Filename F:\Torrents\When I Live By The Garden and the Sea\02 - Eluvium - As I Drift Off.wav

Peak level 98.9 %
Track quality 100.0 %
Test CRC CDF6FF59
Copy CRC CDF6FF59
Copy OK

Track 3
Filename F:\Torrents\When I Live By The Garden and the Sea\03 - Eluvium - All The Sails.wav

Pre-gap length 0:00:01.77

Peak level 98.8 %
Track quality 99.9 %
Test CRC E31CBFE1
Copy CRC E31CBFE1
Copy OK

Track 4
Filename F:\Torrents\When I Live By The Garden and the Sea\04 - Eluvium - When I Live By The Garden And The Sea.wav

Pre-gap length 0:00:01.77

Peak level 93.2 %
Track quality 100.0 %
Test CRC 8B9E3B09
Copy CRC 8B9E3B09
Copy OK

No errors occured

End of status report


REM GENRE Ambient
REM DATE 2006
REM DISCID 29054204
REM COMMENT "ExactAudioCopy v0.95b3"
PERFORMER "Eluvium"
TITLE "When I Live By The Garden And The Sea"
FILE "01 - Eluvium - I Will Not Forget That I Have Forgotten.wav" WAVE
TRACK 01 AUDIO
TITLE "I Will Not Forget That I Have Forgotten"
PERFORMER "Eluvium"
INDEX 01 00:00:00
FILE "02 - Eluvium - As I Drift Off.wav" WAVE
TRACK 02 AUDIO
TITLE "As I Drift Off"
PERFORMER "Eluvium"
INDEX 01 00:00:00
TRACK 03 AUDIO
TITLE "All The Sails"
PERFORMER "Eluvium"
INDEX 00 03:46:06
FILE "03 - Eluvium - All The Sails.wav" WAVE
INDEX 01 00:00:00
TRACK 04 AUDIO
TITLE "When I Live By The Garden And The Sea"
PERFORMER "Eluvium"
INDEX 00 05:43:43
FILE "04 - Eluvium - When I Live By The Garden And The Sea.wav" WAVE
INDEX 01 00:00:00

Год выпуска: 2007
Продолжительность: 00:36:54
Треклист:

01. Farewell (06:34)
02. Blind & Faithless (03:35)
03. Why Are We Not Perfect? (06:46)
04. Time-Travel Of The Sloth Parts I, II, & III (19:59)

-----------------------

DON'T MODIFY THIS FILE

-----------------------

PERFORMER: auCDtect Task Manager, ver. 1.5.1RC6 build 1.5.1.7
Copyright (c) 2008-2010 y-soft. All rights reserved
http://y-soft.org

ANALYZER: auCDtect: CD records authenticity detector, version 0.8.2
Copyright (c) 2004 Oleg Berngardt. All rights reserved.
Copyright (c) 2004 Alexander Djourik. All rights reserved.

FILE: 04. Time-Travel Of The Sloth Parts I, II, & III.flac
Size: 91771426 Hash: D259CBBD85104D58AE3700C408F98D6A Accuracy: -m0
Conclusion: CDDA 100%
Signature: 6D170291B90028AEE48E76A9A241163CD53F6EC3
FILE: 03. Why Are We Not Perfect!.flac
Size: 40480022 Hash: 0B03B804F6BEEDD41461D031433E35F9 Accuracy: -m0
Conclusion: CDDA 100%
Signature: A3420FD204292F39724FC98BA47630CFD583D61A
FILE: 02. Blind & Faithless.flac
Size: 24392855 Hash: B51C625335E05F825195C3AEF028DE25 Accuracy: -m0
Conclusion: CDDA 100%
Signature: 064D2547065F35D1C562A629ABB8B7C57CF42B6C
FILE: 01. Farewell.flac
Size: 47730668 Hash: 2DE0B026EC17D3C5E828EED2B04C7E23 Accuracy: -m0
Conclusion: CDDA 99%
Signature: 40D3EA5CCF9B0BF1E95447F56AEFDBC9332E13BF

Год выпуска: 2010
Продолжительность: 00:24:09
Треклист:

01. Leaves Eclipse The Light (05:39)
02. A Life In Tides Less Current (10:41)
03. The Motion Makes Me Last (Four Tet Remix) (07:49)

X Lossless Decoder version 20101010 (123.3)

XLD extraction logfile from 2010-10-15 20:07:16 -0400

Eluvium / Leaves Eclipse The Light

Used drive : HL-DT-ST DVDRW GA11N (revision KA19)

Use cdparanoia mode : YES (CDParanoia III 10.2 engine)
Disable audio cache : OK for the drive with cache less than 2750KB
Make use of C2 pointers : NO
Read offset correction : 667
Max retry count : 100
Gap status : Analyzed, Appended

TOC of the extracted CD
Track | Start | Length | Start sector | End sector
---------------------------------------------------------
1 | 00:00:00 | 05:39:10 | 0 | 25434
2 | 05:39:10 | 10:40:74 | 25435 | 73508
3 | 16:20:09 | 07:49:36 | 73509 | 108719
4 | 26:41:45 | 21:53:68 | 120120 | 218662

All Tracks
Album gain : -5.43 dB
Peak : 0.994263

Track 01
Filename : /Users/Hjem/Music/01 Eluvium - Leaves Eclipse The Light.flac
Pre-gap length : 00:02:00

Track gain : -6.09 dB
Peak : 0.796661
CRC32 hash (test run) : E9BA48A2
CRC32 hash : E9BA48A2
CRC32 hash (skip zero) : 87EACB0D
AccurateRip signature : C6D8E9ED
->Accurately ripped! (confidence 3)
Statistics
Read error : 0
Skipped (treated as error) : 0
Edge jitter error (maybe fixed) : 0
Atom jitter error (maybe fixed) : 0
Drift error (maybe fixed) : 0
Dropped bytes error (maybe fixed) : 0
Duplicated bytes error (maybe fixed) : 0
Inconsistency in error sectors : 0

Track 02
Filename : /Users/Hjem/Music/02 Eluvium - A Life In Tides Less Current.flac

Track gain : -3.25 dB
Peak : 0.968048
CRC32 hash (test run) : 13466094
CRC32 hash : 13466094
CRC32 hash (skip zero) : B22627BC
AccurateRip signature : C48A23FC
->Accurately ripped! (confidence 3)
Statistics
Read error : 0
Skipped (treated as error) : 0
Edge jitter error (maybe fixed) : 0
Atom jitter error (maybe fixed) : 0
Drift error (maybe fixed) : 0
Dropped bytes error (maybe fixed) : 0
Duplicated bytes error (maybe fixed) : 0
Inconsistency in error sectors : 0

Track 03
Filename : /Users/Hjem/Music/03 Eluvium - The Motion Makes Me Last (Four Tet Remix).flac

Track gain : -5.70 dB
Peak : 0.994263
CRC32 hash (test run) : 0CD987DA
CRC32 hash : 0CD987DA
CRC32 hash (skip zero) : A2290512
AccurateRip signature : ED8357D1
->Accurately ripped! (confidence 3)
Statistics
Read error : 0
Skipped (treated as error) : 0
Edge jitter error (maybe fixed) : 0
Atom jitter error (maybe fixed) : 4
Drift error (maybe fixed) : 0
Dropped bytes error (maybe fixed) : 0
Duplicated bytes error (maybe fixed) : 0
Inconsistency in error sectors : 0

No errors occurred

End of status report


TITLE "Leaves Eclipse The Light"
REM GENRE "Ambient"
REM DATE 2010
REM DISCNUMBER 1
REM TOTALDISCS 1
REM DISCID 270B6304
FILE "01 Eluvium - Leaves Eclipse The Light.wav" WAVE
TRACK 01 AUDIO
TITLE "Leaves Eclipse The Light"
PERFORMER "Eluvium"
INDEX 01 00:00:00
FILE "02 Eluvium - A Life In Tides Less Current.wav" WAVE
TRACK 02 AUDIO
TITLE "A Life In Tides Less Current"
PERFORMER "Eluvium"
INDEX 01 00:00:00
FILE "03 Eluvium - The Motion Makes Me Last (Four Tet Remix).wav" WAVE
TRACK 03 AUDIO
TITLE "The Motion Makes Me Last (Four Tet Remix)"
PERFORMER "Eluvium"
INDEX 01 00:00:00

Год выпуска: 2010
Продолжительность: 00:19:32
Треклист:

01. The Motion Makes Me Last (05:25)
02. Crash Deconstructed (05:37)
03. Remnant Signals (05:06)
04. Leaves Eclipse The Light (Nick Zammuto Remix) (03:24)

Exact Audio Copy V0.99 prebeta 5 from 4. May 2009

EAC extraction logfile from 17. January 2011, 11:11

Eluvium / The Motion Makes Me Last EP

Used drive : TSSTcorpDVD+-RW TS-H653B Adapter: 1 ID: 0

Read mode : Secure
Utilize accurate stream : Yes
Defeat audio cache : Yes
Make use of C2 pointers : No

Read offset correction : 6
Overread into Lead-In and Lead-Out : No
Fill up missing offset samples with silence : Yes
Delete leading and trailing silent blocks : No
Null samples used in CRC calculations : Yes
Used interface : Native Win32 interface for Win NT & 2000
Gap handling : Appended to previous track

Used output format : User Defined Encoder
Selected bitrate : 128 kBit/s
Quality : High
Add ID3 tag : No
Command line compressor : C:\Program Files (x86)\FLAC\flac.exe
Additional command line options : -V -8 -T "artist=%a" -T "title=%t" -T "album=%g" -T "date=%y" -T "tracknumber=%n" -T "genre=%m" %s

TOC of the extracted CD

Track | Start | Length | Start sector | End sector
---------------------------------------------------------
1 | 0:00.00 | 5:25.31 | 0 | 24405
2 | 5:25.31 | 5:36.69 | 24406 | 49674
3 | 11:02.25 | 5:06.13 | 49675 | 72637
4 | 16:08.38 | 3:23.41 | 72638 | 87903

Track 1

Filename L:\Musik\#What FLAC CD uploads\Eluvium - 2010 - The Motion Makes Me Last EP [Temporary Residence] [FLAC]\01 - The Motion Makes Me Last.wav

Pre-gap length 0:00:02.00

Peak level 91.7 %
Track quality 99.9 %
Test CRC 805C7649
Copy CRC 805C7649
Accurately ripped (confidence 1) [C7111A84]
Copy OK

Track 2

Filename L:\Musik\#What FLAC CD uploads\Eluvium - 2010 - The Motion Makes Me Last EP [Temporary Residence] [FLAC]\02 - Crash Deconstructed.wav

Pre-gap length 0:00:01.49

Peak level 91.3 %
Track quality 100.0 %
Test CRC 998EDB00
Copy CRC 998EDB00
Accurately ripped (confidence 1) [12F51754]
Copy OK

Track 3

Filename L:\Musik\#What FLAC CD uploads\Eluvium - 2010 - The Motion Makes Me Last EP [Temporary Residence] [FLAC]\03 - Remnant Signals.wav

Pre-gap length 0:00:01.49

Peak level 88.4 %
Track quality 99.9 %
Test CRC 93334A7B
Copy CRC 93334A7B
Accurately ripped (confidence 1) [005C45D9]
Copy OK

Track 4

Filename L:\Musik\#What FLAC CD uploads\Eluvium - 2010 - The Motion Makes Me Last EP [Temporary Residence] [FLAC]\04 - Leaves Eclipse The Light (Nick Zammuto Remix).wav

Pre-gap length 0:00:00.49

Peak level 97.2 %
Track quality 99.9 %
Test CRC 6D7F5CDB
Copy CRC 6D7F5CDB
Accurately ripped (confidence 1) [D8E95051]
Copy OK

All tracks accurately ripped

No errors occurred

End of status report


REM GENRE Ambient
REM DATE 2010
REM DISCID 2E049404
REM COMMENT "ExactAudioCopy v0.99pb5"
FILE "01 - The Motion Makes Me Last.wav" WAVE
TRACK 01 AUDIO
INDEX 01 00:00:00
TRACK 02 AUDIO
INDEX 00 05:23:69
FILE "02 - Crash Deconstructed.wav" WAVE
INDEX 01 00:00:00
TRACK 03 AUDIO
INDEX 00 05:35:32
FILE "03 - Remnant Signals.wav" WAVE
INDEX 01 00:00:00
TRACK 04 AUDIO
INDEX 00 05:05:51
FILE "04 - Leaves Eclipse The Light (Nick Zammuto Remix).wav" WAVE
INDEX 01 00:00:00

Год выпуска: 2011
Продолжительность: 00:05:33
Треклист:

01. Ogives / Redistributed (05:33)

-----------------------

DON'T MODIFY THIS FILE

-----------------------

PERFORMER: auCDtect Task Manager, ver. 1.5.1RC6 build 1.5.1.7
Copyright (c) 2008-2010 y-soft. All rights reserved
http://y-soft.org

ANALYZER: auCDtect: CD records authenticity detector, version 0.8.2
Copyright (c) 2004 Oleg Berngardt. All rights reserved.
Copyright (c) 2004 Alexander Djourik. All rights reserved.

FILE: 01. Ogives , Redistributed.flac
Size: 18443623 Hash: 3ADF981F91C86E64AE5EAA414ABF1409 Accuracy: -m0
Conclusion: CDDA 54%
Signature: 29A4FF1EB77CD6106BA7F24BA5EEEF9237629A38

Год выпуска: 2015
Продолжительность: 00:18:39
Треклист:

01. Pedals (09:27)
02. Petals (09:12)

-----------------------

DON'T MODIFY THIS FILE

-----------------------

PERFORMER: auCDtect Task Manager, ver. 1.5.1RC6 build 1.5.1.7
Copyright (c) 2008-2010 y-soft. All rights reserved
http://y-soft.org

ANALYZER: auCDtect: CD records authenticity detector, version 0.8.2
Copyright (c) 2004 Oleg Berngardt. All rights reserved.
Copyright (c) 2004 Alexander Djourik. All rights reserved.

FILE: 02. Petals.flac
Size: 40798647 Hash: 0A9C7C58CCF1A543615C92752AB18BF5 Accuracy: -m0
Conclusion: CDDA 42%
Signature: 3EE98D8C83EB0F6D3E0D04025E1FF0C06B7EDA3C
FILE: 01. Pedals.flac
Size: 45084883 Hash: 3B190722AEABBC90488CCF081247A6AB Accuracy: -m0
Conclusion: CDDA 100%
Signature: 71BB0870B3C76F50DB19A5A6860584305D1CB509

Год выпуска: 2007
Продолжительность: 00:40:08+01:08:07
Треклист:

CD1 Lambent Material
01. The Unfinished (04:39)
02. Under The Water It Glowed (05:12)
03. There Wasn't Anything (04:43)
04. Zerthis Was A Shivering Human-Image (15:37)
05. I Am So Much More Me That You Are Perfectly You (05:50)
06. Untitled 1 (For Piano) (04:07)

CD2 Talk Amongst the Trees
01. New Animals From The Air (10:48)
02. Show Us Our Homes (04:47)
03. Area 41 (00:59)
04. Everything To Come (05:41)
05. Calm Of The Cast-Light Cloud (05:31)
06. Taken (16:56)
07. We Say Goodbye To Ourselves (02:10)
08. One (07:48)
09. Untitled 2 (For Orchestra) (05:34)
10. Untitled 3 (For Rhodes And Tape) (07:53)

Exact Audio Copy V0.99 prebeta 3 from 28. July 2007

EAC extraction logfile from 14. October 2008, 20:58

Eluvium / Indecipherable Text - Disc 1: Lambent Material

Used drive : LITE-ON COMBO LTC-48161H Adapter: 1 ID: 0

Read mode : Secure
Utilize accurate stream : Yes
Defeat audio cache : Yes
Make use of C2 pointers : No

Read offset correction : 6
Overread into Lead-In and Lead-Out : No
Fill up missing offset samples with silence : Yes
Delete leading and trailing silent blocks : No
Null samples used in CRC calculations : Yes
Used interface : Native Win32 interface for Win NT & 2000
Gap handling : Appended to previous track

Used output format : User Defined Encoder
Selected bitrate : 192 kBit/s
Quality : High
Add ID3 tag : No
Command line compressor : C:\Program Files\Exact Audio Copy\Flac\flac.exe
Additional command line options : -8 -A tukey(0.25) -A gauss(0.1875) -b 4096 -V -T "artist=%a" -T "title=%t" -T "album=%g" -T "date=%y" -T "tracknumber=%n" -T "genre=%m" %s --sector-align

TOC of the extracted CD

Track | Start | Length | Start sector | End sector
---------------------------------------------------------
1 | 0:00.00 | 4:38.54 | 0 | 20903
2 | 4:38.54 | 5:11.42 | 20904 | 44270
3 | 9:50.21 | 4:42.62 | 44271 | 65482
4 | 14:33.08 | 15:37.16 | 65483 | 135773
5 | 30:10.24 | 5:49.50 | 135774 | 161998
6 | 35:59.74 | 4:07.05 | 161999 | 180528

Track 1

Filename C:\EAC rips\01 - Eluvium - The Unfinished.wav

Pre-gap length 0:00:02.00

Peak level 98.8 %
Track quality 100.0 %
Test CRC E47BA755
Copy CRC E47BA755
Accurately ripped (confidence 2) [A3A1DB2D]
Copy OK

Track 2

Filename C:\EAC rips\02 - Eluvium - Under the Water It Glowed.wav

Pre-gap length 0:00:00.06

Peak level 98.8 %
Track quality 100.0 %
Test CRC F28BA67A
Copy CRC F28BA67A
Accurately ripped (confidence 2) [781A7801]
Copy OK

Track 3

Filename C:\EAC rips\03 - Eluvium - There Wasn't Anything.wav

Pre-gap length 0:00:01.88

Peak level 98.8 %
Track quality 100.0 %
Test CRC FF9480F5
Copy CRC FF9480F5
Accurately ripped (confidence 2) [B4BBD6B3]
Copy OK

Track 4

Filename C:\EAC rips\04 - Eluvium - Zerthis Was A Shivering Human Image.wav

Pre-gap length 0:00:01.88

Peak level 51.3 %
Track quality 100.0 %
Test CRC 2BBAB2B0
Copy CRC 2BBAB2B0
Accurately ripped (confidence 2) [E3201EC9]
Copy OK

Track 5

Filename C:\EAC rips\05 - Eluvium - I Am So Much More Me That You Are Perfectly You.wav

Pre-gap length 0:00:01.88

Peak level 98.8 %
Track quality 99.9 %
Test CRC F9CFDD38
Copy CRC F9CFDD38
Accurately ripped (confidence 2) [2A719E30]
Copy OK

Track 6

Filename C:\EAC rips\06 - Eluvium - Untitled 1 (For Piano).wav

Peak level 98.8 %
Track quality 99.9 %
Test CRC FD08E5C7
Copy CRC FD08E5C7
Accurately ripped (confidence 2) [EECF182D]
Copy OK

All tracks accurately ripped

No errors occurred

End of status report
-----------------------------------------------------------------------------------------------

Exact Audio Copy V0.99 prebeta 3 from 28. July 2007

EAC extraction logfile from 14. October 2008, 21:53

Eluvium / Indecipherable Text - Disc 2 Talk Amongst the Trees

Used drive : LITE-ON COMBO LTC-48161H Adapter: 1 ID: 0

Read mode : Secure
Utilize accurate stream : Yes
Defeat audio cache : Yes
Make use of C2 pointers : No

Read offset correction : 6
Overread into Lead-In and Lead-Out : No
Fill up missing offset samples with silence : Yes
Delete leading and trailing silent blocks : No
Null samples used in CRC calculations : Yes
Used interface : Native Win32 interface for Win NT & 2000
Gap handling : Appended to previous track

Used output format : User Defined Encoder
Selected bitrate : 192 kBit/s
Quality : High
Add ID3 tag : No
Command line compressor : C:\Program Files\Exact Audio Copy\Flac\flac.exe
Additional command line options : -8 -A tukey(0.25) -A gauss(0.1875) -b 4096 -V -T "artist=%a" -T "title=%t" -T "album=%g" -T "date=%y" -T "tracknumber=%n" -T "genre=%m" %s --sector-align

TOC of the extracted CD

Track | Start | Length | Start sector | End sector
---------------------------------------------------------
1 | 0:00.00 | 10:47.58 | 0 | 48582
2 | 10:47.58 | 4:46.46 | 48583 | 70078
3 | 15:34.29 | 0:58.60 | 70079 | 74488
4 | 16:33.14 | 5:40.43 | 74489 | 100031
5 | 22:13.57 | 5:30.50 | 100032 | 124831
6 | 27:44.32 | 16:56.06 | 124832 | 201037
7 | 44:40.38 | 2:09.60 | 201038 | 210772
8 | 46:50.23 | 7:47.45 | 210773 | 245842
9 | 54:37.68 | 5:33.68 | 245843 | 270885
10 | 60:11.61 | 7:52.51 | 270886 | 306336

Track 1

Filename C:\EAC rips\01 - Eluvium - New Animals From the Air.wav

Pre-gap length 0:00:02.00

Peak level 98.8 %
Track quality 99.9 %
Test CRC 1FFC4D77
Copy CRC 1FFC4D77
Accurately ripped (confidence 2) [A8D90E45]
Copy OK

Track 2

Filename C:\EAC rips\02 - Eluvium - Show Us Our Homes.wav

Peak level 98.8 %
Track quality 100.0 %
Test CRC 77B645B8
Copy CRC 77B645B8
Accurately ripped (confidence 2) [33A22D18]
Copy OK

Track 3

Filename C:\EAC rips\03 - Eluvium - Area 41.wav

Peak level 98.8 %
Track quality 100.0 %
Test CRC F7C451A7
Copy CRC F7C451A7
Accurately ripped (confidence 2) [8463C8EC]
Copy OK

Track 4

Filename C:\EAC rips\04 - Eluvium - Everything To Come.wav

Peak level 98.8 %
Track quality 100.0 %
Test CRC 835E1DB3
Copy CRC 835E1DB3
Accurately ripped (confidence 2) [8B72936E]
Copy OK

Track 5

Filename C:\EAC rips\05 - Eluvium - Calm of the Cast-Light Cloud.wav

Peak level 98.8 %
Track quality 99.9 %
Test CRC 1724BC31
Copy CRC 1724BC31
Accurately ripped (confidence 2) [C6B9D715]
Copy OK

Track 6

Filename C:\EAC rips\06 - Eluvium - Taken.wav

Peak level 98.8 %
Track quality 100.0 %
Test CRC D4D6373A
Copy CRC D4D6373A
Track not present in AccurateRip database
Copy OK

Track 7

Filename C:\EAC rips\07 - Eluvium - We say Goodbye To Ourselves.wav

Peak level 98.8 %
Track quality 100.0 %
Test CRC 31669303
Copy CRC 31669303
Accurately ripped (confidence 2) [F079085F]
Copy OK

Track 8

Filename C:\EAC rips\08 - Eluvium - One.wav

Peak level 98.8 %
Track quality 99.9 %
Test CRC 91DFFFC3
Copy CRC 91DFFFC3
Accurately ripped (confidence 2) [3DAB5F2A]
Copy OK

Track 9

Filename C:\EAC rips\09 - Eluvium - Untitled 2 (For Orchestra).wav

Pre-gap length 0:00:03.30

Peak level 98.8 %
Track quality 100.0 %
Test CRC D6F84D2F
Copy CRC D6F84D2F
Accurately ripped (confidence 2) [B268CA3D]
Copy OK

Track 10

Filename C:\EAC rips\10 - Eluvium - Untitled 3 (For Rhodes and Tapes).wav

Peak level 98.8 %
Track quality 100.0 %
Test CRC CC7A89C6
Copy CRC CC7A89C6
Accurately ripped (confidence 2) [D8E29016]
Copy OK

9 track(s) accurately ripped
1 track(s) not present in the AccurateRip database

Some tracks could not be verified as accurate

No errors occurred

End of status report


REM GENRE Ambient
REM DATE 2006
REM DISCID 46096706
REM COMMENT "ExactAudioCopy v0.99pb3"
PERFORMER "Eluvium"
TITLE "Indecipherable Text - Disc 1: Lambent Material"
FILE "01 - Eluvium - The Unfinished.wav" WAVE
TRACK 01 AUDIO
TITLE "The Unfinished"
PERFORMER "Eluvium"
INDEX 01 00:00:00
TRACK 02 AUDIO
TITLE "Under the Water It Glowed"
PERFORMER "Eluvium"
INDEX 00 04:38:49
FILE "02 - Eluvium - Under the Water It Glowed.wav" WAVE
INDEX 01 00:00:00
TRACK 03 AUDIO
TITLE "There Wasn't Anything"
PERFORMER "Eluvium"
INDEX 00 05:09:51
FILE "03 - Eluvium - There Wasn't Anything.wav" WAVE
INDEX 01 00:00:00
TRACK 04 AUDIO
TITLE "Zerthis Was A Shivering Human Image"
PERFORMER "Eluvium"
INDEX 00 04:40:71
FILE "04 - Eluvium - Zerthis Was A Shivering Human Image.wav" WAVE
INDEX 01 00:00:00
TRACK 05 AUDIO
TITLE "I Am So Much More Me That You Are Perfectly You"
PERFORMER "Eluvium"
INDEX 00 15:35:25
FILE "05 - Eluvium - I Am So Much More Me That You Are Perfectly You.wav" WAVE
INDEX 01 00:00:00
FILE "06 - Eluvium - Untitled 1 (For Piano).wav" WAVE
TRACK 06 AUDIO
TITLE "Untitled 1 (For Piano)"
PERFORMER "Eluvium"
INDEX 01 00:00:00
----------------------------------------------------------------------------------------------------

REM GENRE Ambient
REM DATE 2006
REM DISCID 9E0FF40A
REM COMMENT "ExactAudioCopy v0.99pb3"
PERFORMER "Eluvium"
TITLE "Indecipherable Text - Disc 2 Talk Amongst the Trees"
FILE "01 - Eluvium - New Animals From the Air.wav" WAVE
TRACK 01 AUDIO
TITLE "New Animals From the Air"
PERFORMER "Eluvium"
INDEX 01 00:00:00
FILE "02 - Eluvium - Show Us Our Homes.wav" WAVE
TRACK 02 AUDIO
TITLE "Show Us Our Homes"
PERFORMER "Eluvium"
INDEX 01 00:00:00
FILE "03 - Eluvium - Area 41.wav" WAVE
TRACK 03 AUDIO
TITLE "Area 41"
PERFORMER "Eluvium"
INDEX 01 00:00:00
FILE "04 - Eluvium - Everything To Come.wav" WAVE
TRACK 04 AUDIO
TITLE "Everything To Come"
PERFORMER "Eluvium"
INDEX 01 00:00:00
FILE "05 - Eluvium - Calm of the Cast-Light Cloud.wav" WAVE
TRACK 05 AUDIO
TITLE "Calm of the Cast-Light Cloud"
PERFORMER "Eluvium"
INDEX 01 00:00:00
FILE "06 - Eluvium - Taken.wav" WAVE
TRACK 06 AUDIO
TITLE "Taken"
PERFORMER "Eluvium"
INDEX 01 00:00:00
FILE "07 - Eluvium - We say Goodbye To Ourselves.wav" WAVE
TRACK 07 AUDIO
TITLE "We say Goodbye To Ourselves"
PERFORMER "Eluvium"
INDEX 01 00:00:00
FILE "08 - Eluvium - One.wav" WAVE
TRACK 08 AUDIO
TITLE "One"
PERFORMER "Eluvium"
INDEX 01 00:00:00
TRACK 09 AUDIO
TITLE "Untitled 2 (For Orchestra)"
PERFORMER "Eluvium"
INDEX 00 07:44:22
FILE "09 - Eluvium - Untitled 2 (For Orchestra).wav" WAVE
INDEX 01 00:00:00
FILE "10 - Eluvium - Untitled 3 (For Rhodes and Tapes).wav" WAVE
TRACK 10 AUDIO
TITLE "Untitled 3 (For Rhodes and Tapes)"
PERFORMER "Eluvium"
INDEX 01 00:00:00

Год выпуска: 2009
Продолжительность: 03:45:25
Треклист:

01 - Lambent Material
01. The Unfinished (04:35)
02. Zerthis Was A Shivering Human Image (15:35)
03. I Am So Much More Me That You Are Perfectly You (05:54)
04. Under The Water It Glowed (05:09)
05. There Wasn't Anything (04:44)

02 - An Accidental Memory In The Case Of Death
01. An Accidental Memory (01:12)
02. Genius And The Thieves (02:26)
03. Perfect Neglect In A Field Of Statues (05:25)
04. Nepenthe (03:41)
05. In A Sense (01:47)
06. The Well-Meaning Professor (07:35)
07. An Accidental Memory In The Case Of Death (04:28)

03 - Talk Amongst The Trees
01. New Animals From The Air (10:48)
02. Show Us Our Homes (04:49)
03. Area 41 (01:00)
04. Everything To Come (05:41)
05. Calm Of The Cast-Light Cloud (05:33)
06. Taken (16:52)
07. We Say Goodbye To Ourselves (02:19)
08. One (07:46)
09. Swallows In The Bath (08:19)

04 - When I Live By The Garden And The Sea
01. I Will Not Forget That I Have Forgotten (05:13)
02. As I Drift Off (03:47)
03. All The Sails (05:46)
04. When I Live By The Garden And The Sea (07:28)

05 - Indecipherable Text
01. Untitled (For Piano) (04:07)
02. Untitled (For Orchestra) (05:29)
03. Untitled (For Rhodes And Tape) (07:39)
04. Carousel (05:22)

06 - Copia
01. Amreik (03:20)
02. Indoor Swimming At The Space Station (09:57)
03. Seeing You Off The Edges (05:41)
04. Prelude For Time Feelers (05:50)
05. Requiem On Frankfort Ave. (02:40)
06. Radio Ballet (03:12)
07. (Intermission) (00:56)
08. After Nature (01:53)
09. Reciting The Airships (04:38)
10. Ostinato (06:10)
11. Hymn #1 (01:35)
12. Repose In Blue (09:03)

foobar2000 1.1 / Dynamic Range Meter 1.1.1
log date: 2016-09-24 18:02:15

--------------------------------------------------------------------------------
Analyzed: Eluvium / Life Through Bombardment Vol. 1
--------------------------------------------------------------------------------

DR Peak RMS Duration Track
--------------------------------------------------------------------------------
DR9 -2.91 dB -15.91 dB 4:35 ?-The Unfinished
DR7 -1.85 dB -11.91 dB 15:35 ?-Zerthis Was A Shivering Human Image
DR10 -2.02 dB -16.94 dB 5:54 ?-I Am So Much More Me That You Are Perfectly You
DR9 -1.60 dB -12.25 dB 5:09 ?-Under The Water It Glowed
DR10 -2.43 dB -16.42 dB 4:44 ?-There Wasn't Anything
--------------------------------------------------------------------------------

Number of tracks: 5
Official DR value: DR9

Samplerate: 44100 Hz
Channels: 2
Bits per sample: 16
Bitrate: 428 kbps
Codec: FLAC
================================================================================

foobar2000 1.1 / Dynamic Range Meter 1.1.1
log date: 2016-09-24 18:02:25

--------------------------------------------------------------------------------
Analyzed: Eluvium / Life Through Bombardment Vol. 1
--------------------------------------------------------------------------------

DR Peak RMS Duration Track
--------------------------------------------------------------------------------
DR9 -1.38 dB -11.90 dB 1:12 ?-An Accidental Memory
DR9 -1.40 dB -12.35 dB 2:26 ?-Genius And The Thieves
DR9 -1.01 dB -12.73 dB 5:25 ?-Perfect Neglect In A Field Of Statues
DR9 -1.17 dB -13.12 dB 3:41 ?-Nepenthe
DR9 -2.63 dB -13.56 dB 1:47 ?-In A Sense
DR8 -2.53 dB -14.80 dB 7:35 ?-The Well-Meaning Professor
DR9 -2.14 dB -13.58 dB 4:28 ?-An Accidental Memory In The Case Of Death
--------------------------------------------------------------------------------

Number of tracks: 7
Official DR value: DR9

Samplerate: 44100 Hz
Channels: 2
Bits per sample: 16
Bitrate: 494 kbps
Codec: FLAC
================================================================================

foobar2000 1.1 / Dynamic Range Meter 1.1.1
log date: 2016-09-24 18:02:48

--------------------------------------------------------------------------------
Analyzed: Eluvium / Life Through Bombardment Vol. 1
--------------------------------------------------------------------------------

DR Peak RMS Duration Track
--------------------------------------------------------------------------------
DR9 -0.21 dB -11.74 dB 10:48 ?-New Animals From The Air
DR8 -0.28 dB -13.15 dB 4:49 ?-Show Us Our Homes
DR10 -0.26 dB -14.92 dB 1:00 ?-Area 41
DR10 -0.30 dB -13.88 dB 5:41 ?-Everything To Come
DR9 -0.24 dB -10.76 dB 5:33 ?-Calm Of The Cast-Light Cloud
DR9 -0.25 dB -13.09 dB 16:52 ?-Taken
DR8 -0.28 dB -11.35 dB 2:19 ?-We Say Goodbye To Ourselves
DR8 -1.09 dB -12.65 dB 7:46 ?-One
DR10 -0.31 dB -12.60 dB 8:19 ?-Swallows In The Bath
--------------------------------------------------------------------------------

Number of tracks: 9
Official DR value: DR9

Samplerate: 44100 Hz
Channels: 2
Bits per sample: 16
Bitrate: 575 kbps
Codec: FLAC
================================================================================

foobar2000 1.1 / Dynamic Range Meter 1.1.1
log date: 2016-09-24 18:02:55

--------------------------------------------------------------------------------
Analyzed: Eluvium / Life Through Bombardment Vol. 1
--------------------------------------------------------------------------------

DR Peak RMS Duration Track
--------------------------------------------------------------------------------
DR9 -0.15 dB -15.78 dB 5:13 ?-I Will Not Forget That I Have Forgotten
DR8 -2.44 dB -13.82 dB 3:47 ?-As I Drift Off
DR8 -2.98 dB -15.26 dB 5:46 ?-All The Sails
DR12 -5.75 dB -23.64 dB 7:28 ?-When I Live By The Garden And The Sea
--------------------------------------------------------------------------------

Number of tracks: 4
Official DR value: DR9

Samplerate: 44100 Hz
Channels: 2
Bits per sample: 16
Bitrate: 432 kbps
Codec: FLAC
================================================================================

foobar2000 1.1 / Dynamic Range Meter 1.1.1
log date: 2016-09-24 18:03:03

--------------------------------------------------------------------------------
Analyzed: Eluvium / Life Through Bombardment Vol. 1
--------------------------------------------------------------------------------

DR Peak RMS Duration Track
--------------------------------------------------------------------------------
DR12 -0.92 dB -15.77 dB 4:07 ?-Untitled (For Piano)
DR11 -0.13 dB -15.87 dB 5:29 ?-Untitled (For Orchestra)
DR8 -2.46 dB -14.46 dB 7:39 ?-Untitled (For Rhodes And Tape)
DR9 -1.24 dB -13.55 dB 5:22 ?-Carousel
--------------------------------------------------------------------------------

Number of tracks: 4
Official DR value: DR10

Samplerate: 44100 Hz
Channels: 2
Bits per sample: 16
Bitrate: 530 kbps
Codec: FLAC
================================================================================

foobar2000 1.1 / Dynamic Range Meter 1.1.1
log date: 2016-09-24 18:03:25

--------------------------------------------------------------------------------
Analyzed: Eluvium / Life Through Bombardment Vol. 1
--------------------------------------------------------------------------------

DR Peak RMS Duration Track
--------------------------------------------------------------------------------
DR8 -1.94 dB -13.72 dB 3:20 ?-Amreik
DR10 -0.82 dB -14.51 dB 9:57 ?-Indoor Swimming At The Space Station
DR8 -0.20 dB -11.22 dB 5:41 ?-Seeing You Off The Edges
DR8 -0.19 dB -11.14 dB 5:50 ?-Prelude For Time Feelers
DR9 -2.82 dB -15.83 dB 2:40 ?-Requiem On Frankfort Ave.
DR8 -0.96 dB -13.31 dB 3:12 ?-Radio Ballet
DR15 -9.99 dB -30.75 dB 0:56 ?-(Intermission)
DR11 -9.85 dB -25.08 dB 1:53 ?-After Nature
DR7 -0.13 dB -10.93 dB 4:38 ?-Reciting The Airships
DR8 -0.85 dB -12.50 dB 6:10 ?-Ostinato
DR12 -14.84 dB -33.59 dB 1:35 ?-Hymn #1
DR11 -0.08 dB -15.83 dB 9:03 ?-Repose In Blue
--------------------------------------------------------------------------------

Number of tracks: 12
Official DR value: DR10

Samplerate: 44100 Hz
Channels: 2
Bits per sample: 16
Bitrate: 460 kbps
Codec: FLAC
================================================================================

Vigin Vinyl 140 gram
Technics 1200 mk2 with Denon dl 103
tcc 754 preamp
clean and destatic record
record at 24 bit 96 kHz in Sony Sound Forge 9
remove dc bias in Sound Forge
declick with ClickRepair 3.0.1 level 10
normalize volume to 97% in Sound Forge
combine sides in Sound Forge
cut tracks, aligning on zero crossings in Sound Forge
convert to 16/44.1 with r8brain conversion tool, maximum quality setting
compress flac 1.2.1
Год выпуска: 2012
Продолжительность: 00:40:09
Треклист:

01. Vlad (01:56)
02. Short Cut (05:24)
03. Verions (08:10)
04. Plantes (02:26)
05. Etc_Etc (08:01)
06. Hum (05:24)
07. Return Life (08:48)

-----------------------

DON'T MODIFY THIS FILE

-----------------------

PERFORMER: auCDtect Task Manager, ver. 1.5.1RC6 build 1.5.1.7
Copyright (c) 2008-2010 y-soft. All rights reserved
http://y-soft.org

ANALYZER: auCDtect: CD records authenticity detector, version 0.8.2
Copyright (c) 2004 Oleg Berngardt. All rights reserved.
Copyright (c) 2004 Alexander Djourik. All rights reserved.

FILE: 07. Return Life.flac
Size: 35184475 Hash: BEF5E5E51540BCBBAA315F3F269F999E Accuracy: -m0
Conclusion: MPEG 100%
Signature: 9A39832C6E608172E7D5C7953FD93B46443A5A04
FILE: 06. Hum.flac
Size: 28705676 Hash: ED72B367B8B97D391FEEE62B7FFFEB4E Accuracy: -m0
Conclusion: CDDA 100%
Signature: 8085F9FE99798722E0C3018EBC1341CABB94C445
FILE: 05. Etc_Etc.flac
Size: 33429802 Hash: FF4B27749019DD44B554ADAB4D7A3BD7 Accuracy: -m0
Conclusion: CDDA 100%
Signature: BCFE61085917F249B278E60D9A0935C19A9D5941
FILE: 04. Plantes.flac
Size: 10178630 Hash: 7F59B71357210FF66ED30A330FBBA9E4 Accuracy: -m0
Conclusion: MPEG 90%
Signature: 19C33A1438CB4AB4108467535D2363317F9811BB
FILE: 03. Verions.flac
Size: 39845668 Hash: 9BFBF08870AF3E403BE026D9083ADD59 Accuracy: -m0
Conclusion: CDDA 100%
Signature: EEA3DD2C93045B626FCFD643097F3A46297F8508
FILE: 02. Short Cut.flac
Size: 29522278 Hash: B9F98F094333D37622225F193793E2D9 Accuracy: -m0
Conclusion: MPEG 95%
Signature: D1F07302B209CF24E6E2554831C8301E9FB24974
FILE: 01. Vlad.flac
Size: 7377019 Hash: DF107E077A70A0B27A3078D44B4920FF Accuracy: -m0
Conclusion: CDDA 43%
Signature: FC77DF239F5E0471848F31E0ABCCCD6FE39C3C32

Год выпуска: 2012
Продолжительность: 00:12:00
Треклист:

01. Worker (05:45)
02. Mothernails (For Daren .1) (06:15)

-----------------------

DON'T MODIFY THIS FILE

-----------------------

PERFORMER: auCDtect Task Manager, ver. 1.5.1RC6 build 1.5.1.7
Copyright (c) 2008-2010 y-soft. All rights reserved
http://y-soft.org

ANALYZER: auCDtect: CD records authenticity detector, version 0.8.2
Copyright (c) 2004 Oleg Berngardt. All rights reserved.
Copyright (c) 2004 Alexander Djourik. All rights reserved.

FILE: 02. Mothernails (For Daren .1).flac
Size: 41544339 Hash: 874CF84A9192F2B01D08EB76DA5D321B Accuracy: -m0
Conclusion: CDDA 100%
Signature: F14F88788E01E17D53E190DC6CC2DF346F2EE49C
FILE: 01. Worker.flac
Size: 22656544 Hash: CBA73F82209E7021115CE08C0B09DC57 Accuracy: -m0
Conclusion: CDDA 100%
Signature: D67FFD3A78F09964FD5529DE6B24EB8B9E6CD091

Год выпуска: 2011
Продолжительность: 00:02:00
Треклист:

01. I am Light, I am Darkness (02:00)

-----------------------

DON'T MODIFY THIS FILE

-----------------------

PERFORMER: auCDtect Task Manager, ver. 1.5.1RC6 build 1.5.1.7
Copyright (c) 2008-2010 y-soft. All rights reserved
http://y-soft.org

ANALYZER: auCDtect: CD records authenticity detector, version 0.8.2
Copyright (c) 2004 Oleg Berngardt. All rights reserved.
Copyright (c) 2004 Alexander Djourik. All rights reserved.

FILE: 01. I am Light, I am Darkness.flac
Size: 10184925 Hash: D090FEB64D75CB9F74A4B7296AD38B2A Accuracy: -m0
Conclusion: CDDA 100%
Signature: D246B820CCAEEAEDD83999D83B99CF285207A4CB

Год выпуска: 2011
Продолжительность: 00:35:32
Треклист:

01. Curious Moments (01:20)
02. Drifting (03:46)
03. Pursuance (01:49)
04. Into Dust (03:50)
05. Expectation (03:02)
06. What You Leave Behind (02:08)
07. Reprieve (04:47)
08. Worry And Care (00:53)
09. Time And Abandonment (01:40)
10. It's Never What It Seems (01:52)
11. Camille And The Ocean (03:20)
12. Some Days Are Better Than Others (04:33)
13. Katrina Outtake (02:32)

Exact Audio Copy V0.99 prebeta 5 from 4. May 2009

EAC extraction logfile from 12. May 2011, 20:44

Matthew Cooper / Some Days Are Better Than Others

Used drive : TSSTcorpCDDVDW TS-T633A Adapter: 0 ID: 4

Read mode : Secure
Utilize accurate stream : Yes
Defeat audio cache : Yes
Make use of C2 pointers : No

Read offset correction : 6
Overread into Lead-In and Lead-Out : No
Fill up missing offset samples with silence : Yes
Delete leading and trailing silent blocks : No
Null samples used in CRC calculations : Yes
Used interface : Native Win32 interface for Win NT & 2000
Gap handling : Appended to previous track

Used output format : User Defined Encoder
Selected bitrate : 320 kBit/s
Quality : High
Add ID3 tag : No
Command line compressor : C:\Exact Audio Copy\Flac\flac.exe
Additional command line options : -V -8 -T "artist=%a" -T "title=%t" -T "album=%g" -T "date=%y" -T "tracknumber=%n" -T "genre=%m" %s

TOC of the extracted CD

Track | Start | Length | Start sector | End sector
---------------------------------------------------------
1 | 0:00.00 | 1:20.23 | 0 | 6022
2 | 1:20.23 | 3:46.14 | 6023 | 22986
3 | 5:06.37 | 1:49.17 | 22987 | 31178
4 | 6:55.54 | 3:50.30 | 31179 | 48458
5 | 10:46.09 | 3:02.04 | 48459 | 62112
6 | 13:48.13 | 2:07.57 | 62113 | 71694
7 | 15:55.70 | 4:46.55 | 71695 | 93199
8 | 20:42.50 | 0:52.43 | 93200 | 97142
9 | 21:35.18 | 1:40.17 | 97143 | 104659
10 | 23:15.35 | 1:52.13 | 104660 | 113072
11 | 25:07.48 | 3:20.30 | 113073 | 128102
12 | 28:28.03 | 4:33.23 | 128103 | 148600
13 | 33:01.26 | 2:31.49 | 148601 | 159974

Track 1

Filename D:\RIP\Matthew Cooper - 2011 - Some Days Are Better Than Others\01. Curious Moments.wav

Pre-gap length 0:00:02.00

Peak level 98.8 %
Track quality 100.0 %
Test CRC 897AE9A0
Copy CRC 897AE9A0
Accurately ripped (confidence 1) [CB5187A9]
Copy OK

Track 2

Filename D:\RIP\Matthew Cooper - 2011 - Some Days Are Better Than Others\02. Drifting.wav

Pre-gap length 0:00:02.86

Peak level 99.6 %
Track quality 100.0 %
Test CRC 28BD8884
Copy CRC 28BD8884
Accurately ripped (confidence 1) [E741BE34]
Copy OK

Track 3

Filename D:\RIP\Matthew Cooper - 2011 - Some Days Are Better Than Others\03. Pursuance.wav

Pre-gap length 0:00:02.86

Peak level 74.0 %
Track quality 99.9 %
Test CRC 375DE24B
Copy CRC 375DE24B
Accurately ripped (confidence 1) [9FB4ADF5]
Copy OK

Track 4

Filename D:\RIP\Matthew Cooper - 2011 - Some Days Are Better Than Others\04. Into Dust.wav

Pre-gap length 0:00:02.86

Peak level 89.6 %
Track quality 100.0 %
Test CRC 3A4966BB
Copy CRC 3A4966BB
Accurately ripped (confidence 1) [0379490D]
Copy OK

Track 5

Filename D:\RIP\Matthew Cooper - 2011 - Some Days Are Better Than Others\05. Expectation.wav

Pre-gap length 0:00:02.86

Peak level 92.7 %
Track quality 100.0 %
Test CRC 210DF709
Copy CRC 210DF709
Accurately ripped (confidence 1) [BF26511A]
Copy OK

Track 6

Filename D:\RIP\Matthew Cooper - 2011 - Some Days Are Better Than Others\06. What You Leave Behind.wav

Pre-gap length 0:00:02.86

Peak level 64.2 %
Track quality 100.0 %
Test CRC 1EFBB325
Copy CRC 1EFBB325
Accurately ripped (confidence 1) [E0329E31]
Copy OK

Track 7

Filename D:\RIP\Matthew Cooper - 2011 - Some Days Are Better Than Others\07. Reprieve.wav

Pre-gap length 0:00:02.86

Peak level 99.6 %
Track quality 100.0 %
Test CRC 44F0719D
Copy CRC 44F0719D
Accurately ripped (confidence 1) [0CA38E7A]
Copy OK

Track 8

Filename D:\RIP\Matthew Cooper - 2011 - Some Days Are Better Than Others\08. Worry And Care.wav

Pre-gap length 0:00:02.86

Peak level 61.2 %
Track quality 100.0 %
Test CRC C2CC5E4A
Copy CRC C2CC5E4A
Accurately ripped (confidence 1) [6853DC61]
Copy OK

Track 9

Filename D:\RIP\Matthew Cooper - 2011 - Some Days Are Better Than Others\09. Time And Abandonment.wav

Pre-gap length 0:00:02.86

Peak level 99.5 %
Track quality 100.0 %
Test CRC CE23F556
Copy CRC CE23F556
Accurately ripped (confidence 1) [7D3DF217]
Copy OK

Track 10

Filename D:\RIP\Matthew Cooper - 2011 - Some Days Are Better Than Others\10. It's Never What It Seems.wav

Pre-gap length 0:00:02.86

Peak level 67.7 %
Track quality 100.0 %
Test CRC 681CC182
Copy CRC 681CC182
Accurately ripped (confidence 1) [7E7EF937]
Copy OK

Track 11

Filename D:\RIP\Matthew Cooper - 2011 - Some Days Are Better Than Others\11. Camille And The Ocean.wav

Pre-gap length 0:00:02.86

Peak level 99.6 %
Track quality 100.0 %
Test CRC 51189026
Copy CRC 51189026
Accurately ripped (confidence 1) [9007AB07]
Copy OK

Track 12

Filename D:\RIP\Matthew Cooper - 2011 - Some Days Are Better Than Others\12. Some Days Are Better Than Others.wav

Pre-gap length 0:00:02.86

Peak level 99.6 %
Track quality 100.0 %
Test CRC 6526F7D8
Copy CRC 6526F7D8
Accurately ripped (confidence 1) [7C88C66E]
Copy OK

Track 13

Filename D:\RIP\Matthew Cooper - 2011 - Some Days Are Better Than Others\13. Katrina Outtake.wav

Pre-gap length 0:00:02.86

Peak level 99.6 %
Track quality 100.0 %
Test CRC AB3BDF46
Copy CRC AB3BDF46
Accurately ripped (confidence 1) [C6458375]
Copy OK

All tracks accurately ripped

No errors occurred

End of status report


REM GENRE Ambient
REM DATE 2011
REM DISCID B408550D
REM COMMENT "ExactAudioCopy v0.99pb5"
FILE "01. Curious Moments.wav" WAVE
TRACK 01 AUDIO
INDEX 01 00:00:00
TRACK 02 AUDIO
INDEX 00 01:17:33
FILE "02. Drifting.wav" WAVE
INDEX 01 00:00:00
TRACK 03 AUDIO
INDEX 00 03:43:24
FILE "03. Pursuance.wav" WAVE
INDEX 01 00:00:00
TRACK 04 AUDIO
INDEX 00 01:46:27
FILE "04. Into Dust.wav" WAVE
INDEX 01 00:00:00
TRACK 05 AUDIO
INDEX 00 03:47:40
FILE "05. Expectation.wav" WAVE
INDEX 01 00:00:00
TRACK 06 AUDIO
INDEX 00 02:59:14
FILE "06. What You Leave Behind.wav" WAVE
INDEX 01 00:00:00
TRACK 07 AUDIO
INDEX 00 02:04:67
FILE "07. Reprieve.wav" WAVE
INDEX 01 00:00:00
TRACK 08 AUDIO
INDEX 00 04:43:65
FILE "08. Worry And Care.wav" WAVE
INDEX 01 00:00:00
TRACK 09 AUDIO
INDEX 00 00:49:53
FILE "09. Time And Abandonment.wav" WAVE
INDEX 01 00:00:00
TRACK 10 AUDIO
INDEX 00 01:37:27
FILE "10. It's Never What It Seems.wav" WAVE
INDEX 01 00:00:00
TRACK 11 AUDIO
INDEX 00 01:49:23
FILE "11. Camille And The Ocean.wav" WAVE
INDEX 01 00:00:00
TRACK 12 AUDIO
INDEX 00 03:17:40
FILE "12. Some Days Are Better Than Others.wav" WAVE
INDEX 01 00:00:00
TRACK 13 AUDIO
INDEX 00 04:30:33
FILE "13. Katrina Outtake.wav" WAVE
INDEX 01 00:00:00

Год выпуска: 2013
Продолжительность: 00:33:29
Треклист:

01. Miniatures 1 (05:39)
02. Miniatures 2 (01:28)
03. Miniatures 3 (05:34)
04. Miniatures 4 (03:43)
05. Miniatures 5 (02:43)
06. Miniatures 6 (01:22)
07. Miniatures 7 (05:44)
08. Miniatures 8 (01:05)
09. Miniatures 9 (06:11)

Exact Audio Copy V1.0 beta 3 from 29. August 2011

EAC extraction logfile from 20. December 2013, 0:00

Matthew Robert Cooper / Miniatures

Used drive : HL-DT-STDVD-RAM GH22LP21 Adapter: 0 ID: 0

Read mode : Secure
Utilize accurate stream : Yes
Defeat audio cache : Yes
Make use of C2 pointers : No

Read offset correction : 102
Overread into Lead-In and Lead-Out : No
Fill up missing offset samples with silence : Yes
Delete leading and trailing silent blocks : No
Null samples used in CRC calculations : Yes
Used interface : Native Win32 interface for Win NT & 2000
Gap handling : Appended to previous track

Used output format : User Defined Encoder
Selected bitrate : 128 kBit/s
Quality : High
Add ID3 tag : No
Command line compressor : C:\Program Files\Exact Audio Copy\Flac\flac.exe
Additional command line options : -8 -V -T "ARTIST=%artist%" -T "TITLE=%title%" -T "ALBUM=%albumtitle%" -T "DATE=%year%" -T "TRACKNUMBER=%tracknr%" -T "GENRE=%genre%" -T "PERFORMER=%albuminterpret%" -T "COMPOSER=%composer%" %haslyrics%--tag-from-file=LYRICS="%lyricsfile%"%haslyrics% -T "ALBUMARTIST=%albumartist%" -T "ALBUM ARTIST=%albumartist%" -T "DISCNUMBER=%cdnumber%" -T "TOTALDISCS=%totalcds%" -T "TOTALTRACKS=%numtracks%" -T "COMMENT=%comment%" %source% -o %dest%

TOC of the extracted CD

Track | Start | Length | Start sector | End sector
---------------------------------------------------------
1 | 0:00.00 | 5:38.56 | 0 | 25405
2 | 5:38.56 | 1:28.33 | 25406 | 32038
3 | 7:07.14 | 5:33.70 | 32039 | 57083
4 | 12:41.09 | 3:43.08 | 57084 | 73816
5 | 16:24.17 | 2:42.45 | 73817 | 86011
6 | 19:06.62 | 1:22.03 | 86012 | 92164
7 | 20:28.65 | 5:43.70 | 92165 | 117959
8 | 26:12.60 | 1:04.60 | 117960 | 122819
9 | 27:17.45 | 6:10.57 | 122820 | 150626

Track 1

Filename C:\C\Matthew Robert Cooper\2013 Miniatures\01 - Miniature 1.wav

Pre-gap length 0:00:02.00

Peak level 96.6 %
Extraction speed 1.7 X
Track quality 100.0 %
Test CRC 40D46169
Copy CRC 40D46169
Track not present in AccurateRip database
Copy OK

Track 2

Filename C:\C\Matthew Robert Cooper\2013 Miniatures\02 - Miniature 2.wav

Peak level 91.4 %
Extraction speed 1.4 X
Track quality 100.0 %
Test CRC B5231736
Copy CRC B5231736
Track not present in AccurateRip database
Copy OK

Track 3

Filename C:\C\Matthew Robert Cooper\2013 Miniatures\03 - Miniature 3.wav

Peak level 96.6 %
Extraction speed 2.0 X
Track quality 100.0 %
Test CRC 8D2A79D9
Copy CRC 8D2A79D9
Track not present in AccurateRip database
Copy OK

Track 4

Filename C:\C\Matthew Robert Cooper\2013 Miniatures\04 - Miniature 4.wav

Peak level 96.6 %
Extraction speed 1.8 X
Track quality 99.9 %
Test CRC 561B3661
Copy CRC 561B3661
Track not present in AccurateRip database
Copy OK

Track 5

Filename C:\C\Matthew Robert Cooper\2013 Miniatures\05 - Miniature 5.wav

Peak level 96.6 %
Extraction speed 2.0 X
Track quality 100.0 %
Test CRC 1FC939C6
Copy CRC 1FC939C6
Track not present in AccurateRip database
Copy OK

Track 6

Filename C:\C\Matthew Robert Cooper\2013 Miniatures\06 - Miniature 6.wav

Peak level 50.2 %
Extraction speed 1.7 X
Track quality 100.0 %
Test CRC 4BBC7CB7
Copy CRC 4BBC7CB7
Track not present in AccurateRip database
Copy OK

Track 7

Filename C:\C\Matthew Robert Cooper\2013 Miniatures\07 - Miniature 7.wav

Peak level 96.6 %
Extraction speed 2.2 X
Track quality 99.9 %
Test CRC 301520AA
Copy CRC 301520AA
Track not present in AccurateRip database
Copy OK

Track 8

Filename C:\C\Matthew Robert Cooper\2013 Miniatures\08 - Miniature 8.wav

Peak level 88.4 %
Extraction speed 1.8 X
Track quality 100.0 %
Test CRC 60DBCB14
Copy CRC 60DBCB14
Track not present in AccurateRip database
Copy OK

Track 9

Filename C:\C\Matthew Robert Cooper\2013 Miniatures\09 - Miniature 9.wav

Peak level 96.6 %
Extraction speed 2.7 X
Track quality 100.0 %
Test CRC 76FD101B
Copy CRC 76FD101B
Track not present in AccurateRip database
Copy OK

None of the tracks are present in the AccurateRip database

No errors occurred

End of status report

---- CUETools DB Plugin V2.1.3

[CTDB TOCID: UvOmYkDZp0vyQBP98lVUn8IRrR4-] disk not present in database, Submit result: UvOmYkDZp0vyQBP98lVUn8IRrR4- has been uploaded

==== Log checksum 66E0F8FA2C71FAE0F6FC39CFC27CA8C2A0B6DCC66EB6C5353B13E4C758BBD94C ====


REM DATE 2013
REM DISCID 7707D809
REM COMMENT "ExactAudioCopy v1.0b3"
PERFORMER "Matthew Robert Cooper"
TITLE "Miniatures"
FILE "01 - Miniature 1.wav" WAVE
TRACK 01 AUDIO
TITLE "Miniature 1"
PERFORMER "Matthew Robert Cooper"
INDEX 01 00:00:00
FILE "02 - Miniature 2.wav" WAVE
TRACK 02 AUDIO
TITLE "Miniature 2"
PERFORMER "Matthew Robert Cooper"
INDEX 01 00:00:00
FILE "03 - Miniature 3.wav" WAVE
TRACK 03 AUDIO
TITLE "Miniature 3"
PERFORMER "Matthew Robert Cooper"
INDEX 01 00:00:00
FILE "04 - Miniature 4.wav" WAVE
TRACK 04 AUDIO
TITLE "Miniature 4"
PERFORMER "Matthew Robert Cooper"
INDEX 01 00:00:00
FILE "05 - Miniature 5.wav" WAVE
TRACK 05 AUDIO
TITLE "Miniature 5"
PERFORMER "Matthew Robert Cooper"
INDEX 01 00:00:00
FILE "06 - Miniature 6.wav" WAVE
TRACK 06 AUDIO
TITLE "Miniature 6"
PERFORMER "Matthew Robert Cooper"
INDEX 01 00:00:00
FILE "07 - Miniature 7.wav" WAVE
TRACK 07 AUDIO
TITLE "Miniature 7"
PERFORMER "Matthew Robert Cooper"
INDEX 01 00:00:00
FILE "08 - Miniature 8.wav" WAVE
TRACK 08 AUDIO
TITLE "Miniature 8"
PERFORMER "Matthew Robert Cooper"
INDEX 01 00:00:00
FILE "09 - Miniature 9.wav" WAVE
TRACK 09 AUDIO
TITLE "Miniature 9"
PERFORMER "Matthew Robert Cooper"
INDEX 01 00:00:00

Время раздачи: 12/7
[NNMClub.to]_Matthew Cooper (Eluvium) FLAC.torrent
 Торрент: Золотая раздача  Зарегистрирован
 
Примагнититься
Free Leech
Зарегистрируйтесь и скачайте торрент!
58,6 KB
 Зарегистрирован:   24 Сен 2016 20:21:38
 Размер:   5 GB  (
 Рейтинг:    (Голосов: 3)
 Поблагодарили:   22
 Проверка:   Оформление проверено модератором 24 Сен 2016 20:22:41
Как cкачать  ·  Как раздать  ·  Правильно оформить  ·  Поднять ратио!  
Показать сообщения:   
Начать новую тему   Ответить на тему    Торрент-трекер NNM-Club -> Electronic -> Easy listening (Lossless) Часовой пояс: GMT + 3
Страница 1 из 1