Интеллигентный торрент-трекер
canvas not supported
Нас вместе: 4 201 313

Человек – швейцарский нож / Swiss Army Man (2016) BDRemux [H.264/1080p] [EN / EN, Sp Sub]


 
 
RSS
Начать новую тему   Ответить на тему    Торрент-трекер NNM-Club -> Зарубежное кино -> Фильмы в оригинале (HD)
Автор Сообщение
smaster67 ®
Модератор Видео
Покровитель талантов Uploader 300+
Стаж: 7 лет 6 мес.
Сообщений: 6395
Ratio: 187,018
Поблагодарили: 180333
100%
Человек – швейцарский нож / Swiss Army Man (2016) BDRemux [H.264/1080p] [EN / EN, Sp Sub]

Производство: США
Жанр: фэнтези, драма, мелодрама, комедия, приключения

Режиссер: Дэн Кван , Дэниэл Шайнерт
Актеры: Пол Дано, Дэниэл Рэдклифф, Мэри Элизабет Уинстэд, Антония Риберо, Тимоти Йолих, Ричард Гросс, Марика Кастил, Энди Халл, Аарон Маршалл, Шейн Каррут, Джессика Харбек

Описание:
Оказавшись на необитаемом острове, Хэнк уже был готов потерять всякую надежду, но все меняется, когда на берегу он находит труп по имени Мэнни.
Многофункциональность Мэнни поможет Хэнку выжить в диких условиях и заново обрести радость жизни. Вместе они отправятся в эпическое приключение, которое вернет Хэнка к девушке его мечты.



Продолжительность: 01:37:23
Качество видео: BDRemux
Перевод: Отсутствует
Язык озвучки: Английский
Язык субтитров: английский, испанский
Вид субтитров: Вшитые

Видео: AVC, 1920x1080 (16:9), 34227 kbps, 23,976 fps, 0,688 bpp
Аудио №1: английский / Atmos / TrueHD / 4684 kbps / 7.1 / 48 KHz / 24 bits
Аудио №2: английский / AC3 / 5.1 / 48 kHz / 640 kbps /
Аудио №3: английский / AC3 / 2.0 / 48 kHz / 224 kbps /
Код:
General
Unique ID
Complete name                            : Swiss.Army.Man.2016.BluRay.1080p.TrueHD.Atmos.7.1.AVC.REMUX-FraMeSToR\Swiss.Army.Man.2016.BluRay.1080p.TrueHD.Atmos.7.1.AVC.REMUX-FraMeSToR.mkv
Format                                   : Matroska
Format version                           : Version 4 / Version 2
File size                                : 27.1 GiB
Duration                                 : 1 h 37 min
Overall bit rate mode                    : Variable
Overall bit rate                         : 39.9 Mb/s
Encoded date                             : UTC 2016-09-25 01:50:52
Writing application                      : mkvmerge v9.4.2 ('So High') 64bit
Writing library                          : libebml v1.3.4 + libmatroska v1.4.5

Video
ID                                       : 1
Format                                   : AVC
Format/Info                              : Advanced Video Codec
Format profile                           : High@L4.1
Format settings, CABAC                   : Yes
Format settings, ReFrames                : 4 frames
Codec ID                                 : V_MPEG4/ISO/AVC
Duration                                 : 1 h 37 min
Bit rate mode                            : Variable
Bit rate                                 : 34.2 Mb/s
Maximum bit rate                         : 36.5 Mb/s
Width                                    : 1 920 pixels
Height                                   : 1 080 pixels
Display aspect ratio                     : 16:9
Frame rate mode                          : Constant
Frame rate                               : 23.976 (24000/1001) FPS
Color space                              : YUV
Chroma subsampling                       : 4:2:0
Bit depth                                : 8 bits
Scan type                                : Progressive
Bits/(Pixel*Frame)                       : 0.688
Stream size                              : 23.3 GiB (86%)
Default                                  : Yes
Forced                                   : No

Audio #1
ID                                       : 2
Format                                   : Atmos / TrueHD
Codec ID                                 : A_TRUEHD
Duration                                 : 1 h 37 min
Bit rate mode                            : Variable
Bit rate                                 : 4 685 kb/s
Maximum bit rate                         : 8 526 kb/s
Channel(s)                               : Object Based / 8 channels
Channel positions                        : Object Based / Front: L C R, Side: L R, Back: L R, LFE
Sampling rate                            :  / 48.0 kHz
Frame rate                               : 1 200.000 FPS (40 spf)
Compression mode                         : Lossless
Stream size                              : 3.19 GiB (12%)
Title                                    : TrueHD Atmos 7.1
Language                                 : English
Default                                  : Yes
Forced                                   : No

Audio #2
ID                                       : 3
Format                                   : AC-3
Format/Info                              : Audio Coding 3
Mode extension                           : CM (complete main)
Format settings, Endianness              : Big
Codec ID                                 : A_AC3
Duration                                 : 1 h 37 min
Bit rate mode                            : Constant
Bit rate                                 : 640 kb/s
Channel(s)                               : 6 channels
Channel positions                        : Front: L C R, Side: L R, LFE
Sampling rate                            : 48.0 kHz
Frame rate                               : 31.250 FPS (1536 spf)
Compression mode                         : Lossy
Stream size                              : 446 MiB (2%)
Title                                    : AC3 5.1-EX
Language                                 : English
Default                                  : No
Forced                                   : No

Audio #3
ID                                       : 4
Format                                   : AC-3
Format/Info                              : Audio Coding 3
Format profile                           : Dolby Digital
Mode extension                           : CM (complete main)
Format settings, Endianness              : Big
Codec ID                                 : A_AC3
Duration                                 : 1 h 37 min
Bit rate mode                            : Constant
Bit rate                                 : 224 kb/s
Channel(s)                               : 2 channels
Channel positions                        : Front: L R
Sampling rate                            : 48.0 kHz
Frame rate                               : 31.250 FPS (1536 spf)
Compression mode                         : Lossy
Stream size                              : 156 MiB (1%)
Title                                    : Commentary with Directors Daniel Scheinert and Dan Kwan
Language                                 : English
Default                                  : No
Forced                                   : No

Text #1
ID                                       : 5
Format                                   : PGS
Codec ID                                 : S_HDMV/PGS
Codec ID/Info                            : Picture based subtitle format used on BDs/HD-DVDs
Duration                                 : 1 h 36 min
Bit rate                                 : 34.3 kb/s
Count of elements                        : 2791
Stream size                              : 23.7 MiB (0%)
Title                                    : English (SDH)
Language                                 : English
Default                                  : No
Forced                                   : No

Text #2
ID                                       : 6
Format                                   : PGS
Codec ID                                 : S_HDMV/PGS
Codec ID/Info                            : Picture based subtitle format used on BDs/HD-DVDs
Duration                                 : 1 h 30 min
Bit rate                                 : 28.0 kb/s
Count of elements                        : 2047
Stream size                              : 18.2 MiB (0%)
Title                                    : Spanish (Latin American)
Language                                 : Spanish
Default                                  : No
Forced                                   : No

Menu
00:00:00.000                             : en:Chapter 01
00:08:47.902                             : en:Chapter 02
00:13:14.335                             : en:Chapter 03
00:17:42.228                             : en:Chapter 04
00:25:11.593                             : en:Chapter 05
00:32:46.256                             : en:Chapter 06
00:37:17.068                             : en:Chapter 07
00:44:39.260                             : en:Chapter 08
00:51:44.101                             : en:Chapter 09
00:57:57.224                             : en:Chapter 10
01:03:19.337                             : en:Chapter 11
01:06:17.140                             : en:Chapter 12
01:10:05.535                             : en:Chapter 13
01:16:40.679                             : en:Chapter 14
01:22:10.092                             : en:Chapter 15
01:27:31.788                             : en:Chapter 16

Скриншоты:



Время раздачи: с 13:00 до 23:00
[NNMClub.to]_Swiss.Army.Man.2016.BluRay.1080p.TrueHD.Atmos.7.1.AVC.REMUX-FraMeSToR.mkv.torrent
 Торрент: Золотая раздача  Зарегистрирован
 
Примагнититься
Free Leech
Зарегистрируйтесь и скачайте торрент!
136 KB
 Зарегистрирован:   25 Сен 2016 17:07:55
 Размер:   27,1 GB  (
 Рейтинг:   4,2 (Голосов: 14)
 Поблагодарили:   42
 Проверка:   Оформление проверено модератором 25 Сен 2016 17:09:14
Как cкачать  ·  Как раздать  ·  Правильно оформить  ·  Поднять ратио!  
canna​bis_u​k​
Стаж: 5 лет 8 мес.
Сообщений: 69
Ratio: 5,985
100%
Откуда: Брянк​а-Сит​и​
ussr.gif
отличное кино!
ruslanrus
Стаж: 7 лет 9 мес.
Сообщений: 37
Ratio: 36,167
10.9%
russia.gif
Если вкратце - чувак находит труп, заносит его в воду, труп испускает газы из заднего прохода и чувак едет на нем к большой земле.
А дальше хуже.
Неужели прием с пердежом так нужен данной картине чтоб раскрыть некий смысл.
Возможно в картине есть интересные моменты. Но эти приемы с пердежом и т.д. реально сильно портят впечатление о фильме.
Очень хочется чтоб кто нибудь описал тайный смысл скрытый режисером в этой картине.
Не стал тратить время на просмотр фильма и понимание его глубинного смысла.
Evgen​ius19​85​
Стаж: 7 лет 3 мес.
Сообщений: 67
Ratio: 1,737
0.18%
Откуда: Vladi​vosto​k​
russia.gif
нормальное кино!
jesel​nik90​909​
Стаж: 4 мес. 10 дней
Сообщений: 2
Ratio: 0,145
0%
можно где-нибудь дорожку с комментариями режиссера выложить?
Показать сообщения:   
Начать новую тему   Ответить на тему    Торрент-трекер NNM-Club -> Зарубежное кино -> Фильмы в оригинале (HD) Часовой пояс: GMT + 3
Страница 1 из 1