Интеллигентный торрент-трекер
canvas not supported
Нас вместе: 4 348 533

Свадебный угар / Mike and Dave Need Wedding Dates (2016) BDRemux [H.264/1080p] [EN / En, Sp, Fr, Da, Sw, Rus, Por, Lat, Fi, No, Lit, Ukr, Est, Sub]


 
 
RSS
Начать новую тему   Ответить на тему    Торрент-трекер NNM-Club -> Зарубежное кино -> Фильмы в оригинале (HD)
Автор Сообщение
smaster67 ®
Модератор Видео
Покровитель талантов Uploader 300+
Стаж: 7 лет 10 мес.
Сообщений: 6629
Ratio: 198,774
Поблагодарили: 192389
100%
Свадебный угар / Mike and Dave Need Wedding Dates (2016) BDRemux [H.264/1080p] [EN / En, Sp, Fr, Da, Sw, Rus, Por, Lat, Fi, No, Lit, Ukr, Est, Sub]

Производство: США
Жанр: мелодрама, комедия, приключения

Режиссер: Джейк Зиманский
Актеры: Зак Эфрон, Адам Дивайн, Анна Кендрик, Обри Плаза, Стивен Рут, Стефани Фэраси, Стефани Бирд, Сэм Ричардсон, Элис Веттерлунд, Лавелл Кроуфорд, Мэри Холлэнд, Кумэйл Нанджиани

Описание:
Братья-тусовщики Майк и Дэйв дают в интернете объявление о поиске пар, чтобы отправиться на свадьбу сестры на Гавайях. Они надеются на дикий отрыв, но выбранный ими дуэт девушек оказывается совершенно неконтролируемым, готовым превратить праздник в настоящий ад.



Продолжительность: 01:38:32
Качество видео: BDRemux
Перевод: Отсутствует
Язык озвучки: Английский
Язык субтитров: английский, испанский, французский, датский, шведский, русский, португальский, латышский, финский, норвежский, литовский, украинский, эстонский
Вид субтитров: Вшитые

Видео: AVC, 1920x1080 (16:9), 26778 kbps, 23,976 fps, 0,539 bpp
Аудио: DTS-HD / 7.1 / 48 kHz / 4569 kbps / 24 bit
Код:
General
Unique ID
Complete name                            : Mike.and.Dave.Need.Wedding.Dates.2016.REMUX.BluRay.1080p.AVC.DTS-HD.MA7.1-iFT\Mike.and.Dave.Need.Wedding.Dates.2016.REMUX.BluRay.1080p.AVC.DTS-HD.MA7.1-iFT.mkv
Format                                   : Matroska
Format version                           : Version 4 / Version 2
File size                                : 21.9 GiB
Duration                                 : 1 h 38 min
Overall bit rate mode                    : Variable
Overall bit rate                         : 31.8 Mb/s
Encoded date                             : UTC 2016-09-26 13:47:35
Writing application                      : mkvmerge v9.1.0 ('Little Earthquakes') 64bit
Writing library                          : libebml v1.3.3 + libmatroska v1.4.4

Video
ID                                       : 1
Format                                   : AVC
Format/Info                              : Advanced Video Codec
Format profile                           : High@L4.1
Format settings, CABAC                   : Yes
Format settings, ReFrames                : 2 frames
Codec ID                                 : V_MPEG4/ISO/AVC
Duration                                 : 1 h 38 min
Bit rate mode                            : Variable
Bit rate                                 : 26.8 Mb/s
Width                                    : 1 920 pixels
Height                                   : 1 080 pixels
Display aspect ratio                     : 16:9
Frame rate mode                          : Constant
Frame rate                               : 23.976 (24000/1001) FPS
Color space                              : YUV
Chroma subsampling                       : 4:2:0
Bit depth                                : 8 bits
Scan type                                : Progressive
Bits/(Pixel*Frame)                       : 0.539
Stream size                              : 18.4 GiB (84%)
Default                                  : Yes
Forced                                   : No

Audio
ID                                       : 2
Format                                   : DTS
Format/Info                              : Digital Theater Systems
Format profile                           : MA / Core
Mode                                     : 16
Format settings, Endianness              : Big
Codec ID                                 : A_DTS
Duration                                 : 1 h 38 min
Bit rate mode                            : Variable / Constant
Bit rate                                 : 4 570 kb/s / 1 509 kb/s
Channel(s)                               : 8 channels / 6 channels
Channel positions                        : Front: L C R, Side: L R, Back: L R, LFE / Front: L C R, Side: L R, LFE
Sampling rate                            : 48.0 kHz
Frame rate                               : 93.750 FPS (512 spf)
Bit depth                                : 24 bits
Compression mode                         : Lossless / Lossy
Stream size                              : 3.15 GiB (14%)
Default                                  : Yes
Forced                                   : No

Text #1
ID                                       : 3
Format                                   : PGS
Muxing mode                              : zlib
Codec ID                                 : S_HDMV/PGS
Codec ID/Info                            : Picture based subtitle format used on BDs/HD-DVDs
Duration                                 : 1 h 37 min
Bit rate                                 : 22.2 kb/s
Count of elements                        : 5412
Stream size                              : 15.6 MiB (0%)
Language                                 : English
Default                                  : Yes
Forced                                   : No

Text #2
ID                                       : 4
Format                                   : PGS
Muxing mode                              : zlib
Codec ID                                 : S_HDMV/PGS
Codec ID/Info                            : Picture based subtitle format used on BDs/HD-DVDs
Duration                                 : 1 h 21 min
Bit rate                                 : 12 b/s
Count of elements                        : 5
Stream size                              : 7.60 KiB (0%)
Language                                 : English
Default                                  : No
Forced                                   : No

Text #3
ID                                       : 5
Format                                   : PGS
Muxing mode                              : zlib
Codec ID                                 : S_HDMV/PGS
Codec ID/Info                            : Picture based subtitle format used on BDs/HD-DVDs
Duration                                 : 1 h 37 min
Bit rate                                 : 16.0 kb/s
Count of elements                        : 3925
Stream size                              : 11.2 MiB (0%)
Language                                 : Spanish
Default                                  : No
Forced                                   : No

Text #4
ID                                       : 6
Format                                   : PGS
Muxing mode                              : zlib
Codec ID                                 : S_HDMV/PGS
Codec ID/Info                            : Picture based subtitle format used on BDs/HD-DVDs
Duration                                 : 1 h 37 min
Bit rate                                 : 17.9 kb/s
Count of elements                        : 4404
Stream size                              : 12.5 MiB (0%)
Language                                 : French
Default                                  : No
Forced                                   : No

Text #5
ID                                       : 7
Format                                   : PGS
Muxing mode                              : zlib
Codec ID                                 : S_HDMV/PGS
Codec ID/Info                            : Picture based subtitle format used on BDs/HD-DVDs
Duration                                 : 1 h 37 min
Bit rate                                 : 13.3 kb/s
Count of elements                        : 2697
Stream size                              : 9.29 MiB (0%)
Language                                 : Danish
Default                                  : No
Forced                                   : No

Text #6
ID                                       : 8
Format                                   : PGS
Muxing mode                              : zlib
Codec ID                                 : S_HDMV/PGS
Codec ID/Info                            : Picture based subtitle format used on BDs/HD-DVDs
Duration                                 : 1 h 37 min
Bit rate                                 : 13.6 kb/s
Count of elements                        : 4233
Stream size                              : 9.48 MiB (0%)
Language                                 : Finnish
Default                                  : No
Forced                                   : No

Text #7
ID                                       : 9
Format                                   : PGS
Muxing mode                              : zlib
Codec ID                                 : S_HDMV/PGS
Codec ID/Info                            : Picture based subtitle format used on BDs/HD-DVDs
Duration                                 : 1 h 37 min
Bit rate                                 : 16.8 kb/s
Count of elements                        : 4395
Stream size                              : 11.7 MiB (0%)
Language                                 : Norwegian
Default                                  : No
Forced                                   : No

Text #8
ID                                       : 10
Format                                   : PGS
Muxing mode                              : zlib
Codec ID                                 : S_HDMV/PGS
Codec ID/Info                            : Picture based subtitle format used on BDs/HD-DVDs
Duration                                 : 1 h 37 min
Bit rate                                 : 14.9 kb/s
Count of elements                        : 4219
Stream size                              : 10.4 MiB (0%)
Language                                 : Portuguese
Default                                  : No
Forced                                   : No

Text #9
ID                                       : 11
Format                                   : PGS
Muxing mode                              : zlib
Codec ID                                 : S_HDMV/PGS
Codec ID/Info                            : Picture based subtitle format used on BDs/HD-DVDs
Duration                                 : 1 h 37 min
Bit rate                                 : 17.9 kb/s
Count of elements                        : 4407
Stream size                              : 12.5 MiB (0%)
Language                                 : Russian
Default                                  : No
Forced                                   : No

Text #10
ID                                       : 12
Format                                   : PGS
Muxing mode                              : zlib
Codec ID                                 : S_HDMV/PGS
Codec ID/Info                            : Picture based subtitle format used on BDs/HD-DVDs
Duration                                 : 1 h 37 min
Bit rate                                 : 14.8 kb/s
Count of elements                        : 4211
Stream size                              : 10.3 MiB (0%)
Language                                 : Swedish
Default                                  : No
Forced                                   : No

Text #11
ID                                       : 13
Format                                   : PGS
Muxing mode                              : zlib
Codec ID                                 : S_HDMV/PGS
Codec ID/Info                            : Picture based subtitle format used on BDs/HD-DVDs
Duration                                 : 1 h 37 min
Bit rate                                 : 17.3 kb/s
Count of elements                        : 4321
Stream size                              : 12.1 MiB (0%)
Language                                 : Estonian
Default                                  : No
Forced                                   : No

Text #12
ID                                       : 14
Format                                   : PGS
Muxing mode                              : zlib
Codec ID                                 : S_HDMV/PGS
Codec ID/Info                            : Picture based subtitle format used on BDs/HD-DVDs
Duration                                 : 1 h 37 min
Bit rate                                 : 16.3 kb/s
Count of elements                        : 4397
Stream size                              : 11.4 MiB (0%)
Language                                 : Latvian
Default                                  : No
Forced                                   : No

Text #13
ID                                       : 15
Format                                   : PGS
Muxing mode                              : zlib
Codec ID                                 : S_HDMV/PGS
Codec ID/Info                            : Picture based subtitle format used on BDs/HD-DVDs
Duration                                 : 1 h 37 min
Bit rate                                 : 16.7 kb/s
Count of elements                        : 4341
Stream size                              : 11.6 MiB (0%)
Language                                 : Lithuanian
Default                                  : No
Forced                                   : No

Text #14
ID                                       : 16
Format                                   : PGS
Muxing mode                              : zlib
Codec ID                                 : S_HDMV/PGS
Codec ID/Info                            : Picture based subtitle format used on BDs/HD-DVDs
Duration                                 : 1 h 37 min
Bit rate                                 : 17.9 kb/s
Count of elements                        : 4407
Stream size                              : 12.5 MiB (0%)
Language                                 : Ukrainian
Default                                  : No
Forced                                   : No

Text #15
ID                                       : 17
Format                                   : PGS
Muxing mode                              : zlib
Codec ID                                 : S_HDMV/PGS
Codec ID/Info                            : Picture based subtitle format used on BDs/HD-DVDs
Duration                                 : 1 h 38 min
Bit rate                                 : 28.0 kb/s
Count of elements                        : 4486
Stream size                              : 19.7 MiB (0%)
Language                                 : English
Default                                  : No
Forced                                   : No

Text #16
ID                                       : 18
Format                                   : PGS
Muxing mode                              : zlib
Codec ID                                 : S_HDMV/PGS
Codec ID/Info                            : Picture based subtitle format used on BDs/HD-DVDs
Duration                                 : 1 h 38 min
Bit rate                                 : 24.0 kb/s
Count of elements                        : 4444
Stream size                              : 16.9 MiB (0%)
Language                                 : Spanish
Default                                  : No
Forced                                   : No

Text #17
ID                                       : 19
Format                                   : PGS
Muxing mode                              : zlib
Codec ID                                 : S_HDMV/PGS
Codec ID/Info                            : Picture based subtitle format used on BDs/HD-DVDs
Duration                                 : 1 h 38 min
Bit rate                                 : 25.0 kb/s
Count of elements                        : 4448
Stream size                              : 17.6 MiB (0%)
Language                                 : French
Default                                  : No
Forced                                   : No

Text #18
ID                                       : 20
Format                                   : PGS
Muxing mode                              : zlib
Codec ID                                 : S_HDMV/PGS
Codec ID/Info                            : Picture based subtitle format used on BDs/HD-DVDs
Duration                                 : 1 h 38 min
Bit rate                                 : 23.7 kb/s
Count of elements                        : 4438
Stream size                              : 16.7 MiB (0%)
Language                                 : Danish
Default                                  : No
Forced                                   : No

Text #19
ID                                       : 21
Format                                   : PGS
Muxing mode                              : zlib
Codec ID                                 : S_HDMV/PGS
Codec ID/Info                            : Picture based subtitle format used on BDs/HD-DVDs
Duration                                 : 1 h 38 min
Bit rate                                 : 21.6 kb/s
Count of elements                        : 4426
Stream size                              : 15.2 MiB (0%)
Language                                 : Finnish
Default                                  : No
Forced                                   : No

Text #20
ID                                       : 22
Format                                   : PGS
Muxing mode                              : zlib
Codec ID                                 : S_HDMV/PGS
Codec ID/Info                            : Picture based subtitle format used on BDs/HD-DVDs
Duration                                 : 1 h 38 min
Bit rate                                 : 23.8 kb/s
Count of elements                        : 4446
Stream size                              : 16.8 MiB (0%)
Language                                 : Norwegian
Default                                  : No
Forced                                   : No

Text #21
ID                                       : 23
Format                                   : PGS
Muxing mode                              : zlib
Codec ID                                 : S_HDMV/PGS
Codec ID/Info                            : Picture based subtitle format used on BDs/HD-DVDs
Duration                                 : 1 h 38 min
Bit rate                                 : 26.8 kb/s
Count of elements                        : 4446
Stream size                              : 18.9 MiB (0%)
Language                                 : Russian
Default                                  : No
Forced                                   : No

Text #22
ID                                       : 24
Format                                   : PGS
Muxing mode                              : zlib
Codec ID                                 : S_HDMV/PGS
Codec ID/Info                            : Picture based subtitle format used on BDs/HD-DVDs
Duration                                 : 1 h 38 min
Bit rate                                 : 23.6 kb/s
Count of elements                        : 4438
Stream size                              : 16.6 MiB (0%)
Language                                 : Swedish
Default                                  : No
Forced                                   : No

Menu
00:00:00.000                             : en:00:00:00.000
00:03:39.511                             : en:00:03:39.511
00:08:12.826                             : en:00:08:12.826
00:11:26.102                             : en:00:11:26.102
00:17:29.340                             : en:00:17:29.340
00:22:33.477                             : en:00:22:33.477
00:27:22.432                             : en:00:27:22.432
00:31:29.179                             : en:00:31:29.179
00:35:23.204                             : en:00:35:23.204
00:38:17.212                             : en:00:38:17.212
00:41:26.442                             : en:00:41:26.442
00:44:25.538                             : en:00:44:25.538
00:50:22.811                             : en:00:50:22.811
00:54:12.833                             : en:00:54:12.833
00:56:53.660                             : en:00:56:53.660
01:01:16.131                             : en:01:01:16.131
01:04:44.214                             : en:01:04:44.214
01:08:24.058                             : en:01:08:24.058
01:12:28.886                             : en:01:12:28.886
01:16:33.339                             : en:01:16:33.339
01:21:08.614                             : en:01:21:08.614
01:25:30.542                             : en:01:25:30.542
01:28:45.987                             : en:01:28:45.987
01:33:51.084                             : en:01:33:51.084

Скриншоты:



Время раздачи: с 13:00 до 23:00
[NNMClub.to]_Mike.and.Dave.Need.Wedding.Dates.2016.REMUX.BluRay.1080p.AVC.DTS-HD.MA7.1-iFT.mkv.torrent
 Торрент: Платиновая раздача  Зарегистрирован
 
Примагнититься

Скачать
 Зарегистрирован:   26 Сен 2016 23:28:30
 Размер:   21,9 GB  (
 Рейтинг:    (Голосов: 3)
 Поблагодарили:   33
 Проверка:   Оформление проверено модератором 26 Сен 2016 23:29:04
Как cкачать  ·  Как раздать  ·  Правильно оформить  ·  Поднять ратио!  
Загрузка...
Показать сообщения:   
Начать новую тему   Ответить на тему    Торрент-трекер NNM-Club -> Зарубежное кино -> Фильмы в оригинале (HD) Часовой пояс: GMT + 3
Страница 1 из 1