Интеллигентный торрент-трекер
canvas not supported
Нас вместе: 4 193 028

Zentriert ins Antlitz (E.M.I.T.R, Innovation Reality) - Discography 13 Releases (2003-2013) [FLAC|Lossless|tracks+.cue, tracks] <Industrial, EBM, Ambient, IDM, Electro>


 
 
RSS
Начать новую тему   Ответить на тему    Торрент-трекер NNM-Club -> Electronic -> Experimental, Industrial, EBM, Dark Electro (Lossless)
Автор Сообщение
vilator ®
Модератор Музыки
RG Музыки
 
Стаж: 7 лет 8 мес.
Сообщений: 5484
Ratio: 113,187
Поблагодарили: 106500
100%
Откуда: Minsk
pirates.png


Zentriert ins Antlitz - андеграундный электронный проект из Германии, возникший в 2000 году.
Состав: Holger Meuler, Jurgen Warkentin и Marc Friedrich.

Жанр: Industrial, EBM, Ambient, IDM, Downtempo, Techno, Electro • Страна: Germany • Год издания: 2003-2013 • Тип издания: CD, Web
Аудиокодек: FLAC (*.flac) • Тип рипа: tracks+.cue, tracks • Продолжительность: 12:18:29 • Источник: What, ZIA • Наличие сканов: Частично
Треклист:
Год выпуска: 2003
Продолжительность: 00:57:57
Треклист:

01. Try To Escape (03:23)
02. ...ob Die Engel Auch Beine Haben (03:43)
03. Nuklear Haze (04:25)
04. Darkritual (06:09)
05. Elemental Parts (03:30)
06. Genozid (My Virus Club Mix) (05:32)
07. Elektronendammerung (09:02)
08. Die Schampulermaschine (05:01)
09. Define Tracing (04:07)
10. Motion Tracker (06:11)
11. Genozid (Bonus) (06:54)

Exact Audio Copy V1.1 from 23. June 2015

EAC extraction logfile from 12. November 2015, 20:05

Zentriert ins Antlitz / Genozid

Used drive : ASUS DRW-24B1ST Adapter: 1 ID: 0

Read mode : Secure
Utilize accurate stream : Yes
Defeat audio cache : Yes
Make use of C2 pointers : No

Read offset correction : 6
Overread into Lead-In and Lead-Out : No
Fill up missing offset samples with silence : Yes
Delete leading and trailing silent blocks : No
Null samples used in CRC calculations : Yes
Used interface : Native Win32 interface for Win NT & 2000
Gap handling : Appended to previous track

Used output format : User Defined Encoder
Selected bitrate : 128 kBit/s
Quality : High
Add ID3 tag : No
Command line compressor : C:\Program Files (x86)\Exact Audio Copy\Flac\flac.exe
Additional command line options : -8 -V -T "ARTIST=%artist%" -T "TITLE=%title%" -T "ALBUM=%albumtitle%" -T "DATE=%year%" -T "TRACKNUMBER=%tracknr%" -T "GENRE=%genre%" %source%

TOC of the extracted CD

Track | Start | Length | Start sector | End sector
---------------------------------------------------------
1 | 3:40.05 | 3:22.70 | 16505 | 31724
2 | 7:03.00 | 3:42.71 | 31725 | 48445
3 | 10:45.71 | 4:24.63 | 48446 | 68308
4 | 15:10.59 | 6:08.39 | 68309 | 95947
5 | 21:19.23 | 3:29.38 | 95948 | 111660
6 | 24:48.61 | 5:32.25 | 111661 | 136585
7 | 30:21.11 | 9:02.30 | 136586 | 177265
8 | 39:23.41 | 5:00.58 | 177266 | 199823
9 | 44:24.24 | 4:07.21 | 199824 | 218369
10 | 48:31.45 | 6:11.07 | 218370 | 246201
11 | 54:42.52 | 6:54.10 | 246202 | 277261

Track 1

Filename D:\EAC\Zentriert ins Antlitz - Genozid (2003) FLAC\01 Try to Escape.wav

Pre-gap length 0:03:42.05

Peak level 100.0 %
Extraction speed 5.4 X
Track quality 100.0 %
Test CRC 0CB901FA
Copy CRC 0CB901FA
Accurately ripped (confidence 2) [7295FE4F] (AR v2)
Copy OK

Track 2

Filename D:\EAC\Zentriert ins Antlitz - Genozid (2003) FLAC\02 ...ob die Engel auch Beine haben.wav

Peak level 100.0 %
Extraction speed 5.9 X
Track quality 100.0 %
Test CRC 19507D9E
Copy CRC 19507D9E
Accurately ripped (confidence 2) [C2F220E4] (AR v2)
Copy OK

Track 3

Filename D:\EAC\Zentriert ins Antlitz - Genozid (2003) FLAC\03 Nuklear Haze.wav

Peak level 100.0 %
Extraction speed 5.7 X
Track quality 100.0 %
Test CRC 4EA5D139
Copy CRC 4EA5D139
Accurately ripped (confidence 2) [5866AFC7] (AR v2)
Copy OK

Track 4

Filename D:\EAC\Zentriert ins Antlitz - Genozid (2003) FLAC\04 Darkritual.wav

Peak level 100.0 %
Extraction speed 6.7 X
Track quality 99.9 %
Test CRC 66F26B4B
Copy CRC 66F26B4B
Accurately ripped (confidence 2) [4046F93C] (AR v2)
Copy OK

Track 5

Filename D:\EAC\Zentriert ins Antlitz - Genozid (2003) FLAC\05 Elemental Parts.wav

Peak level 100.0 %
Extraction speed 6.3 X
Track quality 99.9 %
Test CRC AEDC7AEE
Copy CRC AEDC7AEE
Accurately ripped (confidence 2) [9D352AA4] (AR v2)
Copy OK

Track 6

Filename D:\EAC\Zentriert ins Antlitz - Genozid (2003) FLAC\06 Genozid (My Virus Club Mix).wav

Peak level 100.0 %
Extraction speed 7.4 X
Track quality 99.9 %
Test CRC 2B62EE7D
Copy CRC 2B62EE7D
Accurately ripped (confidence 2) [332826CE] (AR v2)
Copy OK

Track 7

Filename D:\EAC\Zentriert ins Antlitz - Genozid (2003) FLAC\07 Elektronendämmerung.wav

Peak level 100.0 %
Extraction speed 9.1 X
Track quality 100.0 %
Test CRC 332C2863
Copy CRC 332C2863
Accurately ripped (confidence 2) [3549F681] (AR v2)
Copy OK

Track 8

Filename D:\EAC\Zentriert ins Antlitz - Genozid (2003) FLAC\08 Die Schampulermaschine.wav

Peak level 100.0 %
Extraction speed 8.2 X
Track quality 99.9 %
Test CRC 4A3F5005
Copy CRC 4A3F5005
Accurately ripped (confidence 2) [2546D5F9] (AR v2)
Copy OK

Track 9

Filename D:\EAC\Zentriert ins Antlitz - Genozid (2003) FLAC\09 Define Tracing.wav

Peak level 100.0 %
Extraction speed 9.2 X
Track quality 100.0 %
Test CRC 06936B61
Copy CRC 06936B61
Accurately ripped (confidence 2) [F9D96AAC] (AR v2)
Copy OK

Track 10

Filename D:\EAC\Zentriert ins Antlitz - Genozid (2003) FLAC\10 Motion Tracker.wav

Peak level 100.0 %
Extraction speed 10.1 X
Track quality 100.0 %
Test CRC B8271513
Copy CRC B8271513
Accurately ripped (confidence 2) [AB0EC535] (AR v2)
Copy OK

Track 11

Filename D:\EAC\Zentriert ins Antlitz - Genozid (2003) FLAC\11 Genozid (Bonus Track).wav

Peak level 100.0 %
Extraction speed 10.6 X
Track quality 100.0 %
Test CRC FD32A95A
Copy CRC FD32A95A
Accurately ripped (confidence 2) [31EB08E4] (AR v2)
Copy OK

All tracks accurately ripped

No errors occurred

End of status report

==== Log checksum 3ED32B6919FB795E7D416D3122D33DF8E8C88185E9346B6BC7BFA51812F089E2 ====


REM GENRE Industrial
REM DATE 2003
REM DISCID 9A0D940B
REM COMMENT "ExactAudioCopy v1.1"
PERFORMER "Zentriert ins Antlitz"
TITLE "Genozid"
FILE "01 Try to Escape.wav" WAVE
TRACK 01 AUDIO
TITLE "Try to Escape"
PERFORMER "Zentriert ins Antlitz"
PREGAP 03:40:05
INDEX 01 00:00:00
FILE "02 ...ob die Engel auch Beine haben.wav" WAVE
TRACK 02 AUDIO
TITLE "...ob die Engel auch Beine haben"
PERFORMER "Zentriert ins Antlitz"
INDEX 01 00:00:00
FILE "03 Nuklear Haze.wav" WAVE
TRACK 03 AUDIO
TITLE "Nuklear Haze"
PERFORMER "Zentriert ins Antlitz"
INDEX 01 00:00:00
FILE "04 Darkritual.wav" WAVE
TRACK 04 AUDIO
TITLE "Darkritual"
PERFORMER "Zentriert ins Antlitz"
INDEX 01 00:00:00
FILE "05 Elemental Parts.wav" WAVE
TRACK 05 AUDIO
TITLE "Elemental Parts"
PERFORMER "Zentriert ins Antlitz"
INDEX 01 00:00:00
FILE "06 Genozid (My Virus Club Mix).wav" WAVE
TRACK 06 AUDIO
TITLE "Genozid (My Virus Club Mix)"
PERFORMER "Zentriert ins Antlitz"
INDEX 01 00:00:00
FILE "07 Elektronendammerung.wav" WAVE
TRACK 07 AUDIO
TITLE "Elektronendammerung"
PERFORMER "Zentriert ins Antlitz"
INDEX 01 00:00:00
FILE "08 Die Schampulermaschine.wav" WAVE
TRACK 08 AUDIO
TITLE "Die Schampulermaschine"
PERFORMER "Zentriert ins Antlitz"
INDEX 01 00:00:00
FILE "09 Define Tracing.wav" WAVE
TRACK 09 AUDIO
TITLE "Define Tracing"
PERFORMER "Zentriert ins Antlitz"
INDEX 01 00:00:00
FILE "10 Motion Tracker.wav" WAVE
TRACK 10 AUDIO
TITLE "Motion Tracker"
PERFORMER "Zentriert ins Antlitz"
INDEX 01 00:00:00
FILE "11 Genozid (Bonus Track).wav" WAVE
TRACK 11 AUDIO
TITLE "Genozid (Bonus Track)"
PERFORMER "Zentriert ins Antlitz"
INDEX 01 00:00:00

Год выпуска: 2003
Продолжительность: 00:24:46
Треклист:

01. Ghosts (05:27)
02. Paranormal (05:43)
03. System Requirement (Dub Version) (04:09)
04. System Requirement (05:33)
05. Thermal Compound (03:54)

-----------------------

DON'T MODIFY THIS FILE

-----------------------

PERFORMER: auCDtect Task Manager, ver. 1.5.1RC6 build 1.5.1.7
Copyright (c) 2008-2010 y-soft. All rights reserved
http://y-soft.org

ANALYZER: auCDtect: CD records authenticity detector, version 0.8.2
Copyright (c) 2004 Oleg Berngardt. All rights reserved.
Copyright (c) 2004 Alexander Djourik. All rights reserved.

FILE: 05. Thermal Compound.flac
Size: 29338462 Hash: 0F2D56BD7655A532D804FB32C656FB04 Accuracy: -m0
Conclusion: CDDA 99%
Signature: 3891631E1FD9D412534BBC3CAE89D5AFF8A1A8A5
FILE: 04. System Requirement.flac
Size: 40343428 Hash: 7B2A15B6C39DBA70A97831570C654B33 Accuracy: -m0
Conclusion: MPEG 95%
Signature: 71831A13BB70BE5FD763067A99BFC6AB26949644
FILE: 03. System Requirement (Dub Version).flac
Size: 30679459 Hash: BD518DB484D9647B8C4C37805CB32EDF Accuracy: -m0
Conclusion: MPEG 95%
Signature: 61543FDC33A3E995D16E04FBD6704BD68C56D8FF
FILE: 02. Paranormal.flac
Size: 27540173 Hash: C544A21879BC878C3A2A5CD0686CBB79 Accuracy: -m0
Conclusion: MPEG 95%
Signature: C850A0A95A3A09C66388AB0DCF43C195638A8763
FILE: 01. Ghosts.flac
Size: 45142838 Hash: F2F974A0AABF9A63D24285B379822E3B Accuracy: -m0
Conclusion: MPEG 95%
Signature: 2649E567000C2C50C825FE90DAE7C101C007992C

Год выпуска: 2004
Продолжительность: 01:04:21
Треклист:

01. Ultra Violent Ultra Skilled (Club Mix) (04:47)
02. Chainreaction (Part I) (04:10)
03. Svarnetik (06:56)
04. Prophecy (Extended Club Mix) (05:13)
05. Microbial (Elektronendammerung Kapitel II) (09:40)
06. Third War (06:19)
07. Un Nouveau Debut (06:11)
08. Ultra Violent Ultra Skilled (06:00)
09. Emotion Dampening Tranquilizer (02:37)
10. Contact (09:15)
11. Gollum (03:13)

Exact Audio Copy V1.1 from 23. June 2015

EAC extraction logfile from 8. September 2015, 18:18

Zentriert ins Antlitz / Prozium

Used drive : ASUS DRW-24B1ST Adapter: 1 ID: 0

Read mode : Secure
Utilize accurate stream : Yes
Defeat audio cache : Yes
Make use of C2 pointers : No

Read offset correction : 6
Overread into Lead-In and Lead-Out : No
Fill up missing offset samples with silence : Yes
Delete leading and trailing silent blocks : No
Null samples used in CRC calculations : Yes
Used interface : Native Win32 interface for Win NT & 2000
Gap handling : Appended to previous track

Used output format : User Defined Encoder
Selected bitrate : 128 kBit/s
Quality : High
Add ID3 tag : No
Command line compressor : C:\Program Files (x86)\Exact Audio Copy\Flac\flac.exe
Additional command line options : -8 -V -T "ARTIST=%artist%" -T "TITLE=%title%" -T "ALBUM=%albumtitle%" -T "DATE=%year%" -T "TRACKNUMBER=%tracknr%" -T "GENRE=%genre%" %source%

TOC of the extracted CD

Track | Start | Length | Start sector | End sector
---------------------------------------------------------
1 | 0:00.00 | 4:47.04 | 0 | 21528
2 | 4:47.04 | 4:09.65 | 21529 | 40268
3 | 8:56.69 | 6:55.44 | 40269 | 71437
4 | 15:52.38 | 5:13.07 | 71438 | 94919
5 | 21:05.45 | 9:39.55 | 94920 | 138399
6 | 30:45.25 | 6:19.29 | 138400 | 166853
7 | 37:04.54 | 6:10.71 | 166854 | 194674
8 | 43:15.50 | 6:00.26 | 194675 | 221700
9 | 49:16.01 | 2:36.63 | 221701 | 233463
10 | 51:52.64 | 9:14.44 | 233464 | 275057
11 | 61:07.33 | 3:13.10 | 275058 | 289542

Track 1

Filename D:\EAC\01 ultra violent ultra skilled (club mix).wav

Pre-gap length 0:00:02.00

Peak level 98.8 %
Extraction speed 5.1 X
Track quality 100.0 %
Test CRC 6408569D
Copy CRC 6408569D
Accurately ripped (confidence 1) [AA47F8EA] (AR v2)
Copy OK

Track 2

Filename D:\EAC\02 chainreaction (part 1).wav

Peak level 88.1 %
Extraction speed 5.6 X
Track quality 100.0 %
Test CRC 2776CEB3
Copy CRC 2776CEB3
Accurately ripped (confidence 1) [AAED36B4] (AR v1)
Copy OK

Track 3

Filename D:\EAC\03 svarnetik.wav

Peak level 88.1 %
Extraction speed 6.3 X
Track quality 100.0 %
Test CRC 181D25D7
Copy CRC 181D25D7
Accurately ripped (confidence 1) [B3A2C4C7] (AR v2)
Copy OK

Track 4

Filename D:\EAC\04 prophecy (extended club mix).wav

Peak level 100.0 %
Extraction speed 7.0 X
Track quality 100.0 %
Test CRC E7981E1F
Copy CRC E7981E1F
Accurately ripped (confidence 1) [59548870] (AR v2)
Copy OK

Track 5

Filename D:\EAC\05 microbial (elektronendämmerung kapitel 2).wav

Peak level 98.8 %
Extraction speed 8.2 X
Track quality 100.0 %
Test CRC 77488777
Copy CRC 77488777
Accurately ripped (confidence 1) [9E4DF57A] (AR v2)
Copy OK

Track 6

Filename D:\EAC\06 third war.wav

Peak level 97.3 %
Extraction speed 8.6 X
Track quality 100.0 %
Test CRC 7415C086
Copy CRC 7415C086
Accurately ripped (confidence 1) [F99B0511] (AR v2)
Copy OK

Track 7

Filename D:\EAC\07 un nouveau debut.wav

Peak level 100.0 %
Extraction speed 9.1 X
Track quality 100.0 %
Test CRC FA2E931C
Copy CRC FA2E931C
Accurately ripped (confidence 1) [E9E0490D] (AR v2)
Copy OK

Track 8

Filename D:\EAC\08 ultra violent ultra skilled.wav

Peak level 88.1 %
Extraction speed 9.5 X
Track quality 100.0 %
Test CRC 44C6A015
Copy CRC 44C6A015
Accurately ripped (confidence 1) [AA53AAB0] (AR v2)
Copy OK

Track 9

Filename D:\EAC\09 emotion dampening tranquilizer.wav

Peak level 80.9 %
Extraction speed 8.7 X
Track quality 100.0 %
Test CRC 8D45A3D0
Copy CRC 8D45A3D0
Accurately ripped (confidence 1) [E1B31BD6] (AR v2)
Copy OK

Track 10

Filename D:\EAC\10 contact.wav

Peak level 96.6 %
Extraction speed 10.6 X
Track quality 100.0 %
Test CRC 65EC7ABC
Copy CRC 65EC7ABC
Accurately ripped (confidence 1) [D2178008] (AR v2)
Copy OK

Track 11

Filename D:\EAC\11 gollum.wav

Peak level 100.0 %
Extraction speed 9.7 X
Track quality 100.0 %
Test CRC 47E8FB34
Copy CRC 47E8FB34
Accurately ripped (confidence 1) [9D73EB31] (AR v2)
Copy OK

All tracks accurately ripped

No errors occurred

End of status report

==== Log checksum 8C186CB0E912CEBF7849ECDF234E1FC3E7BD1B42990D29F0892B699E60340C87 ====


REM GENRE Industrial
REM DATE 2004
REM DISCID B70F140B
REM COMMENT "ExactAudioCopy v1.1"
PERFORMER "Zentriert ins Antlitz"
TITLE "Prozium"
FILE "01 ultra violent ultra skilled (club mix).wav" WAVE
TRACK 01 AUDIO
TITLE "ultra violent ultra skilled (club mix)"
PERFORMER "Zentriert ins Antlitz"
INDEX 01 00:00:00
FILE "02 chainreaction (part 1).wav" WAVE
TRACK 02 AUDIO
TITLE "chainreaction (part 1)"
PERFORMER "Zentriert ins Antlitz"
INDEX 01 00:00:00
FILE "03 svarnetik.wav" WAVE
TRACK 03 AUDIO
TITLE "svarnetik"
PERFORMER "Zentriert ins Antlitz"
INDEX 01 00:00:00
FILE "04 prophecy (extended club mix).wav" WAVE
TRACK 04 AUDIO
TITLE "prophecy (extended club mix)"
PERFORMER "Zentriert ins Antlitz"
INDEX 01 00:00:00
FILE "05 microbial (elektronendammerung kapitel 2).wav" WAVE
TRACK 05 AUDIO
TITLE "microbial (elektronendammerung kapitel 2)"
PERFORMER "Zentriert ins Antlitz"
INDEX 01 00:00:00
FILE "06 third war.wav" WAVE
TRACK 06 AUDIO
TITLE "third war"
PERFORMER "Zentriert ins Antlitz"
INDEX 01 00:00:00
FILE "07 un nouveau debut.wav" WAVE
TRACK 07 AUDIO
TITLE "un nouveau debut"
PERFORMER "Zentriert ins Antlitz"
INDEX 01 00:00:00
FILE "08 ultra violent ultra skilled.wav" WAVE
TRACK 08 AUDIO
TITLE "ultra violent ultra skilled"
PERFORMER "Zentriert ins Antlitz"
INDEX 01 00:00:00
FILE "09 emotion dampening tranquilizer.wav" WAVE
TRACK 09 AUDIO
TITLE "emotion dampening tranquilizer"
PERFORMER "Zentriert ins Antlitz"
INDEX 01 00:00:00
FILE "10 contact.wav" WAVE
TRACK 10 AUDIO
TITLE "contact"
PERFORMER "Zentriert ins Antlitz"
INDEX 01 00:00:00
FILE "11 gollum.wav" WAVE
TRACK 11 AUDIO
TITLE "gollum"
PERFORMER "Zentriert ins Antlitz"
INDEX 01 00:00:00

Год выпуска: 2005
Продолжительность: 01:06:06
Треклист:

01. Come In (01:04)
02. Off[line] (04:20)
03. My Enemy Inside (01:43)
04. So Fucking Sick (04:22)
05. Flesh & Flowers (02:03)
06. Unconscious (05:06)
07. 6 Years (06:38)
08. Defense (Part 1) (04:39)
09. Deep Dawn Resonance (07:40)
10. 1000 Junkies (06:56)
11. Transmission (04:35)
12. Defense (Part 2) (06:11)
13. Mutilate (05:57)
14. Geschaeftsfrau (04:52)

Exact Audio Copy V1.1 from 23. June 2015

EAC extraction logfile from 29. September 2015, 22:07

Zentriert ins Antlitz / Mutilate

Used drive : ASUS DRW-24B1ST Adapter: 1 ID: 0

Read mode : Secure
Utilize accurate stream : Yes
Defeat audio cache : Yes
Make use of C2 pointers : No

Read offset correction : 6
Overread into Lead-In and Lead-Out : No
Fill up missing offset samples with silence : Yes
Delete leading and trailing silent blocks : No
Null samples used in CRC calculations : Yes
Used interface : Native Win32 interface for Win NT & 2000
Gap handling : Appended to previous track

Used output format : User Defined Encoder
Selected bitrate : 128 kBit/s
Quality : High
Add ID3 tag : No
Command line compressor : C:\Program Files (x86)\Exact Audio Copy\Flac\flac.exe
Additional command line options : -8 -V -T "ARTIST=%artist%" -T "TITLE=%title%" -T "ALBUM=%albumtitle%" -T "DATE=%year%" -T "TRACKNUMBER=%tracknr%" -T "GENRE=%genre%" %source%

TOC of the extracted CD

Track | Start | Length | Start sector | End sector
---------------------------------------------------------
1 | 0:00.00 | 1:03.42 | 0 | 4766
2 | 1:03.42 | 4:20.28 | 4767 | 24294
3 | 5:23.70 | 1:42.38 | 24295 | 31982
4 | 7:06.33 | 4:22.19 | 31983 | 51651
5 | 11:28.52 | 2:03.14 | 51652 | 60890
6 | 13:31.66 | 5:06.14 | 60891 | 83854
7 | 18:38.05 | 6:37.71 | 83855 | 113700
8 | 25:16.01 | 4:38.52 | 113701 | 134602
9 | 29:54.53 | 7:40.02 | 134603 | 169104
10 | 37:34.55 | 6:56.24 | 169105 | 200328
11 | 44:31.04 | 4:35.09 | 200329 | 220962
12 | 49:06.13 | 6:10.68 | 220963 | 248780
13 | 55:17.06 | 5:56.46 | 248781 | 275526
14 | 61:13.52 | 4:52.35 | 275527 | 297461

Track 1

Filename D:\EAC\01 Come In.wav

Pre-gap length 0:00:02.00

Peak level 99.4 %
Extraction speed 3.3 X
Track quality 100.0 %
Test CRC 8835B10B
Copy CRC 8835B10B
Accurately ripped (confidence 2) [CB5C6E7A] (AR v1)
Copy OK

Track 2

Filename D:\EAC\02 Off (Line).wav

Peak level 100.0 %
Extraction speed 5.0 X
Track quality 100.0 %
Test CRC D6D27189
Copy CRC D6D27189
Accurately ripped (confidence 2) [3FC12B84] (AR v1)
Copy OK

Track 3

Filename D:\EAC\03 My Enemy Inside.wav

Peak level 100.0 %
Extraction speed 4.4 X
Track quality 100.0 %
Test CRC 18442EA7
Copy CRC 18442EA7
Accurately ripped (confidence 2) [DA26AC2F] (AR v1)
Copy OK

Track 4

Filename D:\EAC\04 So Fucking Sick.wav

Peak level 100.0 %
Extraction speed 5.0 X
Track quality 99.9 %
Test CRC 8700E128
Copy CRC 8700E128
Accurately ripped (confidence 2) [58D40B83] (AR v1)
Copy OK

Track 5

Filename D:\EAC\05 Flesh & Flowers.wav

Peak level 100.0 %
Extraction speed 4.2 X
Track quality 99.9 %
Test CRC DC903CF1
Copy CRC DC903CF1
Accurately ripped (confidence 2) [2BA00D98] (AR v1)
Copy OK

Track 6

Filename D:\EAC\06 Unconscious.wav

Peak level 100.0 %
Extraction speed 6.3 X
Track quality 100.0 %
Test CRC AE749B5C
Copy CRC AE749B5C
Accurately ripped (confidence 2) [F580F6F5] (AR v1)
Copy OK

Track 7

Filename D:\EAC\07 6 Years.wav

Peak level 100.0 %
Extraction speed 7.0 X
Track quality 100.0 %
Test CRC 62F9527E
Copy CRC 62F9527E
Accurately ripped (confidence 2) [567CA12C] (AR v1)
Copy OK

Track 8

Filename D:\EAC\08 Defense (part 1).wav

Peak level 100.0 %
Extraction speed 7.2 X
Track quality 100.0 %
Test CRC 2E7B9FC0
Copy CRC 2E7B9FC0
Accurately ripped (confidence 2) [6925328E] (AR v1)
Copy OK

Track 9

Filename D:\EAC\09 Deep Dawn Resonance.wav

Peak level 100.0 %
Extraction speed 8.0 X
Track quality 100.0 %
Test CRC AED18FB2
Copy CRC AED18FB2
Accurately ripped (confidence 2) [EB0381EC] (AR v1)
Copy OK

Track 10

Filename D:\EAC\10 1000 Junkies.wav

Peak level 100.0 %
Extraction speed 7.8 X
Track quality 99.9 %
Test CRC B99C6D35
Copy CRC B99C6D35
Accurately ripped (confidence 2) [0A21162A] (AR v1)
Copy OK

Track 11

Filename D:\EAC\11 Transmission.wav

Peak level 100.0 %
Extraction speed 8.5 X
Track quality 100.0 %
Test CRC 9C0EA5EE
Copy CRC 9C0EA5EE
Accurately ripped (confidence 2) [8C745650] (AR v1)
Copy OK

Track 12

Filename D:\EAC\12 Defense (part 2).wav

Peak level 100.0 %
Extraction speed 9.2 X
Track quality 100.0 %
Test CRC 7A9AAF78
Copy CRC 7A9AAF78
Accurately ripped (confidence 2) [87E4D991] (AR v1)
Copy OK

Track 13

Filename D:\EAC\13 Mutilate.wav

Peak level 100.0 %
Extraction speed 9.5 X
Track quality 100.0 %
Test CRC F14AF6F7
Copy CRC F14AF6F7
Accurately ripped (confidence 2) [BB4A63D2] (AR v1)
Copy OK

Track 14

Filename D:\EAC\14 Geschäftsfrau.wav

Peak level 100.0 %
Extraction speed 9.6 X
Track quality 100.0 %
Test CRC 5BE5AE4B
Copy CRC 5BE5AE4B
Accurately ripped (confidence 2) [4EF5B0BD] (AR v1)
Copy OK

All tracks accurately ripped

No errors occurred

End of status report

==== Log checksum 44A52C600C73812B21B193777612B906256DAEDC592F41C5FD7F010E25404B03 ====


REM GENRE EBM/Industrial
REM DATE 2005
REM DISCID C70F7E0E
REM COMMENT "ExactAudioCopy v1.1"
PERFORMER "Zentriert ins Antlitz"
TITLE "Mutilate"
FILE "01 Come In.wav" WAVE
TRACK 01 AUDIO
TITLE "Come In"
PERFORMER "Zentriert ins Antlitz"
INDEX 01 00:00:00
FILE "02 Off (Line).wav" WAVE
TRACK 02 AUDIO
TITLE "Off (Line)"
PERFORMER "Zentriert ins Antlitz"
INDEX 01 00:00:00
FILE "03 My Enemy Inside.wav" WAVE
TRACK 03 AUDIO
TITLE "My Enemy Inside"
PERFORMER "Zentriert ins Antlitz"
INDEX 01 00:00:00
FILE "04 So Fucking Sick.wav" WAVE
TRACK 04 AUDIO
TITLE "So Fucking Sick"
PERFORMER "Zentriert ins Antlitz"
INDEX 01 00:00:00
FILE "05 Flesh & Flowers.wav" WAVE
TRACK 05 AUDIO
TITLE "Flesh & Flowers"
PERFORMER "Zentriert ins Antlitz"
INDEX 01 00:00:00
FILE "06 Unconscious.wav" WAVE
TRACK 06 AUDIO
TITLE "Unconscious"
PERFORMER "Zentriert ins Antlitz"
INDEX 01 00:00:00
FILE "07 6 Years.wav" WAVE
TRACK 07 AUDIO
TITLE "6 Years"
PERFORMER "Zentriert ins Antlitz"
INDEX 01 00:00:00
FILE "08 Defense (part 1).wav" WAVE
TRACK 08 AUDIO
TITLE "Defense (part 1)"
PERFORMER "Zentriert ins Antlitz"
INDEX 01 00:00:00
FILE "09 Deep Dawn Resonance.wav" WAVE
TRACK 09 AUDIO
TITLE "Deep Dawn Resonance"
PERFORMER "Zentriert ins Antlitz"
INDEX 01 00:00:00
FILE "10 1000 Junkies.wav" WAVE
TRACK 10 AUDIO
TITLE "1000 Junkies"
PERFORMER "Zentriert ins Antlitz"
INDEX 01 00:00:00
FILE "11 Transmission.wav" WAVE
TRACK 11 AUDIO
TITLE "Transmission"
PERFORMER "Zentriert ins Antlitz"
INDEX 01 00:00:00
FILE "12 Defense (part 2).wav" WAVE
TRACK 12 AUDIO
TITLE "Defense (part 2)"
PERFORMER "Zentriert ins Antlitz"
INDEX 01 00:00:00
FILE "13 Mutilate.wav" WAVE
TRACK 13 AUDIO
TITLE "Mutilate"
PERFORMER "Zentriert ins Antlitz"
INDEX 01 00:00:00
FILE "14 Geschaftsfrau.wav" WAVE
TRACK 14 AUDIO
TITLE "Geschaftsfrau"
PERFORMER "Zentriert ins Antlitz"
INDEX 01 00:00:00

Год выпуска: 2007
Продолжительность: 01:04:28
Треклист:

01. Der Zorn Des Lammes (04:40)
02. Sleeper (04:38)
03. Hotspot Tracing (05:12)
04. Dynamic Planet (04:52)
05. Unvollstandigkeit (04:33)
06. Fallen (02:52)
07. Jahr Fur Jahr (06:54)
08. Beyond The Reef (08:45)
09. Diametral (04:46)
10. Kollision (05:14)
11. Jericho (02:35)
12. Reprise (09:27)

-----------------------

DON'T MODIFY THIS FILE

-----------------------

PERFORMER: auCDtect Task Manager, ver. 1.5.1RC6 build 1.5.1.7
Copyright (c) 2008-2010 y-soft. All rights reserved
http://y-soft.org

ANALYZER: auCDtect: CD records authenticity detector, version 0.8.2
Copyright (c) 2004 Oleg Berngardt. All rights reserved.
Copyright (c) 2004 Alexander Djourik. All rights reserved.

FILE: 01. Der Zorn Des Lammes.flac
Size: 31228246 Hash: ACFE05B95CA6AEDCBFC4CFABB032F36C Accuracy: -m0
Conclusion: CDDA 100%
Signature: E82607C0ED4E4E6341DCC099548B7045651EB462
FILE: 12. Reprise.flac
Size: 68270125 Hash: F65169962743F30071A400330774E290 Accuracy: -m0
Conclusion: CDDA 99%
Signature: 71C95838DD09379BE791C4EF58993C35DF2D3623
FILE: 11. Jericho.flac
Size: 15115225 Hash: 945ABA8DDB820FD5FA0B3C358280AA09 Accuracy: -m0
Conclusion: CDDA 100%
Signature: 1BDD625F773B9309E7F28558C4F78B5AFD3FDA44
FILE: 10. Kollision.flac
Size: 34332276 Hash: 4EC5CCCCA998C97F6D66D7959FD8315D Accuracy: -m0
Conclusion: CDDA 100%
Signature: 728CF77043B29EBFB909F6FF5411A5A2AAE77DC6
FILE: 09. Diametral.flac
Size: 38398851 Hash: 3D37A63F5AF68B4E3380C2201F9DB0A8 Accuracy: -m0
Conclusion: CDDA 100%
Signature: D34C7176B5FE6B1A7C09B8D9CDEBE14006C73E81
FILE: 08. Beyond The Reef.flac
Size: 54877713 Hash: 802A03855908B76BBC014811F606E3A1 Accuracy: -m0
Conclusion: CDDA 100%
Signature: 42110536F7A178517B5615327172D53CEB9F5BEB
FILE: 07. Jahr Für Jahr.flac
Size: 50685719 Hash: 5EA17F8CD416FF2C6B1CA65C6133D111 Accuracy: -m0
Conclusion: CDDA 100%
Signature: 03C648EA8FCDA227CC2715A8BACF966F3B7BFAC2
FILE: 06. Fallen.flac
Size: 15282366 Hash: 46FE7CC8B6FC36062AF4CE4D81BACFBE Accuracy: -m0
Conclusion: CDDA 100%
Signature: 38AD27C686A6E73F9793E328A7A89E5FCFC16168
FILE: 05. Unvollständigkeit.flac
Size: 30695646 Hash: 6F1445FDE12738C6C1E56D9F9815AB18 Accuracy: -m0
Conclusion: CDDA 100%
Signature: 39BBF7D1ED0055BBD1A4F8CAF505C86B91536617
FILE: 04. Dynamic Planet.flac
Size: 34667216 Hash: 3C67873A58A7585935C409A98F7B8733 Accuracy: -m0
Conclusion: CDDA 100%
Signature: 051F16765B97B01F15267CEFDB6320EEC8B0DF42
FILE: 03. Hotspot Tracing.flac
Size: 35278870 Hash: DE287D99D624F08A5D2AC69584E5C164 Accuracy: -m0
Conclusion: CDDA 100%
Signature: A6A9260AF5E7BCEE4E6F26693EA76C7654862F84
FILE: 02. Sleeper.flac
Size: 31501480 Hash: 179E2FEBAEEAC4A0FBADA05928170B77 Accuracy: -m0
Conclusion: CDDA 100%
Signature: 73EA039468769DFAED764FE24414743E2082DD28

Год выпуска: 2007
Продолжительность: 00:06:39
Треклист:

01. Hotspot Tracing (Ambient Dub Mix) (06:39)

-----------------------

DON'T MODIFY THIS FILE

-----------------------

PERFORMER: auCDtect Task Manager, ver. 1.5.1RC6 build 1.5.1.7
Copyright (c) 2008-2010 y-soft. All rights reserved
http://y-soft.org

ANALYZER: auCDtect: CD records authenticity detector, version 0.8.2
Copyright (c) 2004 Oleg Berngardt. All rights reserved.
Copyright (c) 2004 Alexander Djourik. All rights reserved.

FILE: 01. Hotspot Tracing (Ambient Dub Mix).flac
Size: 42785052 Hash: B15F0492DD7044F9BB10D4B01D68E16C Accuracy: -m0
Conclusion: CDDA 100%
Signature: E264888FB4B0AD112FF5ABA472E598FBA1C05B5F

Год выпуска: 2008
Продолжительность: 01:11:59+00:38:36+00:44:44
Треклист:

CD1
01. Phreneticus (05:27)
02. Today (04:45)
03. Where Their Dreams Live (07:23)
04. Silence Diary (05:51)
05. The Animals Hanging (01:27)
06. 24th Dimension (07:36)
07. Cant Get Me (05:45)
08. Manage My Sensibility (09:32)
09. Shamisen Jangle (05:01)
10. Perphenazin (06:30)
11. ...No (04:30)
12. The Final Walk (08:12)

CD2 7dreams
01. Where Their Dreams Live (Afterworld Mix By Integral) (06:06)
02. Where Their Dreams Live (Remixed By Access To Arasaka) (05:20)
03. Where Their Dreams Live (Remixed By Stendeck) (04:44)
04. Where Their Dreams Live (Remixed By Subheim) (05:11)
05. Where Their Dreams Live (Sheer Athmo Mix) (05:00)
06. Where Their Dreams Live (Small Space Mix By Lucidstatic) (05:00)
07. Where Their Dreams Live (Where Their Dreams Die Mix By Totakeke) (07:15)

CD3 Remixed & Bonus
01. Cant Get Me (Re-Dub) (05:18)
02. Ewiniar (05:55)
03. Jericho (CityState Mix By Unterm Rad) (03:55)
04. Perphenazin (Remixed By Disharmony) (06:28)
05. Perphenazin (Remixed By Pandora's Black Book) (04:42)
06. Silence Diary (Empty Pages Mix By Autoclav 1.1) (06:04)
07. Silence Diary (Remixed By Access To Arasaka) (04:53)
08. Weekend (07:29)

Exact Audio Copy V0.99 prebeta 4 from 23. January 2008

EAC extraction logfile from 12. June 2009, 9:06

Zentriert ins Antlitz / ...No

Used drive : SATA TSSTcorpCDDVDW S Adapter: 4 ID: 0

Read mode : Secure
Utilize accurate stream : Yes
Defeat audio cache : Yes
Make use of C2 pointers : No

Read offset correction : 6
Overread into Lead-In and Lead-Out : No
Fill up missing offset samples with silence : Yes
Delete leading and trailing silent blocks : No
Null samples used in CRC calculations : Yes
Used interface : Native Win32 interface for Win NT & 2000
Gap handling : Appended to previous track

Used output format : User Defined Encoder
Selected bitrate : 128 kBit/s
Quality : High
Add ID3 tag : No
Command line compressor : C:\Program Files\Exact Audio Copy\Flac\flac.exe
Additional command line options : -V -8 -T "artist=%a" -T "title=%t" -T "album=%g" -T "date=%y" -T "tracknumber=%n" -T "genre=%m" %s

TOC of the extracted CD

Track | Start | Length | Start sector | End sector
---------------------------------------------------------
1 | 0:02.00 | 5:27.18 | 150 | 24692
2 | 5:29.18 | 4:45.07 | 24693 | 46074
3 | 10:14.25 | 7:22.56 | 46075 | 79280
4 | 17:37.06 | 5:50.60 | 79281 | 105590
5 | 23:27.66 | 1:26.40 | 105591 | 112080
6 | 24:54.31 | 7:35.70 | 112081 | 146275
7 | 32:30.26 | 5:45.25 | 146276 | 172175
8 | 38:15.51 | 9:32.17 | 172176 | 215092
9 | 47:47.68 | 5:00.56 | 215093 | 237648
10 | 52:48.49 | 6:29.71 | 237649 | 266894
11 | 59:18.45 | 4:30.30 | 266895 | 287174
12 | 63:49.00 | 8:12.17 | 287175 | 324091

Track 1

Filename Z:\music\z\Zentriert ins Antlitz\2008 ...No [FLAC]\01 - Phreneticus.wav

Pre-gap length 0:00:04.00

Peak level 97.8 %
Track quality 100.0 %
Test CRC 28017C8F
Copy CRC 28017C8F
Accurately ripped (confidence 1) [4BC49E24]
Copy OK

Track 2

Filename Z:\music\z\Zentriert ins Antlitz\2008 ...No [FLAC]\02 - Today.wav

Peak level 97.7 %
Track quality 100.0 %
Test CRC B1778082
Copy CRC B1778082
Accurately ripped (confidence 1) [129A6C8C]
Copy OK

Track 3

Filename Z:\music\z\Zentriert ins Antlitz\2008 ...No [FLAC]\03 - Where Their Dreams Live.wav

Peak level 97.7 %
Track quality 100.0 %
Test CRC EAEEEC45
Copy CRC EAEEEC45
Accurately ripped (confidence 1) [CA61C963]
Copy OK

Track 4

Filename Z:\music\z\Zentriert ins Antlitz\2008 ...No [FLAC]\04 - Silence Diary.wav

Peak level 97.7 %
Track quality 100.0 %
Test CRC B9FEB333
Copy CRC B9FEB333
Accurately ripped (confidence 1) [459DCE73]
Copy OK

Track 5

Filename Z:\music\z\Zentriert ins Antlitz\2008 ...No [FLAC]\05 - The Animals Hanging.wav

Peak level 97.7 %
Track quality 100.0 %
Test CRC B4578E86
Copy CRC B4578E86
Accurately ripped (confidence 1) [4403C718]
Copy OK

Track 6

Filename Z:\music\z\Zentriert ins Antlitz\2008 ...No [FLAC]\06 - 24th Dimension.wav

Peak level 97.7 %
Track quality 99.9 %
Test CRC E4CD1CA3
Copy CRC E4CD1CA3
Accurately ripped (confidence 1) [1F5AE41B]
Copy OK

Track 7

Filename Z:\music\z\Zentriert ins Antlitz\2008 ...No [FLAC]\07 - Cant Get Me.wav

Peak level 97.7 %
Track quality 99.9 %
Test CRC DE368EFF
Copy CRC DE368EFF
Accurately ripped (confidence 1) [12D89EF7]
Copy OK

Track 8

Filename Z:\music\z\Zentriert ins Antlitz\2008 ...No [FLAC]\08 - Manage My Sensibility.wav

Peak level 97.8 %
Track quality 100.0 %
Test CRC B96DB7D7
Copy CRC B96DB7D7
Accurately ripped (confidence 1) [0729A7EC]
Copy OK

Track 9

Filename Z:\music\z\Zentriert ins Antlitz\2008 ...No [FLAC]\09 - Shamisen Jangle.wav

Peak level 97.8 %
Track quality 100.0 %
Test CRC 0FF8B84E
Copy CRC 0FF8B84E
Accurately ripped (confidence 1) [A746E73E]
Copy OK

Track 10

Filename Z:\music\z\Zentriert ins Antlitz\2008 ...No [FLAC]\10 - Perphenazin.wav

Peak level 97.7 %
Track quality 100.0 %
Test CRC 95E92C49
Copy CRC 95E92C49
Accurately ripped (confidence 1) [EF1EDD41]
Copy OK

Track 11

Filename Z:\music\z\Zentriert ins Antlitz\2008 ...No [FLAC]\11 - ...No.wav

Peak level 97.7 %
Track quality 100.0 %
Test CRC 47D31D42
Copy CRC 47D31D42
Accurately ripped (confidence 1) [A6438D5C]
Copy OK

Track 12

Filename Z:\music\z\Zentriert ins Antlitz\2008 ...No [FLAC]\12 - The Final Walk.wav

Peak level 98.8 %
Track quality 100.0 %
Test CRC FDC5C39B
Copy CRC FDC5C39B
Accurately ripped (confidence 1) [5B6F4545]
Copy OK

All tracks accurately ripped

No errors occurred

End of status report


REM GENRE Electronic
REM DATE 2008
PERFORMER "Zentriert Ins Antlitz"
TITLE "...No"
REM REPLAYGAIN_ALBUM_GAIN -7.54 dB
REM REPLAYGAIN_ALBUM_PEAK 0.988770
FILE "01. Phreneticus.flac" WAVE
TRACK 01 AUDIO
TITLE "Phreneticus"
REM REPLAYGAIN_TRACK_GAIN -5.84 dB
REM REPLAYGAIN_TRACK_PEAK 0.977997
INDEX 01 00:00:00
FILE "02. Today.flac" WAVE
TRACK 02 AUDIO
TITLE "Today"
REM REPLAYGAIN_TRACK_GAIN -8.77 dB
REM REPLAYGAIN_TRACK_PEAK 0.977905
INDEX 01 00:00:00
FILE "03. Where Their Dreams Live.flac" WAVE
TRACK 03 AUDIO
TITLE "Where Their Dreams Live"
REM REPLAYGAIN_TRACK_GAIN -6.29 dB
REM REPLAYGAIN_TRACK_PEAK 0.977539
INDEX 01 00:00:00
FILE "04. Silence Diary.flac" WAVE
TRACK 04 AUDIO
TITLE "Silence Diary"
REM REPLAYGAIN_TRACK_GAIN -5.60 dB
REM REPLAYGAIN_TRACK_PEAK 0.977539
INDEX 01 00:00:00
FILE "05. The Animals Hanging.flac" WAVE
TRACK 05 AUDIO
TITLE "The Animals Hanging"
REM REPLAYGAIN_TRACK_GAIN -5.89 dB
REM REPLAYGAIN_TRACK_PEAK 0.977539
INDEX 01 00:00:00
FILE "06. 24th Dimension.flac" WAVE
TRACK 06 AUDIO
TITLE "24th Dimension"
REM REPLAYGAIN_TRACK_GAIN -6.31 dB
REM REPLAYGAIN_TRACK_PEAK 0.977539
INDEX 01 00:00:00
FILE "07. Cant Get Me.flac" WAVE
TRACK 07 AUDIO
TITLE "Cant Get Me"
REM REPLAYGAIN_TRACK_GAIN -8.47 dB
REM REPLAYGAIN_TRACK_PEAK 0.977783
INDEX 01 00:00:00
FILE "08. Manage My Sensibility.flac" WAVE
TRACK 08 AUDIO
TITLE "Manage My Sensibility"
REM REPLAYGAIN_TRACK_GAIN -7.04 dB
REM REPLAYGAIN_TRACK_PEAK 0.977997
INDEX 01 00:00:00
FILE "09. Shamisen Jangle.flac" WAVE
TRACK 09 AUDIO
TITLE "Shamisen Jangle"
REM REPLAYGAIN_TRACK_GAIN -5.88 dB
REM REPLAYGAIN_TRACK_PEAK 0.977997
INDEX 01 00:00:00
FILE "10. Perphenazin.flac" WAVE
TRACK 10 AUDIO
TITLE "Perphenazin"
REM REPLAYGAIN_TRACK_GAIN -6.65 dB
REM REPLAYGAIN_TRACK_PEAK 0.977539
INDEX 01 00:00:00
FILE "11. ...No.flac" WAVE
TRACK 11 AUDIO
TITLE "...No"
REM REPLAYGAIN_TRACK_GAIN -7.16 dB
REM REPLAYGAIN_TRACK_PEAK 0.977875
INDEX 01 00:00:00
FILE "12. The Final Walk.flac" WAVE
TRACK 12 AUDIO
TITLE "The Final Walk"
REM REPLAYGAIN_TRACK_GAIN -8.55 dB
REM REPLAYGAIN_TRACK_PEAK 0.988770
INDEX 01 00:00:00


-----------------------

DON'T MODIFY THIS FILE

-----------------------

PERFORMER: auCDtect Task Manager, ver. 1.5.1RC6 build 1.5.1.7
Copyright (c) 2008-2010 y-soft. All rights reserved
http://y-soft.org

ANALYZER: auCDtect: CD records authenticity detector, version 0.8.2
Copyright (c) 2004 Oleg Berngardt. All rights reserved.
Copyright (c) 2004 Alexander Djourik. All rights reserved.

FILE: 01. Where Their Dreams Live (Where Their Dreams Die Mix By Totakeke).flac
Size: 49236033 Hash: 7D79F426D34418ED9B1C87C287E59AFB Accuracy: -m0
Conclusion: MPEG 95%
Signature: 8327DC0E48A12CA41BC26CF9EA9D6CDC8FD3F1D0
FILE: 01. Where Their Dreams Live (Small Space Mix By Lucidstatic).flac
Size: 33068020 Hash: 8D86490E6A1723D863A9292E500E5096 Accuracy: -m0
Conclusion: MPEG 95%
Signature: DD54BA0D181EEBD8B811F669C917777FAC0E642E
FILE: 01. Where Their Dreams Live (Sheer Athmo Mix).flac
Size: 31410259 Hash: CF1B3325DE2A8D940663786A4BC43DC4 Accuracy: -m0
Conclusion: MPEG 95%
Signature: CAFE06C35FD18FFBB97BD01BAE076EF2DFE14C68
FILE: 01. Where Their Dreams Live (Remixed By Subheim).flac
Size: 40673290 Hash: A9F2D22453533E2EF50DF7E59BE45277 Accuracy: -m0
Conclusion: CDDA 100%
Signature: 00294FAD23240BAB029596E32217316FFADD8318
FILE: 01. Where Their Dreams Live (Remixed By Stendeck).flac
Size: 33632407 Hash: BD0C0E15AD979FF2D69A16800979C4BE Accuracy: -m0
Conclusion: MPEG 95%
Signature: D61D97DA9BC431ACC8A9895E36245B48FD79CBB2
FILE: 01. Where Their Dreams Live (Remixed By Access To Arasaka).flac
Size: 30587344 Hash: 31D48209A278643435087A7CA782E009 Accuracy: -m0
Conclusion: MPEG 95%
Signature: 63FC0712BF88D60E4BA0FF58779D198104DF8984
FILE: 01. Where Their Dreams Live (Afterworld Mix By Integral).flac
Size: 38656865 Hash: 80DEB0FC2513D03AE17710BF387F84E2 Accuracy: -m0
Conclusion: MPEG 95%
Signature: 0CF92DFFD431758E4BFABBB2F42ECF183104F40F
-------------------------------------------------------------------------------------------

-----------------------

DON'T MODIFY THIS FILE

-----------------------

PERFORMER: auCDtect Task Manager, ver. 1.5.1RC6 build 1.5.1.7
Copyright (c) 2008-2010 y-soft. All rights reserved
http://y-soft.org

ANALYZER: auCDtect: CD records authenticity detector, version 0.8.2
Copyright (c) 2004 Oleg Berngardt. All rights reserved.
Copyright (c) 2004 Alexander Djourik. All rights reserved.

FILE: 02. Weekend.flac
Size: 53197834 Hash: 5BB2211119CF9923C2A8BA3AF3593D00 Accuracy: -m0
Conclusion: MPEG 95%
Signature: 3E4380A787AFF03356B5D3CD4E41D7AE1030B884
FILE: 02. Silence Diary (Remixed By Access To Arasaka).flac
Size: 26929991 Hash: FF3C813E233314F54A6B980E3F7803DD Accuracy: -m0
Conclusion: MPEG 95%
Signature: 76B1717720E13301ACE7A6E77649EFCF1B8DC601
FILE: 02. Silence Diary (Empty Pages Mix By Autoclav 1.1).flac
Size: 36926461 Hash: B0B38FB3DE382B3140F11C868760973B Accuracy: -m0
Conclusion: MPEG 95%
Signature: 3934E561071E1E466D119C58B77E36DDF39D3EE2
FILE: 02. Perphenazin (Remixed By Pandora's Black Book).flac
Size: 34655902 Hash: BB62BAEBAD39F1479E6D64F6AD370AE8 Accuracy: -m0
Conclusion: MPEG 95%
Signature: E3E6A0B5782B90483573F9E0A12148878A6E32CA
FILE: 02. Perphenazin (Remixed By Disharmony).flac
Size: 40532956 Hash: 3C3C1CE3E588D199FA9B342CA9A3FF3E Accuracy: -m0
Conclusion: MPEG 95%
Signature: E54760FCE5D354FA1A67D8519E034A387D04142B
FILE: 02. Jericho (CityState Mix By Unterm Rad).flac
Size: 23992701 Hash: 51061A5C702BD641D5BEA5AE34CACB3C Accuracy: -m0
Conclusion: MPEG 95%
Signature: 4979BF6CE3F49DBB82C779A1603AF9FF15C234ED
FILE: 02. Ewiniar.flac
Size: 35564352 Hash: 81F3B0BA9704F56AC77413BD2AEE27F8 Accuracy: -m0
Conclusion: MPEG 95%
Signature: 2623C4016DDE6E4F90648D70197A2D41F1E1920D
FILE: 02. Cant Get Me (Re-Dub).flac
Size: 38363485 Hash: 005E454734BCA6F0148D9339BB28DC7C Accuracy: -m0
Conclusion: MPEG 95%
Signature: 7765180F3BE6BD67C12B51A08EEE53CE6425279C

Год выпуска: 2013
Продолжительность: 00:14:03
Треклист:

01. Equinoxes (05:10)
02. The Bare Thought Remains Gloomy (08:53)

-----------------------

DON'T MODIFY THIS FILE

-----------------------

PERFORMER: auCDtect Task Manager, ver. 1.5.1RC6 build 1.5.1.7
Copyright (c) 2008-2010 y-soft. All rights reserved
http://y-soft.org

ANALYZER: auCDtect: CD records authenticity detector, version 0.8.2
Copyright (c) 2004 Oleg Berngardt. All rights reserved.
Copyright (c) 2004 Alexander Djourik. All rights reserved.

FILE: 02. The Bare Thought Remains Gloomy.flac
Size: 59112502 Hash: 701BDE04A0C6BB160D7161898BCA74B1 Accuracy: -m0
Conclusion: CDDA 100%
Signature: 9BC02F152D254F3C28258A315DA99B77F4A03CFE
FILE: 01. Equinoxes.flac
Size: 34924498 Hash: 638004EFD0B2FCB7A020D6C88E06D5A7 Accuracy: -m0
Conclusion: CDDA 100%
Signature: 41127DB84545E30773C237FC77C2D5FE221C05ED

Год выпуска: 2005
Продолжительность: 00:30:22
Треклист:

01. Feathered Spray (04:11)
02. Rising Phoenix (06:43)
03. Dropping Science (09:24)
04. Seaside Shells (07:58)
05. Nautica (02:06)

-----------------------

DON'T MODIFY THIS FILE

-----------------------

PERFORMER: auCDtect Task Manager, ver. 1.5.1RC6 build 1.5.1.7
Copyright (c) 2008-2010 y-soft. All rights reserved
http://y-soft.org

ANALYZER: auCDtect: CD records authenticity detector, version 0.8.2
Copyright (c) 2004 Oleg Berngardt. All rights reserved.
Copyright (c) 2004 Alexander Djourik. All rights reserved.

FILE: 05. Nautica.flac
Size: 10595709 Hash: B452F53A2A1632AD0B7467B314574A17 Accuracy: -m0
Conclusion: MPEG 89%
Signature: 6968B3346B4E466BEEE3C25BD5B3D0923A71FEC9
FILE: 04. Seaside Shells.flac
Size: 43243441 Hash: 759130B47BBD8248A2E14B61419FA431 Accuracy: -m0
Conclusion: CDDA 100%
Signature: 70F0851E98B23D6F4445809BB55CAB79262DE66E
FILE: 03. Dropping Science.flac
Size: 57662787 Hash: 6A909A8AAA4D4C90C39AE14B2585D62D Accuracy: -m0
Conclusion: CDDA 100%
Signature: F4AE544E7BF1A3D51708311B995EC66710AD2AF5
FILE: 02. Rising Phoenix.flac
Size: 38479017 Hash: 099A8E84C3CA906DE68B3ACD2C5D7396 Accuracy: -m0
Conclusion: CDDA 100%
Signature: 50E4A4CAB609CEA9917916B95D5EE6DEFA072C4F
FILE: 01. Feathered Spray.flac
Size: 24392465 Hash: 902C36A7348EE7307CB686115A51C065 Accuracy: -m0
Conclusion: CDDA 100%
Signature: 4B90CEFBBC8CBDF9145AFF70AB9CFF10CD4E0E0A

Год выпуска: 2007
Продолжительность: 00:42:10
Треклист:

01. Silicon Worlds (05:37)
02. Re-Entry (05:54)
03. Tristes Grau (05:34)
04. Subluminal (06:54)
05. Hesychasmus (07:43)
06. Voltron (04:03)
07. Neptunes Realm (06:25)

-----------------------

DON'T MODIFY THIS FILE

-----------------------

PERFORMER: auCDtect Task Manager, ver. 1.5.1RC6 build 1.5.1.7
Copyright (c) 2008-2010 y-soft. All rights reserved
http://y-soft.org

ANALYZER: auCDtect: CD records authenticity detector, version 0.8.2
Copyright (c) 2004 Oleg Berngardt. All rights reserved.
Copyright (c) 2004 Alexander Djourik. All rights reserved.

FILE: 07. Neptunes Realm.flac
Size: 40259393 Hash: 0D66FD4CD8D67F46D73C932DE4A07F4B Accuracy: -m0
Conclusion: CDDA 100%
Signature: F510DB258557F8E4898A0CB6112714646499B036
FILE: 06. Voltron.flac
Size: 23434217 Hash: B936280488A7B158A8589354413164B6 Accuracy: -m0
Conclusion: CDDA 100%
Signature: D53242EBC6A1B6914DABE1E2C6DBBACEF9476FEA
FILE: 05. Hesychasmus.flac
Size: 51743171 Hash: 4DA3D44664BE6AE63A41C48DD150DEA7 Accuracy: -m0
Conclusion: CDDA 100%
Signature: 27BAD663E6A072DACA86AB35637D2E2F5AC3F738
FILE: 04. Subluminal.flac
Size: 48773086 Hash: A7DB8929A04B7EBC9E2E2CA07E0E7249 Accuracy: -m0
Conclusion: CDDA 100%
Signature: DA9DBEC62272583989735473AE319AF2F4097E44
FILE: 03. Tristes Grau.flac
Size: 37025413 Hash: 1737A8778735B9CF13713878D99598A6 Accuracy: -m0
Conclusion: CDDA 100%
Signature: ADE0EA3385DE09F0F09502D59984E7011CB608DA
FILE: 02. Re-Entry.flac
Size: 38353202 Hash: 8BA75CDAF6797A7D242FCCABB7B08B66 Accuracy: -m0
Conclusion: CDDA 100%
Signature: 4211DEDE9F51E58971C0962F42725B8993BF6834
FILE: 01. Silicon Worlds.flac
Size: 41593956 Hash: CF1689B856055C6A7FE3C7BF188F9023 Accuracy: -m0
Conclusion: CDDA 99%
Signature: 80C1B8BD4531F1E40891A1C853FD81C45AB40F64

Год выпуска: 2013
Продолжительность: 01:12:32
Треклист:

01. Seaside Shells (07:58)
02. Rising Phoenix (06:43)
03. Dropping Science (09:24)
04. Voltron (04:03)
05. Neptunes Realm (06:25)
06. Feathered Spray (04:11)
07. Subluminal (06:54)
08. Re-Entry (05:54)
09. Nautica (02:06)
10. Hesychasmus (07:43)
11. Silicon Worlds (05:37)
12. Tristes Grau (05:34)

-----------------------

DON'T MODIFY THIS FILE

-----------------------

PERFORMER: auCDtect Task Manager, ver. 1.5.1RC6 build 1.5.1.7
Copyright (c) 2008-2010 y-soft. All rights reserved
http://y-soft.org

ANALYZER: auCDtect: CD records authenticity detector, version 0.8.2
Copyright (c) 2004 Oleg Berngardt. All rights reserved.
Copyright (c) 2004 Alexander Djourik. All rights reserved.

FILE: 12. Tristes Grau.flac
Size: 38312053 Hash: 464F401F46BD0FF741E5AAEFDE9BCFE4 Accuracy: -m0
Conclusion: CDDA 100%
Signature: 172FFC08FC9E87D75EA1BF2F18792DFC274DF09F
FILE: 11. Silicon Worlds.flac
Size: 42068254 Hash: 67B5D01B053F6F31EEC1BB6F6D71E31D Accuracy: -m0
Conclusion: CDDA 100%
Signature: D05BD107C9292903D1EA5B7CD487A1B3396CACCA
FILE: 10. Hesychasmus.flac
Size: 53647073 Hash: D44E761A7132828FDA1913EEE9F731D4 Accuracy: -m0
Conclusion: CDDA 100%
Signature: 61C11876B83D12FA66BA91C1D824CB059CBA1916
FILE: 09. Nautica.flac
Size: 11532165 Hash: 7E25746E516A1CAADB9383F07349B354 Accuracy: -m0
Conclusion: CDDA 100%
Signature: 13125B064011B4FB5F2369FEEC3BF7C80F44BD4C
FILE: 08. Re-Entry.flac
Size: 39788819 Hash: A5905054C5BAEA7CC8F70F21A41FAA51 Accuracy: -m0
Conclusion: CDDA 100%
Signature: 8B77FEE23A85DE03A0018921763B1E763D11B8B9
FILE: 07. Subluminal.flac
Size: 50134868 Hash: 5D83F9AFF21F3DB9C648AAA0EC076705 Accuracy: -m0
Conclusion: CDDA 99%
Signature: 4533255EC2654D758FE871881C3606C72499B1C5
FILE: 06. Feathered Spray.flac
Size: 26340295 Hash: 9380CA3B66EFCE4724C34F60B39DC0EA Accuracy: -m0
Conclusion: CDDA 100%
Signature: CEC702902D7C4D61107B89A0710120140054983B
FILE: 05. Neptunes Realm.flac
Size: 41763162 Hash: E382DBE6F00606D82814B71EE5E3A1FF Accuracy: -m0
Conclusion: CDDA 100%
Signature: 4C0C5871718AFA79EA6D415567DED80F8D9361B8
FILE: 04. Voltron.flac
Size: 24306272 Hash: B2E9733AED4411E35366F0DF1CC17955 Accuracy: -m0
Conclusion: CDDA 100%
Signature: 154DAF544A91F2C65E3358C5498FD465F55DCC66
FILE: 03. Dropping Science.flac
Size: 61993477 Hash: 448CF81578878A42E161648FDA6BB09C Accuracy: -m0
Conclusion: CDDA 100%
Signature: 70F56EF5DB5C0A2A19D6F5AD5DFAE34B68419700
FILE: 02. Rising Phoenix.flac
Size: 41363668 Hash: 0EED7F496BE7C7D9224465776C1B4D53 Accuracy: -m0
Conclusion: CDDA 100%
Signature: EAD546EB5093D1E532C2514AE63DF3E78C8EAA3B
FILE: 01. Seaside Shells.flac
Size: 47050913 Hash: 572223E12EC17D716FC9C99E7A05BEC4 Accuracy: -m0
Conclusion: CDDA 99%
Signature: 3294FB8FF3044DA5392802CD0CF16DF537B1CDAF

Год выпуска: 2008
Продолжительность: 01:02:34
Треклист:

01. Galaxy (Intro) (03:06)
02. Starstuff (07:19)
03. Singularity (05:18)
04. Conopholis (04:51)
05. Detected (10:55)
06. Genuflect (09:14)
07. Effusion (Part I) (11:18)
08. Drifting (10:33)

-----------------------

DON'T MODIFY THIS FILE

-----------------------

PERFORMER: auCDtect Task Manager, ver. 1.5.1RC6 build 1.5.1.7
Copyright (c) 2008-2010 y-soft. All rights reserved
http://y-soft.org

ANALYZER: auCDtect: CD records authenticity detector, version 0.8.2
Copyright (c) 2004 Oleg Berngardt. All rights reserved.
Copyright (c) 2004 Alexander Djourik. All rights reserved.

FILE: 02. Starstuff.flac
Size: 44392437 Hash: F9280A752D707C11E5C6A6A40C3C5B63 Accuracy: -m0
Conclusion: CDDA 100%
Signature: 089433B03FFD24B7C74F4701E42B65905A1C5299
FILE: 01. Galaxy (Intro).flac
Size: 15770007 Hash: 624BB0612735185F7077E4E91A88E008 Accuracy: -m0
Conclusion: CDDA 100%
Signature: 7C9CFFF5635C452EC81AE9775A87F1E94ABE9EA7
FILE: 08. Drifting.flac
Size: 61323259 Hash: D9D6CE06F38AABD7C59A6C087538CDF5 Accuracy: -m0
Conclusion: CDDA 100%
Signature: 4ED923784FFE446E39F742621832F4E940AFDB80
FILE: 07. Effusion (Part I).flac
Size: 54670721 Hash: 0CA0587CEFD70146A0440A43464BC772 Accuracy: -m0
Conclusion: CDDA 100%
Signature: ABA8FCE7E43CDFEA6F1E4740C4988ABAE9F09077
FILE: 06. Genuflect.flac
Size: 57199967 Hash: DCC6A423A207294FCFA576D3FF3A23E5 Accuracy: -m0
Conclusion: CDDA 100%
Signature: F83C40EE8FCD4646AC9FE9149F6C65B7EFE3FB36
FILE: 05. Detected.flac
Size: 69260399 Hash: 40408D0BB4E9C93D8FFDECFF265E08C5 Accuracy: -m0
Conclusion: CDDA 100%
Signature: 7B41F8D17674F591D0285D92759B227FB2882783
FILE: 04. Conopholis.flac
Size: 31790476 Hash: C4816401871356DF24E6C3B1292C6AF2 Accuracy: -m0
Conclusion: CDDA 100%
Signature: 8EFA124702A8ACAEEA54158BF51305C9E68B9BA7
FILE: 03. Singularity.flac
Size: 33036006 Hash: BC1C267F362D6DAC0F79941441C9DA3B Accuracy: -m0
Conclusion: CDDA 100%
Signature: 9CD6966C8A71C7BEA0C6CD814D9A2840D95C87F1

Год выпуска: 2013
Продолжительность: 01:17:15
Треклист:

01. Re-Dreamer (05:42)
02. Sunlights Falling (07:38)
03. Tearswitcher (04:16)
04. The Teaser (03:13)
05. Occupy (06:28)
06. The Routing (04:55)
07. The Drain (06:26)
08. Not For Ever (07:49)
09. A Space Contact Opera (15:17)
10. Pasiphae (12:28)
11. Zheng (03:03)

-----------------------

DON'T MODIFY THIS FILE

-----------------------

PERFORMER: auCDtect Task Manager, ver. 1.5.1RC6 build 1.5.1.7
Copyright (c) 2008-2010 y-soft. All rights reserved
http://y-soft.org

ANALYZER: auCDtect: CD records authenticity detector, version 0.8.2
Copyright (c) 2004 Oleg Berngardt. All rights reserved.
Copyright (c) 2004 Alexander Djourik. All rights reserved.

FILE: 01. Re-Dreamer.flac
Size: 32157545 Hash: 1DE74AB8F5D24F7C13740590FD33FD0A Accuracy: -m0
Conclusion: CDDA 100%
Signature: B50C6F0368E6E3DADDCCC5C24EAD6F3D0FC3F95F
FILE: 11. Zheng.flac
Size: 16910121 Hash: 345A2B8419A14DF19375A8536ADA1F55 Accuracy: -m0
Conclusion: CDDA 100%
Signature: 67D567C5A1569B26C9DFCB88B2124EDBA95509F8
FILE: 10. Pasiphae.flac
Size: 58985444 Hash: A3217B357A47FD99F4780D573B1156F7 Accuracy: -m0
Conclusion: CDDA 100%
Signature: 48A6D9FC42C978C8D513A8104623E1FDFFBDD31B
FILE: 09. A Space Contact Opera.flac
Size: 105756603 Hash: 2E1D6699950ECDA012688F24319FAC68 Accuracy: -m0
Conclusion: CDDA 100%
Signature: CD59DF7BBA17B1853B5E1FDDC98E4BD3FF606DCA
FILE: 08. Not For Ever.flac
Size: 51902819 Hash: E2CC19FCE9BC0B4B5D88BD2A910CC006 Accuracy: -m0
Conclusion: CDDA 100%
Signature: 5FA0BE3F5221DD8FA41461B573AFF5DD245CF925
FILE: 07. The Drain.flac
Size: 33446103 Hash: 22634FD45E787943EAF521EDF98FF75A Accuracy: -m0
Conclusion: CDDA 100%
Signature: 1B96EA4D3F6E58FC4B8EBE7CCAACAF565105E532
FILE: 06. The Routing.flac
Size: 29671219 Hash: 4C19379E57973E4E0BCA2F6A6B831AA2 Accuracy: -m0
Conclusion: CDDA 100%
Signature: 08E53C7BFDEE9140CC7C319A67222479110B79AF
FILE: 05. Occupy.flac
Size: 39163382 Hash: FA550BCE62D6A7943682C5B080D40422 Accuracy: -m0
Conclusion: CDDA 100%
Signature: 7CD5FDE15CB4E70A28BA7592805A345C2472E9AA
FILE: 04. The Teaser.flac
Size: 19007729 Hash: F8242417A8C744E4214EEAD56FBF82A1 Accuracy: -m0
Conclusion: CDDA 99%
Signature: 8782E265D9B7F4E1C7014A5E00C6F29931DC186E
FILE: 03. Tearswitcher.flac
Size: 20149560 Hash: 071FAC2556CEFBA456F73E77102DAA38 Accuracy: -m0
Conclusion: CDDA 92%
Signature: 5853EE59F4234C15F6B7158A920BD1F74389D31E
FILE: 02. Sunlights Falling.flac
Size: 40571527 Hash: 4FA6605FAAA03C33E98104C5D3A7A4A4 Accuracy: -m0
Conclusion: CDDA 42%
Signature: 12592DEA1E8DFFFBEBDDB570E6B409121E753D9D

Время раздачи: 12/7
[NNMClub.to]_ZiA FLAC.torrent
 Торрент:   Зарегистрирован
 
Примагнититься

Зарегистрируйтесь и скачайте торрент!
42,8 KB
 Зарегистрирован:   27 Сен 2016 04:28:47
 Размер:   4,56 GB  (
 Рейтинг:    (Голосов: 4)
 Поблагодарили:   28
 Проверка:   Оформление проверено модератором 27 Сен 2016 04:30:20
Как cкачать  ·  Как раздать  ·  Правильно оформить  ·  Поднять ратио!  
Показать сообщения:   
Начать новую тему   Ответить на тему    Торрент-трекер NNM-Club -> Electronic -> Experimental, Industrial, EBM, Dark Electro (Lossless) Часовой пояс: GMT + 3
Страница 1 из 1