Интеллигентный торрент-трекер
canvas not supported
Нас вместе: 4 194 675

Джоши / Joshy (2016) BDRemux [H.264/1080p] [EN / EN, Sp Sub]


 
 
RSS
Начать новую тему   Ответить на тему    Торрент-трекер NNM-Club -> Зарубежное кино -> Фильмы в оригинале (HD)
Автор Сообщение
smaster67 ®
Модератор Видео
Покровитель талантов Uploader 300+
Стаж: 7 лет 6 мес.
Сообщений: 6391
Ratio: 186,478
Поблагодарили: 180078
100%
Джоши / Joshy (2016) BDRemux [H.264/1080p] [EN / EN, Sp Sub]

Производство: США
Жанр: комедия

Режиссер: Джефф Бэйна
Актеры: Томас Миддлдитч, Адам Палли, Алекс Росс Перри, Ник Кролл, Бретт Гельман, Дженни Слейт, Лорен Грэм, Обри Плаза, Джо Сванберг, Крис Сванберг, Элисон Бри, Пол Вайц

Описание:
Джош не хочет упустить отличную возможность воссоединиться со старыми друзьями на своем мальчишнике, который он решает устроить даже несмотря на отменившуюся свадьбу.



Продолжительность: 01:33:13
Качество видео: BDRemux
Перевод: Отсутствует
Язык озвучки: Английский
Язык субтитров: английский, испанский
Вид субтитров: Вшитые

Видео: AVC, 1920x1080 (16:9), 24977 kbps, 23,976 fps, 0,502 bpp
Аудио №1: английский / DTS-HD / 5.1 / 48 kHz / 3279 kbps / 24 bit (Core: 5.1 / 48 kHz / 1509 kbps / 24 bit)
Аудио №2: английский / AC3 / 2.0 / 48 kHz / 192 kbps /
Код:
General
Unique ID                                Joshy.2016.BluRay.1080p.DTS-HD.MA.5.1.AVC.REMUX-FraMeSToR\Joshy.2016.BluRay.1080p.DTS-HD.MA.5.1.AVC.REMUX-FraMeSToR.mkv
Format                                   : Matroska
Format version                           : Version 4 / Version 2
File size                                : 18.6 GiB
Duration                                 : 1 h 33 min
Overall bit rate mode                    : Variable
Overall bit rate                         : 28.6 Mb/s
Movie name                               : Joshy
Encoded date                             : UTC 2016-09-26 08:43:16
Writing application                      : mkvmerge v9.4.2 ('So High') 64bit
Writing library                          : libebml v1.3.4 + libmatroska v1.4.5

Video
ID                                       : 1
Format                                   : AVC
Format/Info                              : Advanced Video Codec
Format profile                           : High@L4.1
Format settings, CABAC                   : Yes
Format settings, ReFrames                : 4 frames
Codec ID                                 : V_MPEG4/ISO/AVC
Duration                                 : 1 h 33 min
Bit rate mode                            : Variable
Bit rate                                 : 25.0 Mb/s
Maximum bit rate                         : 37.0 Mb/s
Width                                    : 1 920 pixels
Height                                   : 1 080 pixels
Display aspect ratio                     : 16:9
Frame rate mode                          : Constant
Frame rate                               : 23.976 (24000/1001) FPS
Color space                              : YUV
Chroma subsampling                       : 4:2:0
Bit depth                                : 8 bits
Scan type                                : Progressive
Bits/(Pixel*Frame)                       : 0.502
Stream size                              : 16.3 GiB (87%)
Default                                  : Yes
Forced                                   : No

Audio #1
ID                                       : 2
Format                                   : DTS
Format/Info                              : Digital Theater Systems
Format profile                           : MA / Core
Mode                                     : 16
Format settings, Endianness              : Big
Codec ID                                 : A_DTS
Duration                                 : 1 h 33 min
Bit rate mode                            : Variable / Constant
Bit rate                                 : 3 279 kb/s / 1 509 kb/s
Channel(s)                               : 6 channels
Channel positions                        : Front: L C R, Side: L R, LFE
Sampling rate                            : 48.0 kHz
Frame rate                               : 93.750 FPS (512 spf)
Bit depth                                : 24 bits
Compression mode                         : Lossless / Lossy
Stream size                              : 2.13 GiB (11%)
Title                                    : DTS-HD MA 5.1
Language                                 : English
Default                                  : Yes
Forced                                   : No

Audio #2
ID                                       : 3
Format                                   : AC-3
Format/Info                              : Audio Coding 3
Mode extension                           : CM (complete main)
Format settings, Endianness              : Big
Codec ID                                 : A_AC3
Duration                                 : 1 h 33 min
Bit rate mode                            : Constant
Bit rate                                 : 192 kb/s
Channel(s)                               : 2 channels
Channel positions                        : Front: L R
Sampling rate                            : 48.0 kHz
Frame rate                               : 31.250 FPS (1536 spf)
Compression mode                         : Lossy
Stream size                              : 128 MiB (1%)
Title                                    : Commentary by Jeff Baena/Adam Pally/Thomas Middleditch
Language                                 : English
Default                                  : No
Forced                                   : No

Text #1
ID                                       : 4
Format                                   : PGS
Codec ID                                 : S_HDMV/PGS
Codec ID/Info                            : Picture based subtitle format used on BDs/HD-DVDs
Duration                                 : 1 h 27 min
Bit rate                                 : 64.9 kb/s
Count of elements                        : 3658
Stream size                              : 40.4 MiB (0%)
Title                                    : English
Language                                 : English
Default                                  : Yes
Forced                                   : No

Text #2
ID                                       : 5
Format                                   : PGS
Codec ID                                 : S_HDMV/PGS
Codec ID/Info                            : Picture based subtitle format used on BDs/HD-DVDs
Duration                                 : 1 h 32 min
Bit rate                                 : 65.9 kb/s
Count of elements                        : 3932
Stream size                              : 43.5 MiB (0%)
Title                                    : English (SDH)
Language                                 : English
Default                                  : No
Forced                                   : No

Text #3
ID                                       : 6
Format                                   : PGS
Codec ID                                 : S_HDMV/PGS
Codec ID/Info                            : Picture based subtitle format used on BDs/HD-DVDs
Duration                                 : 1 h 27 min
Bit rate                                 : 54.5 kb/s
Count of elements                        : 3734
Stream size                              : 34.0 MiB (0%)
Title                                    : Spanish (Latin American)
Language                                 : Spanish
Default                                  : No
Forced                                   : No

Menu
00:00:00.000                             : en:Chapter 1
00:04:08.164                             : en:Chapter 2
00:11:17.635                             : en:Chapter 3
00:17:53.489                             : en:Chapter 4
00:23:27.322                             : en:Chapter 5
00:27:21.431                             : en:Chapter 6
00:36:23.472                             : en:Chapter 7
00:41:29.612                             : en:Chapter 8
00:46:38.212                             : en:Chapter 9
00:51:41.431                             : en:Chapter 10
00:57:26.276                             : en:Chapter 11
01:04:14.016                             : en:Chapter 12
01:10:42.446                             : en:Chapter 13
01:15:59.221                             : en:Chapter 14
01:19:57.459                             : en:Chapter 15
01:25:58.278                             : en:Chapter 16

Скриншоты:



Время раздачи: с 13:00 до 23:00
[NNMClub.to]_Joshy.2016.BluRay.1080p.DTS-HD.MA.5.1.AVC.REMUX-FraMeSToR.mkv.torrent
 Торрент: Золотая раздача  Зарегистрирован
 
Примагнититься
Free Leech
Зарегистрируйтесь и скачайте торрент!
93,4 KB
 Зарегистрирован:   27 Сен 2016 07:32:55
 Размер:   18,6 GB  (
 Рейтинг:    (Голосов: 2)
 Поблагодарили:   29
 Проверка:   Оформление проверено модератором 27 Сен 2016 07:33:37
Как cкачать  ·  Как раздать  ·  Правильно оформить  ·  Поднять ратио!  
beatlesman
Стаж: 6 лет 2 мес.
Сообщений: 40
Ratio: 9,624
0.11%
забавно, есть фильм с этим же чуваком, и тоже про его свадьбу...
Показать сообщения:   
Начать новую тему   Ответить на тему    Торрент-трекер NNM-Club -> Зарубежное кино -> Фильмы в оригинале (HD) Часовой пояс: GMT + 3
Страница 1 из 1