Интеллигентный торрент-трекер
canvas not supported
Нас вместе: 4 310 640

hyDrone - Discography 4 Releases (2010-2014) [FLAC|Lossless|tracks+.cue] <Industrial, Ambient, Rhythmic Noise, Dark Ambient>


 
 
RSS
Начать новую тему   Ответить на тему    Торрент-трекер NNM-Club -> Electronic -> Experimental, Industrial, EBM, Dark Electro (Lossless)
Автор Сообщение
vilator ®
Модератор Музыки
RG Music
 
Стаж: 7 лет 11 мес.
Сообщений: 5696
Ratio: 126,412
Поблагодарили: 111966
100%
Откуда: Minsk
pirates.png
hyDrone Discography

hyDrone project ( born in 2008 ) created by Panos K. (Παναγιώτης Κουρέτας) who is living in Athens / Greece . This project is moving between dark ambient combined with industrialized drones and experimental music using sounds that are created and executed by hyDrone mostly on hardware equipment . His first album " Material " released in 2010 on the legendary Fich - Art record label was immediately received very well both by audience and critics . In 2011 hyDrone releases his second album " Confusion " on Le Petit Machiniste record Label . At the same year a Self Titled E.p is also released again on Le Petit Machiniste record Label . In 2012 the first hyDrone 7" vinyl was born titled " regeneration " at the russian label SEALT . It was printed on a clear vinyl , housed in a unique wooden gear case with laser engravings at a limited cutting number of 80 copies . Till now hyDrone maintains his experimental " non popular " musical orientation.
Год: 2010-2014 • Жанр: Industrial, Ambient, Rhythmic Noise, Dark Ambient • Страна: Greece • Источник: What
Кодек: FLAC • Битрейт: Lossless • Тип рипа: tracks+.cue • Продолжительность: 03:24:23
Треклист:
Год выпуска: 2010
Продолжительность: 00:53:36
Треклист:

01. Transmitted In Distance (04:51)
02. Modulator, The Isolator (05:48)
03. Oscillator, The Violator (10:48)
04. Transmission Ended (04:53)
05. Untitled (00:10)
06. Longing For Trust (06:58)
07. Lust Factor (04:04)
08. Dressed Wounds (06:31)
09. Untitled (00:10)
10. Transmitted In Distance (Imminent Remix) (04:39)
11. Modulator, The Isolator (Last Days Of S.E.X. Remix) (04:44)
Код:

Exact Audio Copy V1.0 beta 3 from 29. August 2011

EAC extraction logfile from 20. July 2014, 23:23

hyDrone / Material

Used drive  : TSSTcorpCDDVDW SH-222BB   Adapter: 1  ID: 0

Read mode               : Secure
Utilize accurate stream : Yes
Defeat audio cache      : Yes
Make use of C2 pointers : No

Read offset correction                      : 6
Overread into Lead-In and Lead-Out          : No
Fill up missing offset samples with silence : Yes
Delete leading and trailing silent blocks   : No
Null samples used in CRC calculations       : Yes
Used interface                              : Native Win32 interface for Win NT & 2000
Gap handling                                : Appended to previous track

Used output format              : User Defined Encoder
Selected bitrate                : 1024 kBit/s
Quality                         : High
Add ID3 tag                     : No
Command line compressor         : C:\Program Files (x86)\Exact Audio Copy\FLAC\FLAC.EXE
Additional command line options : -8 -V -T "ARTIST=%artist%" -T "TITLE=%title%" -T "ALBUM=%albumtitle%" -T "DATE=%year%" -T "TRACKNUMBER=%tracknr%" -T "GENRE=%genre%" -T "PERFORMER=%albuminterpret%" -T "COMPOSER=%composer%" %haslyrics%--tag-from-file=LYRICS="%lyricsfile%"%haslyrics% -T "ALBUMARTIST=%albumartist%" -T "DISCNUMBER=%cdnumber%" -T "TOTALDISCS=%totalcds%" -T "TOTALTRACKS=%numtracks%" -T "COMMENT=%comment%" %source% -o %dest%

TOC of the extracted CD

     Track |   Start  |  Length  | Start sector | End sector
    ---------------------------------------------------------
        1  |  0:00.00 |  4:50.73 |         0    |    21822
        2  |  4:50.73 |  5:47.53 |     21823    |    47900
        3  | 10:38.51 | 10:47.38 |     47901    |    96463
        4  | 21:26.14 |  4:52.68 |     96464    |   118431
        5  | 26:19.07 |  0:10.00 |    118432    |   119181
        6  | 26:29.07 |  6:58.00 |    119182    |   150531
        7  | 33:27.07 |  4:04.00 |    150532    |   168831
        8  | 37:31.07 |  6:31.21 |    168832    |   198177
        9  | 44:02.28 |  0:10.00 |    198178    |   198927
       10  | 44:12.28 |  4:39.12 |    198928    |   219864
       11  | 48:51.40 |  4:43.52 |    219865    |   241141
       12  | 56:07.17 |  2:13.06 |    252542    |   262522

Track  1

     Filename D:\rip\hyDrone - 2010 - Material [cd_flac]\01 - Transmitted In Distance.wav

     Pre-gap length  0:00:02.00

     Peak level 96.6 %
     Extraction speed 5.1 X
     Track quality 100.0 %
     Test CRC D28857A5
     Copy CRC D28857A5
     Accurately ripped (confidence 1)  [0A092832]  (AR v1)
     Copy OK

Track  2

     Filename D:\rip\hyDrone - 2010 - Material [cd_flac]\02 - Modulator, The Isolator.wav

     Peak level 96.6 %
     Extraction speed 5.7 X
     Track quality 100.0 %
     Test CRC 3A8D2C90
     Copy CRC 3A8D2C90
     Accurately ripped (confidence 1)  [5A94D69B]  (AR v1)
     Copy OK

Track  3

     Filename D:\rip\hyDrone - 2010 - Material [cd_flac]\03 - Oscillator, The Violator.wav

     Peak level 96.6 %
     Extraction speed 6.9 X
     Track quality 100.0 %
     Test CRC F0721A37
     Copy CRC F0721A37
     Accurately ripped (confidence 1)  [91AA8405]  (AR v1)
     Copy OK

Track  4

     Filename D:\rip\hyDrone - 2010 - Material [cd_flac]\04 - Transmission Ended.wav

     Peak level 96.6 %
     Extraction speed 7.1 X
     Track quality 100.0 %
     Test CRC F3C1F58B
     Copy CRC F3C1F58B
     Accurately ripped (confidence 1)  [4B9B6012]  (AR v1)
     Copy OK

Track  5

     Filename D:\rip\hyDrone - 2010 - Material [cd_flac]\05 - Untitled.wav

     Peak level 0.0 %
     Extraction speed 1.6 X
     Track quality 100.0 %
     Test CRC E7887563
     Copy CRC E7887563
     Track not present in AccurateRip database
     Copy OK

Track  6

     Filename D:\rip\hyDrone - 2010 - Material [cd_flac]\06 - Longing For Trust.wav

     Peak level 96.6 %
     Extraction speed 6.8 X
     Track quality 99.9 %
     Test CRC 932DC115
     Copy CRC 932DC115
     Accurately ripped (confidence 1)  [CF002989]  (AR v1)
     Copy OK

Track  7

     Filename D:\rip\hyDrone - 2010 - Material [cd_flac]\07 - Lust Factor.wav

     Peak level 96.6 %
     Extraction speed 6.1 X
     Track quality 99.9 %
     Test CRC B4ACC7B6
     Copy CRC B4ACC7B6
     Accurately ripped (confidence 1)  [8E7746EC]  (AR v1)
     Copy OK

Track  8

     Filename D:\rip\hyDrone - 2010 - Material [cd_flac]\08 - Dressed Wounds.wav

     Peak level 96.2 %
     Extraction speed 8.5 X
     Track quality 100.0 %
     Test CRC 5A6B7E96
     Copy CRC 5A6B7E96
     Accurately ripped (confidence 1)  [90D1C676]  (AR v1)
     Copy OK

Track  9

     Filename D:\rip\hyDrone - 2010 - Material [cd_flac]\09 - Untitled.wav

     Peak level 0.0 %
     Extraction speed 1.8 X
     Track quality 100.0 %
     Test CRC E7887563
     Copy CRC E7887563
     Track not present in AccurateRip database
     Copy OK

Track 10

     Filename D:\rip\hyDrone - 2010 - Material [cd_flac]\10 - Transmitted In Distance (Imminent Remix).wav

     Peak level 96.6 %
     Extraction speed 8.6 X
     Track quality 100.0 %
     Test CRC 3E93AD63
     Copy CRC 3E93AD63
     Accurately ripped (confidence 1)  [7FC8A34E]  (AR v1)
     Copy OK

Track 11

     Filename D:\rip\hyDrone - 2010 - Material [cd_flac]\11 - Modulator, The Isolator (Last Days Of S.E.X. Remix).wav

     Peak level 100.0 %
     Extraction speed 8.8 X
     Track quality 100.0 %
     Test CRC F07A8658
     Copy CRC F07A8658
     Accurately ripped (confidence 1)  [791919AB]  (AR v1)
     Copy OK

 9 track(s) accurately ripped
 2 track(s) not present in the AccurateRip database

Some tracks could not be verified as accurate

No errors occurred

End of status report

==== Log checksum DCF726247DCB3E5D9FFD9B39EBD6FFB0A9340C8199CD37D3BEDC2C216758C65C ====

 
Код:

REM GENRE Industrial
REM DATE 2010
REM DISCID A90DAC0C
REM COMMENT "ExactAudioCopy v1.0b3"
PERFORMER "hyDrone"
TITLE "Material"
FILE "01 - Transmitted In Distance.wav" WAVE
  TRACK 01 AUDIO
    TITLE "Transmitted In Distance"
    PERFORMER "hyDrone"
    INDEX 01 00:00:00
FILE "02 - Modulator, The Isolator.wav" WAVE
  TRACK 02 AUDIO
    TITLE "Modulator, The Isolator"
    PERFORMER "hyDrone"
    INDEX 01 00:00:00
FILE "03 - Oscillator, The Violator.wav" WAVE
  TRACK 03 AUDIO
    TITLE "Oscillator, The Violator"
    PERFORMER "hyDrone"
    INDEX 01 00:00:00
FILE "04 - Transmission Ended.wav" WAVE
  TRACK 04 AUDIO
    TITLE "Transmission Ended"
    PERFORMER "hyDrone"
    INDEX 01 00:00:00
FILE "05 - Untitled.wav" WAVE
  TRACK 05 AUDIO
    TITLE "Untitled"
    PERFORMER "hyDrone"
    INDEX 01 00:00:00
FILE "06 - Longing For Trust.wav" WAVE
  TRACK 06 AUDIO
    TITLE "Longing For Trust"
    PERFORMER "hyDrone"
    INDEX 01 00:00:00
FILE "07 - Lust Factor.wav" WAVE
  TRACK 07 AUDIO
    TITLE "Lust Factor"
    PERFORMER "hyDrone"
    INDEX 01 00:00:00
FILE "08 - Dressed Wounds.wav" WAVE
  TRACK 08 AUDIO
    TITLE "Dressed Wounds"
    PERFORMER "hyDrone"
    INDEX 01 00:00:00
FILE "09 - Untitled.wav" WAVE
  TRACK 09 AUDIO
    TITLE "Untitled"
    PERFORMER "hyDrone"
    INDEX 01 00:00:00
FILE "10 - Transmitted In Distance (Imminent Remix).wav" WAVE
  TRACK 10 AUDIO
    TITLE "Transmitted In Distance (Imminent Remix)"
    PERFORMER "hyDrone"
    INDEX 01 00:00:00
FILE "11 - Modulator, The Isolator (Last Days Of S.E.X. Remix).wav" WAVE
  TRACK 11 AUDIO
    TITLE "Modulator, The Isolator (Last Days Of S.E.X. Remix)"
    PERFORMER "hyDrone"
    INDEX 01 00:00:00
  TRACK 12 MODEx/2xxx
    TITLE "Transmitted In Distance (Xsoz Remix)"
    PERFORMER "hyDrone"
    INDEX 00 04:43:52

 
Год выпуска: 2011
Продолжительность: 01:05:52
Треклист:

01. Intro - Spective (Rotations Delayed) (04:58)
02. Unable To... (04:28)
03. ...Rest (05:17)
04. Disorientation Emerge (04:29)
05. Mentation (04:59)
06. Confusion (06:21)
07. That Minimum (03:21)
08. Sober (04:35)
09. Managing Anxiety (Confusion Remains) (10:07)
10. Dementia (That Little Gap) (00:10)
11. Confusion (Asche Remix) (05:28)
12. Unable To... (100blumen Remix) (04:11)
13. Managing Anxiety (Ahnst Anders Remix) (07:28)
Код:

Exact Audio Copy V1.0 beta 3 from 29. August 2011

EAC extraction logfile from 21. July 2014, 10:36

hyDrone / Confusion

Used drive  : TSSTcorpCDDVDW SH-222BB   Adapter: 1  ID: 0

Read mode               : Secure
Utilize accurate stream : Yes
Defeat audio cache      : Yes
Make use of C2 pointers : No

Read offset correction                      : 6
Overread into Lead-In and Lead-Out          : No
Fill up missing offset samples with silence : Yes
Delete leading and trailing silent blocks   : No
Null samples used in CRC calculations       : Yes
Used interface                              : Native Win32 interface for Win NT & 2000
Gap handling                                : Appended to previous track

Used output format              : User Defined Encoder
Selected bitrate                : 1024 kBit/s
Quality                         : High
Add ID3 tag                     : No
Command line compressor         : C:\Program Files (x86)\Exact Audio Copy\FLAC\FLAC.EXE
Additional command line options : -8 -V -T "ARTIST=%artist%" -T "TITLE=%title%" -T "ALBUM=%albumtitle%" -T "DATE=%year%" -T "TRACKNUMBER=%tracknr%" -T "GENRE=%genre%" -T "PERFORMER=%albuminterpret%" -T "COMPOSER=%composer%" %haslyrics%--tag-from-file=LYRICS="%lyricsfile%"%haslyrics% -T "ALBUMARTIST=%albumartist%" -T "DISCNUMBER=%cdnumber%" -T "TOTALDISCS=%totalcds%" -T "TOTALTRACKS=%numtracks%" -T "COMMENT=%comment%" %source% -o %dest%

TOC of the extracted CD

     Track |   Start  |  Length  | Start sector | End sector
    ---------------------------------------------------------
        1  |  0:00.00 |  4:58.00 |         0    |    22349
        2  |  4:58.00 |  4:27.70 |     22350    |    42444
        3  |  9:25.70 |  5:16.50 |     42445    |    66194
        4  | 14:42.45 |  4:28.50 |     66195    |    86344
        5  | 19:11.20 |  4:58.55 |     86345    |   108749
        6  | 24:10.00 |  6:21.00 |    108750    |   137324
        7  | 30:31.00 |  3:21.25 |    137325    |   152424
        8  | 33:52.25 |  4:35.15 |    152425    |   173064
        9  | 38:27.40 | 10:06.56 |    173065    |   218570
       10  | 48:34.21 |  0:10.00 |    218571    |   219320
       11  | 48:44.21 |  5:28.29 |    219321    |   243949
       12  | 54:12.50 |  4:10.73 |    243950    |   262772
       13  | 58:23.48 |  7:28.00 |    262773    |   296372

Track  1

     Filename D:\rip\hyDrone - 2011 - Confusion [cd_flac]\01 - Intro - Spective (Rotations Delayed).wav

     Pre-gap length  0:00:02.00

     Peak level 99.4 %
     Extraction speed 5.1 X
     Track quality 100.0 %
     Test CRC CED475C9
     Copy CRC CED475C9
     Accurately ripped (confidence 1)  [567E7D78]  (AR v1)
     Copy OK

Track  2

     Filename D:\rip\hyDrone - 2011 - Confusion [cd_flac]\02 - Unable To....wav

     Peak level 99.4 %
     Extraction speed 4.5 X
     Track quality 99.9 %
     Test CRC E0858AA9
     Copy CRC E0858AA9
     Accurately ripped (confidence 1)  [D11F4175]  (AR v1)
     Copy OK

Track  3

     Filename D:\rip\hyDrone - 2011 - Confusion [cd_flac]\03 - ...Rest.wav

     Peak level 99.4 %
     Extraction speed 6.1 X
     Track quality 100.0 %
     Test CRC 5D03BFA7
     Copy CRC 5D03BFA7
     Accurately ripped (confidence 1)  [49ED766D]  (AR v1)
     Copy OK

Track  4

     Filename D:\rip\hyDrone - 2011 - Confusion [cd_flac]\04 - Disorientation Emerge.wav

     Peak level 99.4 %
     Extraction speed 6.4 X
     Track quality 100.0 %
     Test CRC 8DE04FE3
     Copy CRC 8DE04FE3
     Accurately ripped (confidence 1)  [BB2D8041]  (AR v1)
     Copy OK

Track  5

     Filename D:\rip\hyDrone - 2011 - Confusion [cd_flac]\05 - Mentation.wav

     Peak level 99.4 %
     Extraction speed 6.9 X
     Track quality 100.0 %
     Test CRC AC364BAB
     Copy CRC AC364BAB
     Accurately ripped (confidence 1)  [8E6A2435]  (AR v1)
     Copy OK

Track  6

     Filename D:\rip\hyDrone - 2011 - Confusion [cd_flac]\06 - Confusion.wav

     Peak level 100.0 %
     Extraction speed 7.5 X
     Track quality 100.0 %
     Test CRC 1BCA59EC
     Copy CRC 1BCA59EC
     Accurately ripped (confidence 1)  [B0B2AAC1]  (AR v1)
     Copy OK

Track  7

     Filename D:\rip\hyDrone - 2011 - Confusion [cd_flac]\07 - That Minimum.wav

     Peak level 99.4 %
     Extraction speed 7.2 X
     Track quality 100.0 %
     Test CRC CC182FDB
     Copy CRC CC182FDB
     Accurately ripped (confidence 1)  [62882B43]  (AR v1)
     Copy OK

Track  8

     Filename D:\rip\hyDrone - 2011 - Confusion [cd_flac]\08 - Sober.wav

     Peak level 99.4 %
     Extraction speed 6.4 X
     Track quality 99.9 %
     Test CRC 9AD08FC1
     Copy CRC 9AD08FC1
     Accurately ripped (confidence 1)  [C126115A]  (AR v1)
     Copy OK

Track  9

     Filename D:\rip\hyDrone - 2011 - Confusion [cd_flac]\09 - Managing Anxiety (Confusion Remains).wav

     Peak level 99.4 %
     Extraction speed 9.0 X
     Track quality 100.0 %
     Test CRC 6FF46D95
     Copy CRC 6FF46D95
     Accurately ripped (confidence 1)  [4A4D95F7]  (AR v1)
     Copy OK

Track 10

     Filename D:\rip\hyDrone - 2011 - Confusion [cd_flac]\10 - Dementia (That Little Gap).wav

     Peak level 0.0 %
     Extraction speed 1.9 X
     Track quality 100.0 %
     Test CRC 27A391C4
     Copy CRC 27A391C4
     Track not present in AccurateRip database
     Copy OK

Track 11

     Filename D:\rip\hyDrone - 2011 - Confusion [cd_flac]\11 - Confusion (Asche Remix).wav

     Peak level 99.4 %
     Extraction speed 9.0 X
     Track quality 100.0 %
     Test CRC BD4462D5
     Copy CRC BD4462D5
     Accurately ripped (confidence 1)  [6E41263B]  (AR v1)
     Copy OK

Track 12

     Filename D:\rip\hyDrone - 2011 - Confusion [cd_flac]\12 - Unable To... (100blumen Remix).wav

     Peak level 97.7 %
     Extraction speed 7.1 X
     Track quality 99.9 %
     Test CRC 86E5FDCC
     Copy CRC 86E5FDCC
     Accurately ripped (confidence 1)  [3B3F6CF0]  (AR v1)
     Copy OK

Track 13

     Filename D:\rip\hyDrone - 2011 - Confusion [cd_flac]\13 - Managing Anxiety (Ahnst Anders Remix).wav

     Peak level 99.4 %
     Extraction speed 9.8 X
     Track quality 100.0 %
     Test CRC 8032737F
     Copy CRC 8032737F
     Accurately ripped (confidence 1)  [019E2C6E]  (AR v1)
     Copy OK

12 track(s) accurately ripped
 1 track(s) not present in the AccurateRip database

Some tracks could not be verified as accurate

No errors occurred

End of status report

==== Log checksum F0BEFE73AE989088DE60D28FBDF963614A9EDC8A0589A1E2C4AD3AA48A8749F9 ====

 
Код:

REM GENRE Industrial
REM DATE 2011
REM DISCID A70F6F0D
REM COMMENT "ExactAudioCopy v1.0b3"
PERFORMER "hyDrone"
TITLE "Confusion"
FILE "01 - Intro - Spective (Rotations Delayed).wav" WAVE
  TRACK 01 AUDIO
    TITLE "Intro - Spective (Rotations Delayed)"
    PERFORMER "hyDrone"
    INDEX 01 00:00:00
FILE "02 - Unable To....wav" WAVE
  TRACK 02 AUDIO
    TITLE "Unable To..."
    PERFORMER "hyDrone"
    INDEX 01 00:00:00
FILE "03 - ...Rest.wav" WAVE
  TRACK 03 AUDIO
    TITLE "...Rest"
    PERFORMER "hyDrone"
    INDEX 01 00:00:00
FILE "04 - Disorientation Emerge.wav" WAVE
  TRACK 04 AUDIO
    TITLE "Disorientation Emerge"
    PERFORMER "hyDrone"
    INDEX 01 00:00:00
FILE "05 - Mentation.wav" WAVE
  TRACK 05 AUDIO
    TITLE "Mentation"
    PERFORMER "hyDrone"
    INDEX 01 00:00:00
FILE "06 - Confusion.wav" WAVE
  TRACK 06 AUDIO
    TITLE "Confusion"
    PERFORMER "hyDrone"
    INDEX 01 00:00:00
FILE "07 - That Minimum.wav" WAVE
  TRACK 07 AUDIO
    TITLE "That Minimum"
    PERFORMER "hyDrone"
    INDEX 01 00:00:00
FILE "08 - Sober.wav" WAVE
  TRACK 08 AUDIO
    TITLE "Sober"
    PERFORMER "hyDrone"
    INDEX 01 00:00:00
FILE "09 - Managing Anxiety (Confusion Remains).wav" WAVE
  TRACK 09 AUDIO
    TITLE "Managing Anxiety (Confusion Remains)"
    PERFORMER "hyDrone"
    INDEX 01 00:00:00
FILE "10 - Dementia (That Little Gap).wav" WAVE
  TRACK 10 AUDIO
    TITLE "Dementia (That Little Gap)"
    PERFORMER "hyDrone"
    INDEX 01 00:00:00
FILE "11 - Confusion (Asche Remix).wav" WAVE
  TRACK 11 AUDIO
    TITLE "Confusion (Asche Remix)"
    PERFORMER "hyDrone"
    INDEX 01 00:00:00
FILE "12 - Unable To... (100blumen Remix).wav" WAVE
  TRACK 12 AUDIO
    TITLE "Unable To... (100blumen Remix)"
    PERFORMER "hyDrone"
    INDEX 01 00:00:00
FILE "13 - Managing Anxiety (Ahnst Anders Remix).wav" WAVE
  TRACK 13 AUDIO
    TITLE "Managing Anxiety (Ahnst Anders Remix)"
    PERFORMER "hyDrone"
    INDEX 01 00:00:00

 
Год выпуска: 2011
Продолжительность: 00:28:17
Треклист:

01. Alternation (03:36)
02. CEM Resumption (05:12)
03. Asynchronous Interpretation (05:41)
04. Empty (04:05)
05. Asynchronous Interpretation (Flint Glass Synchronization) (05:11)
06. Empty (Filled With Vicious Meerkats By Philipp Munch) (04:32)
Код:

Exact Audio Copy V1.0 beta 3 from 29. August 2011

EAC extraction logfile from 20. July 2014, 23:04

hyDrone / hyDrone

Used drive  : TSSTcorpCDDVDW SH-222BB   Adapter: 1  ID: 0

Read mode               : Secure
Utilize accurate stream : Yes
Defeat audio cache      : Yes
Make use of C2 pointers : No

Read offset correction                      : 6
Overread into Lead-In and Lead-Out          : No
Fill up missing offset samples with silence : Yes
Delete leading and trailing silent blocks   : No
Null samples used in CRC calculations       : Yes
Used interface                              : Native Win32 interface for Win NT & 2000
Gap handling                                : Appended to previous track

Used output format              : User Defined Encoder
Selected bitrate                : 1024 kBit/s
Quality                         : High
Add ID3 tag                     : No
Command line compressor         : C:\Program Files (x86)\Exact Audio Copy\FLAC\FLAC.EXE
Additional command line options : -8 -V -T "ARTIST=%artist%" -T "TITLE=%title%" -T "ALBUM=%albumtitle%" -T "DATE=%year%" -T "TRACKNUMBER=%tracknr%" -T "GENRE=%genre%" -T "PERFORMER=%albuminterpret%" -T "COMPOSER=%composer%" %haslyrics%--tag-from-file=LYRICS="%lyricsfile%"%haslyrics% -T "ALBUMARTIST=%albumartist%" -T "DISCNUMBER=%cdnumber%" -T "TOTALDISCS=%totalcds%" -T "TOTALTRACKS=%numtracks%" -T "COMMENT=%comment%" %source% -o %dest%

TOC of the extracted CD

     Track |   Start  |  Length  | Start sector | End sector
    ---------------------------------------------------------
        1  |  0:00.00 |  3:35.65 |         0    |    16189
        2  |  3:35.65 |  5:12.25 |     16190    |    39614
        3  |  8:48.15 |  5:41.14 |     39615    |    65203
        4  | 14:29.29 |  4:04.72 |     65204    |    83575
        5  | 18:34.26 |  5:11.00 |     83576    |   106900
        6  | 23:45.26 |  4:31.67 |    106901    |   127292

Track  1

     Filename D:\rip\hyDrone - 2011 - hyDrone [cd_flac]\01 - Alternation.wav

     Pre-gap length  0:00:02.00

     Peak level 97.7 %
     Extraction speed 4.8 X
     Track quality 100.0 %
     Test CRC 4CA74FBF
     Copy CRC 4CA74FBF
     Accurately ripped (confidence 1)  [69ABF326]  (AR v1)
     Copy OK

Track  2

     Filename D:\rip\hyDrone - 2011 - hyDrone [cd_flac]\02 - CEM Resumption.wav

     Peak level 65.2 %
     Extraction speed 5.5 X
     Track quality 100.0 %
     Test CRC B9DABEF9
     Copy CRC B9DABEF9
     Accurately ripped (confidence 1)  [CB33D486]  (AR v1)
     Copy OK

Track  3

     Filename D:\rip\hyDrone - 2011 - hyDrone [cd_flac]\03 - Asynchronous Interpretation.wav

     Peak level 97.7 %
     Extraction speed 6.1 X
     Track quality 100.0 %
     Test CRC F129403C
     Copy CRC F129403C
     Accurately ripped (confidence 1)  [A378A497]  (AR v1)
     Copy OK

Track  4

     Filename D:\rip\hyDrone - 2011 - hyDrone [cd_flac]\04 - Empty.wav

     Peak level 97.7 %
     Extraction speed 6.3 X
     Track quality 100.0 %
     Test CRC 7616E08A
     Copy CRC 7616E08A
     Accurately ripped (confidence 1)  [3F31D18A]  (AR v1)
     Copy OK

Track  5

     Filename D:\rip\hyDrone - 2011 - hyDrone [cd_flac]\05 - Asynchronous Interpretation (Flint Glass Synchronization).wav

     Peak level 97.7 %
     Extraction speed 6.9 X
     Track quality 100.0 %
     Test CRC A4B0A248
     Copy CRC A4B0A248
     Accurately ripped (confidence 1)  [4E286F1B]  (AR v1)
     Copy OK

Track  6

     Filename D:\rip\hyDrone - 2011 - hyDrone [cd_flac]\06 - Empty (Filled with Vicious Meerkats by Philipp Münch).wav

     Peak level 97.7 %
     Extraction speed 5.8 X
     Track quality 99.9 %
     Test CRC 2AF51CC3
     Copy CRC 2AF51CC3
     Accurately ripped (confidence 1)  [1BA4925C]  (AR v1)
     Copy OK

All tracks accurately ripped

No errors occurred

End of status report

==== Log checksum 1D0BB522BBDC60C997753982922BC7AD527B01D028C5F90AC5BB9229216B5DFF ====

 
Код:

REM DATE 2011
REM DISCID 3B06A106
REM COMMENT "ExactAudioCopy v1.0b3"
PERFORMER "hyDrone"
TITLE "hyDrone"
FILE "01 - Alternation.wav" WAVE
  TRACK 01 AUDIO
    TITLE "Alternation"
    PERFORMER "hyDrone"
    INDEX 01 00:00:00
FILE "02 - CEM Resumption.wav" WAVE
  TRACK 02 AUDIO
    TITLE "CEM Resumption"
    PERFORMER "hyDrone"
    INDEX 01 00:00:00
FILE "03 - Asynchronous Interpretation.wav" WAVE
  TRACK 03 AUDIO
    TITLE "Asynchronous Interpretation"
    PERFORMER "hyDrone"
    INDEX 01 00:00:00
FILE "04 - Empty.wav" WAVE
  TRACK 04 AUDIO
    TITLE "Empty"
    PERFORMER "hyDrone"
    INDEX 01 00:00:00
FILE "05 - Asynchronous Interpretation (Flint Glass Synchronization).wav" WAVE
  TRACK 05 AUDIO
    TITLE "Asynchronous Interpretation (Flint Glass Synchronization)"
    PERFORMER "hyDrone"
    INDEX 01 00:00:00
FILE "06 - Empty (Filled with Vicious Meerkats by Philipp Mьnch).wav" WAVE
  TRACK 06 AUDIO
    TITLE "Empty (Filled with Vicious Meerkats by Philipp Mьnch)"
    PERFORMER "hyDrone"
    INDEX 01 00:00:00

 
Год выпуска: 2014
Продолжительность: 00:56:42
Треклист:

01. Carefully And Patiently (We Are Counting Time) (07:49)
02. Always Late (05:40)
03. Whenever (05:12)
04. Backwards (03:38)
05. Chronos (03:32)
06. Passing Time (06:55)
07. Chronotaraxis (03:57)
08. Time Is Running Out Of Time (02:53)
09. To Maintain The Balance (02:11)
10. Always Late (Remix by Gjoll) (05:02)
11. Carefully And Patiently (Remix by Libido Formandi) (04:02)
12. Whenever (Remix by Proyecto Mirage) (05:51)
Код:

Exact Audio Copy V1.0 beta 3 from 29. August 2011

EAC extraction logfile from 28. April 2014, 13:52

hyDrone / Chronos

Used drive  : HL-DT-STBDDVDRW CH10LS28   Adapter: 1  ID: 0

Read mode               : Secure
Utilize accurate stream : Yes
Defeat audio cache      : Yes
Make use of C2 pointers : No

Read offset correction                      : 667
Overread into Lead-In and Lead-Out          : No
Fill up missing offset samples with silence : Yes
Delete leading and trailing silent blocks   : No
Null samples used in CRC calculations       : Yes
Used interface                              : Native Win32 interface for Win NT & 2000
Gap handling                                : Appended to previous track

Used output format              : User Defined Encoder
Selected bitrate                : 1024 kBit/s
Quality                         : High
Add ID3 tag                     : No
Command line compressor         : C:\Program Files (x86)\Exact Audio Copy\Flac\flac.exe
Additional command line options : -8 -V -T "ARTIST=%artist%" -T "TITLE=%title%" -T "ALBUM=%albumtitle%" -T "DATE=%year%" -T "TRACKNUMBER=%tracknr%" -T "GENRE=%genre%" -T "PERFORMER=%albuminterpret%" -T "COMPOSER=%composer%" %haslyrics%--tag-from-file=LYRICS="%lyricsfile%"%haslyrics% -T "ALBUMARTIST=%albumartist%" -T "DISCNUMBER=%cdnumber%" -T "TOTALDISCS=%totalcds%" -T "TOTALTRACKS=%numtracks%" -T "COMMENT=%comment%" %source% -o %dest%

TOC of the extracted CD

     Track |   Start  |  Length  | Start sector | End sector
    ---------------------------------------------------------
        1  |  0:00.00 |  7:48.38 |         0    |    35137
        2  |  7:48.38 |  5:40.00 |     35138    |    60637
        3  | 13:28.38 |  5:12.00 |     60638    |    84037
        4  | 18:40.38 |  3:38.00 |     84038    |   100387
        5  | 22:18.38 |  3:31.73 |    100388    |   116285
        6  | 25:50.36 |  6:54.40 |    116286    |   147375
        7  | 32:45.01 |  3:56.38 |    147376    |   165113
        8  | 36:41.39 |  2:52.47 |    165114    |   178060
        9  | 39:34.11 |  2:10.38 |    178061    |   187848
       10  | 41:44.49 |  5:01.38 |    187849    |   210461
       11  | 46:46.12 |  4:02.10 |    210462    |   228621
       12  | 50:48.22 |  5:51.33 |    228622    |   254979

Track  1

     Filename D:\Rips\hyDrone - Chronos - 2014 - FLAC\01 Carefully And Patiently [We Are Counting Time].wav

     Pre-gap length  0:00:02.00

     Peak level 99.4 %
     Extraction speed 1.2 X
     Track quality 100.0 %
     Test CRC 3629FA29
     Copy CRC 3629FA29
     Track not present in AccurateRip database
     Copy OK

Track  2

     Filename D:\Rips\hyDrone - Chronos - 2014 - FLAC\02 Always Late.wav

     Pre-gap length  0:00:02.89

     Peak level 99.4 %
     Extraction speed 1.4 X
     Track quality 100.0 %
     Test CRC 91123302
     Copy CRC 91123302
     Track not present in AccurateRip database
     Copy OK

Track  3

     Filename D:\Rips\hyDrone - Chronos - 2014 - FLAC\03 Whenever.wav

     Pre-gap length  0:00:04.60

     Peak level 99.4 %
     Extraction speed 1.5 X
     Track quality 100.0 %
     Test CRC 8DF41FD4
     Copy CRC 8DF41FD4
     Track not present in AccurateRip database
     Copy OK

Track  4

     Filename D:\Rips\hyDrone - Chronos - 2014 - FLAC\04 Backwards.wav

     Pre-gap length  0:00:04.30

     Peak level 99.4 %
     Extraction speed 1.6 X
     Track quality 100.0 %
     Test CRC 7B31AE84
     Copy CRC 7B31AE84
     Track not present in AccurateRip database
     Copy OK

Track  5

     Filename D:\Rips\hyDrone - Chronos - 2014 - FLAC\05 Chronos.wav

     Pre-gap length  0:00:04.84

     Peak level 99.4 %
     Extraction speed 1.6 X
     Track quality 100.0 %
     Test CRC 9B0979B8
     Copy CRC 9B0979B8
     Track not present in AccurateRip database
     Copy OK

Track  6

     Filename D:\Rips\hyDrone - Chronos - 2014 - FLAC\06 Passing Time.wav

     Pre-gap length  0:00:05.26

     Peak level 99.4 %
     Extraction speed 1.9 X
     Track quality 100.0 %
     Test CRC D1A98C21
     Copy CRC D1A98C21
     Track not present in AccurateRip database
     Copy OK

Track  7

     Filename D:\Rips\hyDrone - Chronos - 2014 - FLAC\07 Chronotaraxis.wav

     Pre-gap length  0:00:03.38

     Peak level 99.4 %
     Extraction speed 1.9 X
     Track quality 100.0 %
     Test CRC 83FACE05
     Copy CRC 83FACE05
     Track not present in AccurateRip database
     Copy OK

Track  8

     Filename D:\Rips\hyDrone - Chronos - 2014 - FLAC\08 Time Is Running Out Of Time.wav

     Pre-gap length  0:00:06.68

     Peak level 99.4 %
     Extraction speed 1.6 X
     Track quality 99.9 %
     Test CRC 10BB82F4
     Copy CRC 10BB82F4
     Track not present in AccurateRip database
     Copy OK

Track  9

     Filename D:\Rips\hyDrone - Chronos - 2014 - FLAC\09 To Maintain The Balance.wav

     Pre-gap length  0:00:04.28

     Peak level 99.4 %
     Extraction speed 1.8 X
     Track quality 100.0 %
     Test CRC 5D9E42E4
     Copy CRC 5D9E42E4
     Track not present in AccurateRip database
     Copy OK

Track 10

     Filename D:\Rips\hyDrone - Chronos - 2014 - FLAC\10 Always Late [Remix by Gjöll].wav

     Pre-gap length  0:00:05.37

     Peak level 99.4 %
     Extraction speed 2.1 X
     Track quality 100.0 %
     Test CRC 21503332
     Copy CRC 21503332
     Track not present in AccurateRip database
     Copy OK

Track 11

     Filename D:\Rips\hyDrone - Chronos - 2014 - FLAC\11 Carefully And Patiently [Remix by Libido Formandi].wav

     Pre-gap length  0:00:01.88

     Peak level 99.4 %
     Extraction speed 2.1 X
     Track quality 100.0 %
     Test CRC 862F0546
     Copy CRC 862F0546
     Track not present in AccurateRip database
     Copy OK

Track 12

     Filename D:\Rips\hyDrone - Chronos - 2014 - FLAC\12 Whenever [Remix by Proyecto Mirage].wav

     Pre-gap length  0:00:02.00

     Peak level 99.4 %
     Extraction speed 2.3 X
     Track quality 100.0 %
     Test CRC 75DEF058
     Copy CRC 75DEF058
     Track not present in AccurateRip database
     Copy OK

None of the tracks are present in the AccurateRip database

No errors occurred

End of status report

---- CUETools DB Plugin V2.1.3

[CTDB TOCID: tUc4fFoAGNtlEWCrlAUwUvJ4M2M-] found, Submit result: tUc4fFoAGNtlEWCrlAUwUvJ4M2M- has been confirmed
[0eda49a0] (2/2) Accurately ripped

==== Log checksum 338D092CC8F9A996F8E2ADBEBE58F24D1B46D6080003FE82B751D6A673C7C59A ====

 
Код:

REM GENRE Electronic
REM DATE 2014
REM DISCID 880D470C
REM COMMENT "ExactAudioCopy v1.0b3"
PERFORMER "hyDrone"
TITLE "Chronos"
FILE "01 Carefully And Patiently [We Are Counting Time].wav" WAVE
  TRACK 01 AUDIO
    TITLE "Carefully And Patiently [We Are Counting Time]"
    PERFORMER "hyDrone"
    INDEX 01 00:00:00
  TRACK 02 AUDIO
    TITLE "Always Late"
    PERFORMER "hyDrone"
    INDEX 00 07:45:46
FILE "02 Always Late.wav" WAVE
    INDEX 01 00:00:00
  TRACK 03 AUDIO
    TITLE "Whenever"
    PERFORMER "hyDrone"
    INDEX 00 05:35:30
FILE "03 Whenever.wav" WAVE
    INDEX 01 00:00:00
  TRACK 04 AUDIO
    TITLE "Backwards"
    PERFORMER "hyDrone"
    INDEX 00 05:07:52
FILE "04 Backwards.wav" WAVE
    INDEX 01 00:00:00
  TRACK 05 AUDIO
    TITLE "Chronos"
    PERFORMER "hyDrone"
    INDEX 00 03:33:12
FILE "05 Chronos.wav" WAVE
    INDEX 01 00:00:00
  TRACK 06 AUDIO
    TITLE "Passing Time"
    PERFORMER "hyDrone"
    INDEX 00 03:26:53
FILE "06 Passing Time.wav" WAVE
    INDEX 01 00:00:00
  TRACK 07 AUDIO
    TITLE "Chronotaraxis"
    PERFORMER "hyDrone"
    INDEX 00 06:51:11
FILE "07 Chronotaraxis.wav" WAVE
    INDEX 01 00:00:00
  TRACK 08 AUDIO
    TITLE "Time Is Running Out Of Time"
    PERFORMER "hyDrone"
    INDEX 00 03:49:62
FILE "08 Time Is Running Out Of Time.wav" WAVE
    INDEX 01 00:00:00
  TRACK 09 AUDIO
    TITLE "To Maintain The Balance"
    PERFORMER "hyDrone"
    INDEX 00 02:48:26
FILE "09 To Maintain The Balance.wav" WAVE
    INDEX 01 00:00:00
  TRACK 10 AUDIO
    TITLE "Always Late [Remix by Gjцll]"
    PERFORMER "hyDrone"
    INDEX 00 02:05:10
FILE "10 Always Late [Remix by Gjцll].wav" WAVE
    INDEX 01 00:00:00
  TRACK 11 AUDIO
    TITLE "Carefully And Patiently [Remix by Libido Formandi]"
    PERFORMER "hyDrone"
    INDEX 00 04:59:47
FILE "11 Carefully And Patiently [Remix by Libido Formandi].wav" WAVE
    INDEX 01 00:00:00
  TRACK 12 AUDIO
    TITLE "Whenever [Remix by Proyecto Mirage]"
    PERFORMER "hyDrone"
    INDEX 00 04:00:10
FILE "12 Whenever [Remix by Proyecto Mirage].wav" WAVE
    INDEX 01 00:00:00

 
Время раздачи: 12/7
[NNMClub.to]_hyDrone FLAC.torrent
 Торрент:   Зарегистрирован
 
Примагнититься
Free Leech
Зарегистрируйтесь и скачайте торрент!
17,4 KB
 Зарегистрирован:   27 Сен 2016 13:31:00
 Размер:   1,33 GB  (
 Рейтинг:    (Голосов: 5)
 Поблагодарили:   33
 Проверка:   Оформление проверено модератором 27 Сен 2016 13:31:33
Как cкачать  ·  Как раздать  ·  Правильно оформить  ·  Поднять ратио!  
Показать сообщения:   
Начать новую тему   Ответить на тему    Торрент-трекер NNM-Club -> Electronic -> Experimental, Industrial, EBM, Dark Electro (Lossless) Часовой пояс: GMT + 3
Страница 1 из 1