Интеллигентный торрент-трекер
canvas not supported
Нас вместе: 4 194 662

Смертельный оргазм / Deathgasm (2015) BDRemux [H.264/1080p] [EN / EN Sub]


 
 
RSS
Начать новую тему   Ответить на тему    Торрент-трекер NNM-Club -> Зарубежное кино -> Фильмы в оригинале (HD)
Автор Сообщение
smaster67 ®
Модератор Видео
Покровитель талантов Uploader 300+
Стаж: 7 лет 6 мес.
Сообщений: 6391
Ratio: 186,477
Поблагодарили: 180078
100%
Смертельный оргазм / Deathgasm (2015) BDRemux [H.264/1080p] [EN / EN Sub]

Производство: Новая Зеландия
Жанр: ужасы, комедия

Режиссер: Джейсон Ли Хауден
Актеры: Мило Коуторн, Джеймс Блейк, Кимберли Кроссман, Сэм Беркли, Дэниэл Крессвелл, Делани Таброн, Стефан Уре, Колин Мой, Джоди Риммер, Ник Хоскинс-Смит, Эролл Шанд, Кейт Эллиотт

Описание:
Два парня создают хеви металлическую группу. Но в момент их игры они пускают в этот мир злые силы, которые обещают им славу и величие.



Продолжительность: 01:26:11
Качество видео: BDRemux
Перевод: Отсутствует
Язык озвучки: Английский
Язык субтитров: английский
Вид субтитров: Вшитые

Видео: AVC, 1920x1080 (16:9), 29662 kbps, 23,976 fps, 0,597 bpp
Аудио №1: английский / DTS-HD / 5.1 / 48 kHz / 2048 kbps / 16 bit (Core: 5.1 / 48 kHz / 1509 kbps / 16 bit)
Аудио №2: английский / AC3 / 2.0 / 48 kHz / 224 kbps /
Код:
General
Unique ID                               Deathgasm.2015.BluRay.1080p.DTS-HD.MA.5.1.AVC.REMUX-FraMeSToR\Deathgasm.2015.BluRay.1080p.DTS-HD.MA.5.1.AVC.REMUX-FraMeSToR.mkv
Format                                   : Matroska
Format version                           : Version 4 / Version 2
File size                                : 19.2 GiB
Duration                                 : 1 h 26 min
Overall bit rate mode                    : Variable
Overall bit rate                         : 31.9 Mb/s
Movie name                               : Deathgasm
Encoded date                             : UTC 2016-09-27 00:32:27
Writing application                      : mkvmerge v9.4.2 ('So High') 64bit
Writing library                          : libebml v1.3.4 + libmatroska v1.4.5

Video
ID                                       : 1
Format                                   : AVC
Format/Info                              : Advanced Video Codec
Format profile                           : High@L4.1
Format settings, CABAC                   : Yes
Format settings, ReFrames                : 4 frames
Codec ID                                 : V_MPEG4/ISO/AVC
Duration                                 : 1 h 26 min
Bit rate mode                            : Variable
Bit rate                                 : 29.7 Mb/s
Maximum bit rate                         : 33.0 Mb/s
Width                                    : 1 920 pixels
Height                                   : 1 080 pixels
Display aspect ratio                     : 16:9
Frame rate mode                          : Constant
Frame rate                               : 23.976 (24000/1001) FPS
Color space                              : YUV
Chroma subsampling                       : 4:2:0
Bit depth                                : 8 bits
Scan type                                : Progressive
Bits/(Pixel*Frame)                       : 0.597
Stream size                              : 17.9 GiB (93%)
Default                                  : Yes
Forced                                   : No

Audio #1
ID                                       : 2
Format                                   : DTS
Format/Info                              : Digital Theater Systems
Format profile                           : MA / Core
Mode                                     : 16
Format settings, Endianness              : Big
Codec ID                                 : A_DTS
Duration                                 : 1 h 26 min
Bit rate mode                            : Variable / Constant
Bit rate                                 : 2 048 kb/s / 1 509 kb/s
Channel(s)                               : 6 channels
Channel positions                        : Front: L C R, Side: L R, LFE
Sampling rate                            : 48.0 kHz
Frame rate                               : 93.750 FPS (512 spf)
Bit depth                                : 16 bits
Compression mode                         : Lossless / Lossy
Stream size                              : 1.21 GiB (6%)
Title                                    : DTS-HD MA 5.1
Language                                 : English
Default                                  : Yes
Forced                                   : No

Audio #2
ID                                       : 3
Format                                   : AC-3
Format/Info                              : Audio Coding 3
Mode extension                           : CM (complete main)
Format settings, Endianness              : Big
Codec ID                                 : A_AC3
Duration                                 : 1 h 26 min
Bit rate mode                            : Constant
Bit rate                                 : 224 kb/s
Channel(s)                               : 2 channels
Channel positions                        : Front: L R
Sampling rate                            : 48.0 kHz
Frame rate                               : 31.250 FPS (1536 spf)
Compression mode                         : Lossy
Stream size                              : 138 MiB (1%)
Title                                    : Commentary by Writer/Director Jason Lei Howden
Language                                 : English
Default                                  : No
Forced                                   : No

Text
ID                                       : 4
Format                                   : PGS
Codec ID                                 : S_HDMV/PGS
Codec ID/Info                            : Picture based subtitle format used on BDs/HD-DVDs
Duration                                 : 1 h 25 min
Bit rate                                 : 37.5 kb/s
Count of elements                        : 2663
Stream size                              : 23.0 MiB (0%)
Title                                    : English (SDH)
Language                                 : English
Default                                  : Yes
Forced                                   : No

Menu
00:00:00.000                             : en:Chapter 1
00:05:56.814                             : en:Chapter 2
00:10:38.638                             : en:Chapter 3
00:15:37.728                             : en:Chapter 4
00:20:15.380                             : en:Chapter 5
00:25:43.333                             : en:Chapter 6
00:29:28.057                             : en:Chapter 7
00:35:07.897                             : en:Chapter 8
00:38:27.513                             : en:Chapter 9
00:44:01.597                             : en:Chapter 10
00:48:46.924                             : en:Chapter 11
00:52:24.766                             : en:Chapter 12
00:59:18.846                             : en:Chapter 13
01:02:17.734                             : en:Chapter 14
01:05:26.088                             : en:Chapter 15
01:08:27.228                             : en:Chapter 16
01:11:47.720                             : en:Chapter 17
01:14:16.660                             : en:Chapter 18
01:20:48.718                             : en:Chapter 19

Скриншоты:



Время раздачи: с 13:00 до 23:00
[NNMClub.to]_Deathgasm.2015.BluRay.1080p.DTS-HD.MA.5.1.AVC.REMUX-FraMeSToR.mkv.torrent
 Торрент: Золотая раздача  Зарегистрирован
 
Примагнититься
Free Leech
Зарегистрируйтесь и скачайте торрент!
96,4 KB
 Зарегистрирован:   27 Сен 2016 20:36:39
 Размер:   19,2 GB  (
 Рейтинг:    (Голосов: 7)
 Поблагодарили:   35
 Проверка:   Оформление проверено модератором 27 Сен 2016 20:37:30
Как cкачать  ·  Как раздать  ·  Правильно оформить  ·  Поднять ратио!  
Показать сообщения:   
Начать новую тему   Ответить на тему    Торрент-трекер NNM-Club -> Зарубежное кино -> Фильмы в оригинале (HD) Часовой пояс: GMT + 3
Страница 1 из 1