Интеллигентный торрент-трекер
canvas not supported
Нас вместе: 4 346 063

Охотники за привидениями / Ghostbusters (2016) BDRip [H.264/720p] [EN] [Extended Cut]


 
 
RSS
Начать новую тему   Ответить на тему    Торрент-трекер NNM-Club -> Зарубежное кино -> Фильмы в оригинале (HD)
Автор Сообщение
smaster67 ®
Модератор Видео
Покровитель талантов Uploader 300+
Стаж: 7 лет 11 мес.
Сообщений: 6650
Ratio: 200,913
Поблагодарили: 193288
100%
Охотники за привидениями / Ghostbusters (2016) BDRip [H.264/720p] [EN] [Extended Cut]

Производство: США, Австралия
Жанр: фантастика, фэнтези, боевик, комедия

Режиссер: Пол Фиг
Актеры: Мелисса МакКарти, Кристен Уиг, Кейт МакКиннон, Лесли Джонс, Крис Хемсворт, Сесили Стронг, Энди Гарсиа, Нил Кэйси, Чарльз Дэнс, Майкл Кеннет Уильямс, Мэтт Уолш, Майкл МакДональд

Описание:
Тридцать лет назад охотники за привидениями спасли Нью-Йорк от нашествия призраков, но теперь городу вновь угрожает опасность. Былые герои не могут стать на его защиту, но находятся и другие отважные люди, всю свою жизнь посвятившие изучению паранормальных явлений. Эбби Йейтс объединяется с Эрин Гилберт, пожалуй лучшим специалистом в квантовой физике, и вместе они собирают команду новых охотников за привидениями, в которую принимают отличного инженера Джиллиан Хольцман, сотрудницу метрополитена Пэтти Толан, знающую город как свои пять пальцев, и секретаря - настоящего красавчика Кэвина. Вместе они начинают борьбу с нечистой силой, терроризирующей мегаполис...



Продолжительность: 02:13:44
Качество видео: BDRip 720p
Перевод: Отсутствует
Язык озвучки: Английский

Видео: AVC, 1280x536 (2.40:1), 5510 kbps, 23,976 fps, 0,335 bpp
Аудио: английский / DTS / 5.1 / 48 kHz / 1509 kbps / 24 bit
Код: выделить все
General
Unique ID                               Ghostbusters.2016.EXTENDED.720p.BluRay.x264-DRONES\Ghostbusters.2016.EXTENDED.720p.BluRay.x264-DRONES.mkv
Format                                   : Matroska
Format version                           : Version 4 / Version 2
File size                                : 6.56 GiB
Duration                                 : 2 h 13 min
Overall bit rate                         : 7 022 kb/s
Encoded date                             : UTC 2016-09-26 19:15:10
Writing application                      : mkvmerge v8.3.0 ('Over the Horizon') 64bit
Writing library                          : libebml v1.3.1 + libmatroska v1.4.2

Video
ID                                       : 1
Format                                   : AVC
Format/Info                              : Advanced Video Codec
Format profile                           : High@L4.1
Format settings, CABAC                   : Yes
Format settings, ReFrames                : 5 frames
Codec ID                                 : V_MPEG4/ISO/AVC
Duration                                 : 2 h 13 min
Bit rate                                 : 5 510 kb/s
Width                                    : 1 280 pixels
Height                                   : 536 pixels
Display aspect ratio                     : 2.40:1
Frame rate mode                          : Constant
Frame rate                               : 23.976 FPS
Color space                              : YUV
Chroma subsampling                       : 4:2:0
Bit depth                                : 8 bits
Scan type                                : Progressive
Bits/(Pixel*Frame)                       : 0.335
Stream size                              : 5.15 GiB (78%)
Writing library                          : x264 core 148 r2692 64f4e24
Encoding settings                        : cabac=1 / ref=5 / deblock=1:0:0 / analyse=0x3:0x133 / me=umh / subme=7 / psy=1 / psy_rd=1.00:0.00 / mixed_ref=1 / me_range=16 / chroma_me=1 / trellis=1 / 8x8dct=1 / cqm=0 / deadzone=21,11 / fast_pskip=0 / chroma_qp_offset=-2 / threads=12 / lookahead_threads=2 / sliced_threads=0 / nr=0 / decimate=1 / interlaced=0 / bluray_compat=0 / constrained_intra=0 / bframes=3 / b_pyramid=2 / b_adapt=1 / b_bias=0 / direct=1 / weightb=1 / open_gop=0 / weightp=2 / keyint=250 / keyint_min=23 / scenecut=40 / intra_refresh=0 / rc_lookahead=40 / rc=2pass / mbtree=1 / bitrate=5510 / ratetol=1.0 / qcomp=0.60 / qpmin=0 / qpmax=69 / qpstep=4 / cplxblur=20.0 / qblur=0.5 / ip_ratio=1.40 / aq=1:1.00
Language                                 : English
Default                                  : Yes
Forced                                   : No

Audio
ID                                       : 2
Format                                   : DTS
Format/Info                              : Digital Theater Systems
Mode                                     : 16
Format settings, Endianness              : Big
Codec ID                                 : A_DTS
Duration                                 : 2 h 13 min
Bit rate mode                            : Constant
Bit rate                                 : 1 509 kb/s
Channel(s)                               : 6 channels
Channel positions                        : Front: L C R, Side: L R, LFE
Sampling rate                            : 48.0 kHz
Frame rate                               : 93.750 FPS (512 spf)
Bit depth                                : 24 bits
Compression mode                         : Lossy
Stream size                              : 1.41 GiB (21%)
Language                                 : English
Default                                  : Yes
Forced                                   : No

Menu
00:00:00.000                             : en:00:00:00.000
00:10:26.626                             : en:00:10:26.626
00:17:52.405                             : en:00:17:52.405
00:23:00.879                             : en:00:23:00.879
00:28:51.521                             : en:00:28:51.521
00:37:36.629                             : en:00:37:36.629
00:42:48.566                             : en:00:42:48.566
00:49:06.068                             : en:00:49:06.068
01:00:15.153                             : en:01:00:15.153
01:05:10.073                             : en:01:05:10.073
01:10:32.978                             : en:01:10:32.978
01:16:51.940                             : en:01:16:51.940
01:29:05.882                             : en:01:29:05.882
01:37:40.521                             : en:01:37:40.521
01:47:35.073                             : en:01:47:35.073
01:59:31.706                             : en:01:59:31.706

Скриншоты:



Время раздачи: с 13:00 до 23:00
[NNMClub.to]_Ghostbusters.2016.EXTENDED.720p.BluRay.x264-DRONES.mkv.torrent
 Торрент: Серебряная раздча  Зарегистрирован
 
Примагнититься
Free Leech
Зарегистрируйтесь и скачайте торрент!
33 KB
 Зарегистрирован:   27 Сен 2016 21:23:44
 Размер:   6,56 GB  (
 Рейтинг:   3,9 (Голосов: 15)
 Поблагодарили:   62
 Проверка:   Оформление проверено модератором 27 Сен 2016 21:24:25
Как cкачать  ·  Как раздать  ·  Правильно оформить  ·  Поднять ратио!  
Загрузка...
Laika
Стаж: 10 лет 2 мес.
Сообщений: 76
Ratio: 1,657
0.54%
Отличный фильм!
Peacedata
Стаж: 7 лет
Сообщений: 34
Ratio: 2,561
3.51%
ussr.gif
Laika писал(а): Перейти к сообщению
Отличный фильм!


Судя по рейтингу, просто шедевр, скорее всего Оскар взмет.
Zarons
Стаж: 3 года 5 мес.
Сообщений: 168
Ratio: 4,553
100%
Откуда: Citizen of world
pirates.png
Цитата:
Судя по рейтингу, просто шедевр, скорее всего Оскар возмёт


Охотники за привидениями уже не те, зачем было эту толстуху из бабских мелодрам сюда пихать, не понятно. Фильм стал дешёвой комедией для баб и про баб.
green1987
Стаж: 6 лет 4 мес.
Сообщений: 28
Ratio: 44,325
Поблагодарили: 3
100%
ЗАЧЕТНЫЙ фильмец на один разик по глядеть!!!! ПРОРЖАЛСЯ до коликов в животе (охрип)..... :лол: :лол: :лол:
severon1
Стаж: 4 года
Сообщений: 12
Ratio: 14,665
27.85%
есть смысл качать расширенную версию?
или в дополнительных сценах ничего интересного?
Skynsss
Стаж: 6 лет 3 мес.
Сообщений: 26
Ratio: 27,494
100%
ска дубляжа нет! Сразу не посмотрел!
Показать сообщения:   
Начать новую тему   Ответить на тему    Торрент-трекер NNM-Club -> Зарубежное кино -> Фильмы в оригинале (HD) Часовой пояс: GMT + 3
Страница 1 из 1