Интеллигентный торрент-трекер
canvas not supported
Нас вместе: 4 301 606

Poordream - Discography 4 Releases (2009-2015) [FLAC|Lossless|tracks+.cue, tracks] <IDM, Breaks, Ambient, Industrial, Experimental>


 
 
RSS
Начать новую тему   Ответить на тему    Торрент-трекер NNM-Club -> Electronic -> IDM (Lossless)
Автор Сообщение
vilator ®
Модератор Музыки
RG Music
 
Стаж: 7 лет 11 мес.
Сообщений: 5690
Ratio: 124,572
Поблагодарили: 111670
100%
Откуда: Minsk
pirates.png
Poordream Discography

Real Name - John Valasis. The Poordream project intends to express a certain point of view regarding the new arising era, mainly through music pathways. During our times of transition, this project is focused on the human being and his consciousness, as to develop the latter towards a more holistic, dynamic and complete existential theory. It is stimulated by everyday life, by the natural and artificial surroundings and by other creative and artistic works such as films, documentaries and more. Exploring a wide range of experimental electronic and acoustic music such as IDM, breakbeats, ambient, cinematic and experimental sound art and composition, Poordream masterfully blends both 'real' sounds and field recordings with digital textures and atmospheres in order to synthesize a unique mixture of world music and contemporary electronic music. Poordream's exquisite sound is reproduced in live shows, in which musical, visual, dancing and verbal artistic forms are combined.
Жанр: IDM, Breaks, Ambient, Industrial, Experimental • Страна: Greece • Год издания: 2009-2015 • Тип издания: CD, Web
Аудиокодек: FLAC (*.flac) • Тип рипа: tracks+.cue, tracks • Продолжительность: 03:13:08 • Источник: What, bandcamp
Треклист:
Год выпуска: 2009
Продолжительность: 00:52:04
Треклист:

01. Immaterial Monarch (05:17)
02. Immaterial Monarch (Grandma Version) (06:03)
03. Immaterial Monarch (Broken Tempo Remix) (04:09)
04. Immaterial Monarch (Nadsat Remix) (03:06)
05. Immaterial Monarch (Monotomus Remix) (04:17)
06. Immaterial Monarch (Mr. F. Remix) (06:31)
07. Immaterial Monarch (Mahos Paterakis Riot Mix) (05:39)
08. Immaterial Monarch (Dama Remix) (05:04)
09. Immaterial Monarch (Tape86 Remix) (04:58)
10. Sounds Of Consciousness (07:00)

Exact Audio Copy V1.0 beta 1 from 15. November 2010

EAC extraction logfile from 2. January 2011, 23:57

Poordream / Immaterial Monarch

Used drive : HL-DT-STDVDRAM GT20N Adapter: 0 ID: 1

Read mode : Secure
Utilize accurate stream : Yes
Defeat audio cache : Yes
Make use of C2 pointers : No

Read offset correction : 667
Overread into Lead-In and Lead-Out : No
Fill up missing offset samples with silence : Yes
Delete leading and trailing silent blocks : No
Null samples used in CRC calculations : Yes
Used interface : Native Win32 interface for Win NT & 2000
Gap handling : Appended to previous track

Used output format : User Defined Encoder
Selected bitrate : 1024 kBit/s
Quality : High
Add ID3 tag : No
Command line compressor : C:\Program Files (x86)\FLAC\flac.exe
Additional command line options : -8 -V -T "ARTIST=%a" -T "TITLE=%t" -T "ALBUM=%g" -T "DATE=%y" -T "TRACKNUMBER=%n" -T "GENRE=%m" -T "COMMENT=EAC FLAC -8" %s

TOC of the extracted CD

Track | Start | Length | Start sector | End sector
---------------------------------------------------------
1 | 0:00.00 | 5:16.65 | 0 | 23764
2 | 5:16.65 | 6:03.37 | 23765 | 51026
3 | 11:20.27 | 4:09.31 | 51027 | 69732
4 | 15:29.58 | 3:05.46 | 69733 | 83653
5 | 18:35.29 | 4:16.66 | 83654 | 102919
6 | 22:52.20 | 6:30.70 | 102920 | 132239
7 | 29:23.15 | 5:39.28 | 132240 | 157692
8 | 35:02.43 | 5:03.56 | 157693 | 180473
9 | 40:06.24 | 4:58.10 | 180474 | 202833
10 | 45:04.34 | 7:00.00 | 202834 | 234333

Track 1

Filename C:\Users\Unmen\Desktop\Poordream - Immaterial monarch\01 - Immaterial Monarch.wav

Pre-gap length 0:00:02.00

Peak level 100.0 %
Extraction speed 1.3 X
Track quality 100.0 %
Test CRC 2627E3F7
Copy CRC 2627E3F7
Accurately ripped (confidence 2) [67500957]
Copy OK

Track 2

Filename C:\Users\Unmen\Desktop\Poordream - Immaterial monarch\02 - Immaterial Monarch (Grandma Version).wav

Peak level 98.3 %
Extraction speed 1.4 X
Track quality 100.0 %
Test CRC 7F5B1D50
Copy CRC 7F5B1D50
Accurately ripped (confidence 2) [B9294BA3]
Copy OK

Track 3

Filename C:\Users\Unmen\Desktop\Poordream - Immaterial monarch\03 - Immaterial Monarch (Broken Tempo Remix).wav

Peak level 94.2 %
Extraction speed 1.5 X
Track quality 100.0 %
Test CRC 98345AAB
Copy CRC 98345AAB
Accurately ripped (confidence 2) [AEF8B5B5]
Copy OK

Track 4

Filename C:\Users\Unmen\Desktop\Poordream - Immaterial monarch\04 - Immaterial Monarch (Nadsat Remix).wav

Peak level 90.9 %
Extraction speed 1.3 X
Track quality 99.9 %
Test CRC 9F26807E
Copy CRC 9F26807E
Accurately ripped (confidence 2) [214DF97A]
Copy OK

Track 5

Filename C:\Users\Unmen\Desktop\Poordream - Immaterial monarch\05 - Immaterial Monarch (Monotomus Remix).wav

Peak level 98.1 %
Extraction speed 1.6 X
Track quality 100.0 %
Test CRC E0919F26
Copy CRC E0919F26
Accurately ripped (confidence 2) [E1190952]
Copy OK

Track 6

Filename C:\Users\Unmen\Desktop\Poordream - Immaterial monarch\06 - Immaterial Monarch (Mr F Remix).wav

Peak level 92.5 %
Extraction speed 1.9 X
Track quality 100.0 %
Test CRC 759DF02E
Copy CRC 759DF02E
Accurately ripped (confidence 2) [A2FFB265]
Copy OK

Track 7

Filename C:\Users\Unmen\Desktop\Poordream - Immaterial monarch\07 - Immaterial Monarch (Mahos Perakis Riot Mix).wav

Peak level 100.0 %
Extraction speed 1.8 X
Track quality 99.9 %
Test CRC E493CDA4
Copy CRC E493CDA4
Accurately ripped (confidence 2) [B4E24AAD]
Copy OK

Track 8

Filename C:\Users\Unmen\Desktop\Poordream - Immaterial monarch\08 - Immaterial Monarch (Dama Remix).wav

Peak level 93.7 %
Extraction speed 2.0 X
Track quality 100.0 %
Test CRC 18FFAE36
Copy CRC 18FFAE36
Accurately ripped (confidence 2) [BB57BAB9]
Copy OK

Track 9

Filename C:\Users\Unmen\Desktop\Poordream - Immaterial monarch\09 - Immaterial Monarch (Tape86 Remix).wav

Peak level 97.0 %
Extraction speed 2.1 X
Track quality 100.0 %
Test CRC 00887808
Copy CRC 00887808
Accurately ripped (confidence 2) [B4D4770A]
Copy OK

Track 10

Filename C:\Users\Unmen\Desktop\Poordream - Immaterial monarch\10 - Sounds of Consciousness.wav

Peak level 96.8 %
Extraction speed 2.4 X
Track quality 100.0 %
Test CRC 96256FCB
Copy CRC 96256FCB
Accurately ripped (confidence 2) [78CFB06D]
Copy OK

All tracks accurately ripped

No errors occurred

End of status report


REM GENRE Techno
REM DATE 2009
REM DISCID 7B0C340A
REM COMMENT "ExactAudioCopy v1.0b1"
PERFORMER "Poordream"
TITLE "Immaterial Monarch"
FILE "01 - Immaterial Monarch.wav" WAVE
TRACK 01 AUDIO
TITLE "Immaterial Monarch"
PERFORMER "Poordream"
INDEX 01 00:00:00
FILE "02 - Immaterial Monarch (Grandma Version).wav" WAVE
TRACK 02 AUDIO
TITLE "Immaterial Monarch (Grandma Version)"
PERFORMER "Poordream"
INDEX 01 00:00:00
FILE "03 - Immaterial Monarch (Broken Tempo Remix).wav" WAVE
TRACK 03 AUDIO
TITLE "Immaterial Monarch (Broken Tempo Remix)"
PERFORMER "Poordream"
INDEX 01 00:00:00
FILE "04 - Immaterial Monarch (Nadsat Remix).wav" WAVE
TRACK 04 AUDIO
TITLE "Immaterial Monarch (Nadsat Remix)"
PERFORMER "Poordream"
INDEX 01 00:00:00
FILE "05 - Immaterial Monarch (Monotomus Remix).wav" WAVE
TRACK 05 AUDIO
TITLE "Immaterial Monarch (Monotomus Remix)"
PERFORMER "Poordream"
INDEX 01 00:00:00
FILE "06 - Immaterial Monarch (Mr F Remix).wav" WAVE
TRACK 06 AUDIO
TITLE "Immaterial Monarch (Mr F Remix)"
PERFORMER "Poordream"
INDEX 01 00:00:00
FILE "07 - Immaterial Monarch (Mahos Perakis Riot Mix).wav" WAVE
TRACK 07 AUDIO
TITLE "Immaterial Monarch (Mahos Perakis Riot Mix)"
PERFORMER "Poordream"
INDEX 01 00:00:00
FILE "08 - Immaterial Monarch (Dama Remix).wav" WAVE
TRACK 08 AUDIO
TITLE "Immaterial Monarch (Dama Remix)"
PERFORMER "Poordream"
INDEX 01 00:00:00
FILE "09 - Immaterial Monarch (Tape86 Remix).wav" WAVE
TRACK 09 AUDIO
TITLE "Immaterial Monarch (Tape86 Remix)"
PERFORMER "Poordream"
INDEX 01 00:00:00
FILE "10 - Sounds of Consciousness.wav" WAVE
TRACK 10 AUDIO
TITLE "Sounds of Consciousness"
PERFORMER "Poordream"
INDEX 01 00:00:00

Год выпуска: 2011
Продолжительность: 00:46:17
Треклист:

01. Is This Last Stop? (03:13)
02. One Of Those Days (Poordream Remix) (05:04)
03. Everything Is Good Part 2 (Poordream Remix) (04:58)
04. Immense Present (Feat. Costantenus) (feat. Costantenus) (06:56)
05. Web Theme (02:43)
06. Rip Da Kanoun (03:55)
07. Immaterial Monarch (Grandma Version) (05:31)
08. Short Circuit In My Brain (03:26)
09. Immaterial Monarch (05:13)
10. Army Factory (05:18)

Exact Audio Copy V1.0 beta 1 from 15. November 2010

EAC extraction logfile from 23. April 2011, 21:56

poordream / living now

Used drive : HL-DT-STDVDRAM GT20N Adapter: 0 ID: 1

Read mode : Secure
Utilize accurate stream : Yes
Defeat audio cache : Yes
Make use of C2 pointers : No

Read offset correction : 667
Overread into Lead-In and Lead-Out : No
Fill up missing offset samples with silence : Yes
Delete leading and trailing silent blocks : No
Null samples used in CRC calculations : Yes
Used interface : Native Win32 interface for Win NT & 2000
Gap handling : Appended to previous track

Used output format : User Defined Encoder
Selected bitrate : 1024 kBit/s
Quality : High
Add ID3 tag : No
Command line compressor : C:\Program Files (x86)\FLAC\flac.exe
Additional command line options : -8 -V -T "ARTIST=%a" -T "TITLE=%t" -T "ALBUM=%g" -T "DATE=%y" -T "TRACKNUMBER=%n" -T "GENRE=%m" -T "COMMENT=EAC FLAC -8" %s

TOC of the extracted CD

Track | Start | Length | Start sector | End sector
---------------------------------------------------------
1 | 0:00.00 | 3:12.63 | 0 | 14462
2 | 3:12.63 | 5:04.00 | 14463 | 37262
3 | 8:16.63 | 4:57.54 | 37263 | 59591
4 | 13:14.42 | 6:55.67 | 59592 | 90783
5 | 20:10.34 | 2:43.21 | 90784 | 103029
6 | 22:53.55 | 3:54.62 | 103030 | 120641
7 | 26:48.42 | 5:30.50 | 120642 | 145441
8 | 32:19.17 | 3:25.47 | 145442 | 160863
9 | 35:44.64 | 5:13.17 | 160864 | 184355
10 | 40:58.06 | 5:17.69 | 184356 | 208199

Track 1

Filename D:\temp\audio\poordream - living now\01 - is this last stop.wav

Pre-gap length 0:00:02.00

Peak level 94.3 %
Extraction speed 2.7 X
Track quality 100.0 %
Test CRC C3A6B46B
Copy CRC C3A6B46B
Track not present in AccurateRip database
Copy OK

Track 2

Filename D:\temp\audio\poordream - living now\02 - one of those days (poordream rmx).wav

Peak level 99.9 %
Extraction speed 3.2 X
Track quality 100.0 %
Test CRC 3D023AC8
Copy CRC 3D023AC8
Track not present in AccurateRip database
Copy OK

Track 3

Filename D:\temp\audio\poordream - living now\03 - everything is good part 2 (poordream rmx).wav

Peak level 99.9 %
Extraction speed 3.5 X
Track quality 100.0 %
Test CRC 29F1E14E
Copy CRC 29F1E14E
Track not present in AccurateRip database
Copy OK

Track 4

Filename D:\temp\audio\poordream - living now\04 - immense present (feat. costantenus).wav

Peak level 99.9 %
Extraction speed 3.9 X
Track quality 100.0 %
Test CRC 9538A663
Copy CRC 9538A663
Track not present in AccurateRip database
Copy OK

Track 5

Filename D:\temp\audio\poordream - living now\05 - web theme.wav

Peak level 97.2 %
Extraction speed 3.7 X
Track quality 100.0 %
Test CRC AED6B8F9
Copy CRC AED6B8F9
Track not present in AccurateRip database
Copy OK

Track 6

Filename D:\temp\audio\poordream - living now\06 - rip da kanoun.wav

Peak level 99.9 %
Extraction speed 4.1 X
Track quality 100.0 %
Test CRC 45E2B806
Copy CRC 45E2B806
Track not present in AccurateRip database
Copy OK

Track 7

Filename D:\temp\audio\poordream - living now\07 - immaterial monarch (grandma version).wav

Peak level 99.9 %
Extraction speed 4.5 X
Track quality 100.0 %
Test CRC 8A64B173
Copy CRC 8A64B173
Track not present in AccurateRip database
Copy OK

Track 8

Filename D:\temp\audio\poordream - living now\08 - short circuit in my brain.wav

Peak level 99.9 %
Extraction speed 4.5 X
Track quality 100.0 %
Test CRC 43A6A4A0
Copy CRC 43A6A4A0
Track not present in AccurateRip database
Copy OK

Track 9

Filename D:\temp\audio\poordream - living now\09 - immaterial monarch.wav

Peak level 99.9 %
Extraction speed 4.9 X
Track quality 100.0 %
Test CRC 7237AE3F
Copy CRC 7237AE3F
Track not present in AccurateRip database
Copy OK

Track 10

Filename D:\temp\audio\poordream - living now\10 - army factory.wav

Peak level 99.9 %
Extraction speed 5.1 X
Track quality 100.0 %
Test CRC DD0AEAF3
Copy CRC DD0AEAF3
Track not present in AccurateRip database
Copy OK

None of the tracks are present in the AccurateRip database

No errors occurred

End of status report


REM DATE 2010
REM DISCID 810AD80A
REM COMMENT "ExactAudioCopy v1.0b1"
PERFORMER "poordream"
TITLE "living now"
FILE "01 - is this last stop.wav" WAVE
TRACK 01 AUDIO
TITLE "is this last stop?"
PERFORMER "poordream"
INDEX 01 00:00:00
FILE "02 - one of those days (poordream rmx).wav" WAVE
TRACK 02 AUDIO
TITLE "one of those days (poordream rmx)"
PERFORMER "poordream"
INDEX 01 00:00:00
FILE "03 - everything is good part 2 (poordream rmx).wav" WAVE
TRACK 03 AUDIO
TITLE "everything is good part 2 (poordream rmx)"
PERFORMER "poordream"
INDEX 01 00:00:00
FILE "04 - immense present (feat. costantenus).wav" WAVE
TRACK 04 AUDIO
TITLE "immense present (feat. costantenus)"
PERFORMER "poordream"
INDEX 01 00:00:00
FILE "05 - web theme.wav" WAVE
TRACK 05 AUDIO
TITLE "web theme"
PERFORMER "poordream"
INDEX 01 00:00:00
FILE "06 - rip da kanoun.wav" WAVE
TRACK 06 AUDIO
TITLE "rip da kanoun"
PERFORMER "poordream"
INDEX 01 00:00:00
FILE "07 - immaterial monarch (grandma version).wav" WAVE
TRACK 07 AUDIO
TITLE "immaterial monarch (grandma version)"
PERFORMER "poordream"
INDEX 01 00:00:00
FILE "08 - short circuit in my brain.wav" WAVE
TRACK 08 AUDIO
TITLE "short circuit in my brain"
PERFORMER "poordream"
INDEX 01 00:00:00
FILE "09 - immaterial monarch.wav" WAVE
TRACK 09 AUDIO
TITLE "immaterial monarch"
PERFORMER "poordream"
INDEX 01 00:00:00
FILE "10 - army factory.wav" WAVE
TRACK 10 AUDIO
TITLE "army factory"
PERFORMER "poordream"
INDEX 01 00:00:00

Год выпуска: 2014
Продолжительность: 00:48:03
Треклист:

01. Despair (03:31)
02. Urbanies (04:26)
03. Bangla Razor (04:29)
04. Ninetynine (04:00)
05. Proof (05:35)
06. Open Probability (Feat. Zinovia) (03:45)
07. Backbiter (05:50)
08. Flying Blind (07:18)
09. Acceptance (04:03)
10. Acceptance (Zinovia Remix) (05:06)

-----------------------

DON'T MODIFY THIS FILE

-----------------------

PERFORMER: auCDtect Task Manager, ver. 1.6.0 RC1 build 1.6.0.1
Copyright (c) 2008-2010 y-soft. All rights reserved
http://y-soft.org

ANALYZER: auCDtect: CD records authenticity detector, version 0.8.2
Copyright (c) 2004 Oleg Berngardt. All rights reserved.
Copyright (c) 2004 Alexander Djourik. All rights reserved.

FILE: 10. Acceptance (Zinovia remix).flac
Size: 32532448 Hash: E49002D4ABFB1350B12D4F611532C318 Accuracy: -m0
Conclusion: CDDA 100%
Signature: FAAE618249D1D80AF882CFDCA86C6A56333B3637
FILE: 06. Open Probability (feat. Zinovia).flac
Size: 23564821 Hash: 848F8EB79C98168B06BC64C0D9AB50AC Accuracy: -m0
Conclusion: CDDA 100%
Signature: 61B3C6165EE542782DDC33917A75BF7AEF89FE10
FILE: 10. Acceptance (Zinovia Remix).flac
Size: 32533587 Hash: E49002D4ABFB1350B12D4F611532C318 Accuracy: -m0
Conclusion: CDDA 100%
Signature: E4DA010E32A3794E0FFBB4FB247C53D16FB1A662
FILE: 09. Acceptance.flac
Size: 17456812 Hash: BEC04DB2E3CAA8565B3BFFAD007D36EB Accuracy: -m0
Conclusion: CDDA 92%
Signature: 683F9EC1C84CBC04D7781D00FEE3233BC1C20FA9
FILE: 08. Flying Blind.flac
Size: 41128631 Hash: 7735A1B10693F0B4B79847051CCB0D52 Accuracy: -m0
Conclusion: CDDA 100%
Signature: C76C71ED1798BA2685D43FD62BE5F7CC58E6FFA7
FILE: 07. Backbiter.flac
Size: 35069792 Hash: 7773136D8DDC6D92D1622DECA11B5D01 Accuracy: -m0
Conclusion: CDDA 100%
Signature: B704805D67ADC8DCE5B2C49AFC2F10E59AEF134C
FILE: 06. Open Probability (Feat. Zinovia).flac
Size: 23565964 Hash: 848F8EB79C98168B06BC64C0D9AB50AC Accuracy: -m0
Conclusion: CDDA 100%
Signature: 6462142EBD517F3EF150EEA786C77A022E36BC23
FILE: 05. Proof.flac
Size: 34638155 Hash: 3EA8BD1DE4BBA52EE6E28B26C9BE8909 Accuracy: -m0
Conclusion: CDDA 100%
Signature: 26BB7D49C47EF8248370F5EB7231AFC67B1CCA13
FILE: 04. Ninetynine.flac
Size: 20936585 Hash: 799309A3D4C7403DEB1498FFC580D9A9 Accuracy: -m0
Conclusion: CDDA 62%
Signature: 3DD5D41E092BAD01B10482F52AC1E5AD6ACE8D78
FILE: 03. Bangla Razor.flac
Size: 26316976 Hash: 8ACC33BFFA8D6EEFAD121A9CF75BFCD9 Accuracy: -m0
Conclusion: CDDA 99%
Signature: 4F6B9C5F793A36820218EBAC37744BF7FDABB06F
FILE: 02. Urbanies.flac
Size: 30180267 Hash: 893EB968D2665019CEC0CC4A335215F8 Accuracy: -m0
Conclusion: CDDA 100%
Signature: DD649CDB26C6E69C4D32B5E046255D7F78440872
FILE: 01. Despair.flac
Size: 19857201 Hash: 375C0279B2C829B46B8AE14B576FDC09 Accuracy: -m0
Conclusion: ???
Signature: DC723CA042071BF6A9B0479C32ECAC9512FD56DF

Год выпуска: 2015
Продолжительность: 00:46:42
Треклист:

01. All We Get (Poordream Remix) (03:44)
02. After (Poordream Remix) (03:37)
03. Last Of The Light (Subheim vs Poordream Remix) (05:10)
04. The Last Day (Poordream Remix) (05:28)
05. Universal Trilogy - One On One (Poordream Remix) (03:49)
06. Fake Good Morning (Poordream Remix) (04:32)
07. Every Thing Is Good (Poordream Remix) (05:09)
08. One Of Those Days (Poordream Remix) (05:59)
09. Is (Poordream Remix) (04:42)
10. Say Yeah (Poordream Remix) (04:32)

-----------------------

DON'T MODIFY THIS FILE

-----------------------

PERFORMER: auCDtect Task Manager, ver. 1.5.1RC6 build 1.5.1.7
Copyright (c) 2008-2010 y-soft. All rights reserved
http://y-soft.org

ANALYZER: auCDtect: CD records authenticity detector, version 0.8.2
Copyright (c) 2004 Oleg Berngardt. All rights reserved.
Copyright (c) 2004 Alexander Djourik. All rights reserved.

FILE: 10. Yves Larock - Say Yeah (Poordream Remix).flac
Size: 30456177 Hash: 69A933F730155D80DCD2D7680A4F1680 Accuracy: -m0
Conclusion: CDDA 54%
Signature: DCD8E7CFED244A0E97B4FD7B1FF1E3E51A576A85
FILE: 09. Serafim Tsotsonis - Is (Poordream Remix).flac
Size: 31319789 Hash: EFFBF7CCEA8D79524E7B001CE5E78A93 Accuracy: -m0
Conclusion: CDDA 87%
Signature: 61DFE1968BF35108EA63983F0CF487F2A58CACAC
FILE: 08. Mahos Paterakis - One of Those Days (Poordream Remix).flac
Size: 41913843 Hash: 931B297BBE672E19B3784BE381E792B7 Accuracy: -m0
Conclusion: CDDA 85%
Signature: F240ABB9627D4875008495B73FDA75A5E35454EC
FILE: 07. Mr. Meeble - Every Thing Is Good (Poordream Remix).flac
Size: 34352422 Hash: C7D578C2DF71D416498D8DE341BCE3D3 Accuracy: -m0
Conclusion: CDDA 100%
Signature: 21D01802D1A9FDBF3E5BF5081C75CC0CDA9FB7EB
FILE: 06. Broken Tempo - Fake Good Morning (Poordream Remix).flac
Size: 29392097 Hash: E7CE516B89C61010296EDF849A9BC972 Accuracy: -m0
Conclusion: MPEG 95%
Signature: 4F9DFF48D59D77264CEC6996C38A2485B46FFAD5
FILE: 05. Universal Trilogy - One on One (Poordream Remix).flac
Size: 25504387 Hash: 9F93ADDD4E3EF270E97D1E78704E828C Accuracy: -m0
Conclusion: CDDA 100%
Signature: 9AD83CDCC56B982CCB2288862233677A38D1C543
FILE: 04. Moby - The Last Day (Poordream Remix).flac
Size: 34839429 Hash: 302F35C53E54BD092D913BD06EAC5D4A Accuracy: -m0
Conclusion: MPEG 93%
Signature: C6BE6DF694F5FE1AB9752618DA3660EEE9D1045F
FILE: 03. Obsidian Kingdom - Last Of The Light (Subheim vs Poordream Remix).flac
Size: 34079672 Hash: F10B8F5B16171658DC7202082C09B2E4 Accuracy: -m0
Conclusion: MPEG 95%
Signature: C7F490ACFE583195B01C912210632C9F4E214D5F
FILE: 02. Detritus - After (Poordream Remix).flac
Size: 22188335 Hash: 7A101C52E3F32B00C3B692C8A693A5DD Accuracy: -m0
Conclusion: CDDA 100%
Signature: EAB95120F7398CC6962CEE4FAF902A808BADDF03
FILE: 01. UltraVillain - All We Get (Poordream Remix).flac
Size: 24487700 Hash: FE4D0820C7B0161104C576CD92D18E16 Accuracy: -m0
Conclusion: CDDA 100%
Signature: DA8ED1068F83962FD7BA1A731CE7B9BE6D04B524

Время раздачи: 12/7
[NNMClub.to]_Poordream FLAC.torrent
 Торрент:   Зарегистрирован
 
Примагнититься
Free Leech
Зарегистрируйтесь и скачайте торрент!
17,1 KB
 Зарегистрирован:   28 Сен 2016 02:32:59
 Размер:   1,17 GB  (
 Рейтинг:    (Голосов: 7)
 Поблагодарили:   24
 Проверка:   Оформление проверено модератором 28 Сен 2016 02:34:05
Как cкачать  ·  Как раздать  ·  Правильно оформить  ·  Поднять ратио!  
Показать сообщения:   
Начать новую тему   Ответить на тему    Торрент-трекер NNM-Club -> Electronic -> IDM (Lossless) Часовой пояс: GMT + 3
Страница 1 из 1