Интеллигентный торрент-трекер
canvas not supported
Нас вместе: 4 332 061

Алиса в Зазеркалье / Alice Through the Looking Glass (2016) BDRip [H.264/1080p] [EN / EN Sub]


 
 
RSS
Начать новую тему   Ответить на тему    Торрент-трекер NNM-Club -> Зарубежное кино -> Фильмы в оригинале (HD)
Автор Сообщение
smaster67 ®
Модератор Видео
Покровитель талантов Uploader 300+
Стаж: 8 лет
Сообщений: 6666
Ratio: 202,455
Поблагодарили: 193941
100%
Алиса в Зазеркалье / Alice Through the Looking Glass (2016) BDRip [H.264/1080p] [EN / EN Sub]

Производство: США, Великобритания
Жанр: фэнтези, приключения, семейный

Режиссер: Джеймс Бобин
Актеры: Миа Васиковска, Джонни Депп, Хелена Бонем Картер, Энн Хэтэуэй, Саша Барон Коэн, Рис Иванс, Мэтт Лукас, Линдси Дункан, Лео Билл, Джеральдин Джеймс, Эндрю Скотт, Ричард Армитедж

Описание:
На этот раз главной героине предстоит отправиться в путешествие во времени, полное неожиданностей и ярких открытий, чтобы спасти своего друга, Безумного Шляпника.



Продолжительность: 01:52:57
Качество видео: BDRip 1080p
Перевод: Отсутствует
Язык озвучки: Английский
Язык субтитров: английский
Вид субтитров: Вшитые

Видео: AVC, 1920x1040 (1.85:1), 8183 kbps, 23,976 fps, 0,171 bpp
Аудио: английский / DTS / 5.1 / 48 kHz / 1509 kbps / 24 bit
Код: выделить все
General
Unique ID
Complete name                           Alice Through the Looking Glass.2016.BDRip.1080p.NNMClub.mkv
Format                                   : Matroska
Format version                           : Version 4 / Version 2
File size                                : 7.65 GiB
Duration                                 : 1 h 52 min
Overall bit rate                         : 9 694 kb/s
Encoded date                             : UTC 2016-09-27 22:43:02
Writing application                      : mkvmerge v8.5.0 ('Vanishing Act') 64bit
Writing library                          : libebml v1.3.1 + libmatroska v1.4.2

Video
ID                                       : 1
Format                                   : AVC
Format/Info                              : Advanced Video Codec
Format profile                           : High@L4.1
Format settings, CABAC                   : Yes
Format settings, ReFrames                : 4 frames
Codec ID                                 : V_MPEG4/ISO/AVC
Duration                                 : 1 h 52 min
Bit rate                                 : 8 183 kb/s
Width                                    : 1 920 pixels
Height                                   : 1 040 pixels
Display aspect ratio                     : 1.85:1
Frame rate mode                          : Constant
Frame rate                               : 23.976 (24000/1001) FPS
Color space                              : YUV
Chroma subsampling                       : 4:2:0
Bit depth                                : 8 bits
Scan type                                : Progressive
Bits/(Pixel*Frame)                       : 0.171
Stream size                              : 6.46 GiB (84%)
Writing library                          : x264 core 148 r2705 3f5ed56
Encoding settings                        : cabac=1 / ref=4 / deblock=1:-1:-1 / analyse=0x3:0x133 / me=umh / subme=8 / psy=1 / psy_rd=1.00:0.15 / mixed_ref=1 / me_range=16 / chroma_me=1 / trellis=1 / 8x8dct=1 / cqm=0 / deadzone=21,11 / fast_pskip=0 / chroma_qp_offset=-4 / threads=24 / lookahead_threads=4 / sliced_threads=0 / nr=0 / decimate=1 / interlaced=0 / bluray_compat=0 / constrained_intra=0 / bframes=3 / b_pyramid=2 / b_adapt=2 / b_bias=0 / direct=3 / weightb=1 / open_gop=0 / weightp=2 / keyint=240 / keyint_min=23 / scenecut=40 / intra_refresh=0 / rc_lookahead=50 / rc=2pass / mbtree=1 / bitrate=8183 / ratetol=1.0 / qcomp=0.60 / qpmin=10 / qpmax=69 / qpstep=4 / cplxblur=20.0 / qblur=0.5 / ip_ratio=1.40 / aq=1:1.00
Language                                 : English
Default                                  : Yes
Forced                                   : No

Audio
ID                                       : 2
Format                                   : DTS
Format/Info                              : Digital Theater Systems
Mode                                     : 16
Format settings, Endianness              : Big
Codec ID                                 : A_DTS
Duration                                 : 1 h 52 min
Bit rate mode                            : Constant
Bit rate                                 : 1 509 kb/s
Channel(s)                               : 6 channels
Channel positions                        : Front: L C R, Side: L R, LFE
Sampling rate                            : 48.0 kHz
Frame rate                               : 93.750 FPS (512 spf)
Bit depth                                : 24 bits
Compression mode                         : Lossy
Stream size                              : 1.19 GiB (16%)
Language                                 : English
Default                                  : Yes
Forced                                   : No

Text
ID                                       : 3
Format                                   : UTF-8
Codec ID                                 : S_TEXT/UTF8
Codec ID/Info                            : UTF-8 Plain Text
Duration                                 : 3 s 3 ms
Bit rate                                 : 98 b/s
Count of elements                        : 2
Stream size                              : 37.0 Bytes (0%)
Title                                    : English Forcedyes
Language                                 : English
Default                                  : Yes
Forced                                   : Yes

Menu
00:00:00.000                             : en:00:00:00.000
00:04:33.190                             : en:00:04:33.190
00:07:24.235                             : en:00:07:24.235
00:12:07.435                             : en:00:12:07.435
00:16:39.790                             : en:00:16:39.790
00:22:47.616                             : en:00:22:47.616
00:24:59.623                             : en:00:24:59.623
00:30:18.233                             : en:00:30:18.233
00:35:29.794                             : en:00:35:29.794
00:41:32.990                             : en:00:41:32.990
00:45:20.051                             : en:00:45:20.051
00:51:35.676                             : en:00:51:35.676
00:54:11.039                             : en:00:54:11.039
00:57:40.123                             : en:00:57:40.123
01:04:18.521                             : en:01:04:18.521
01:09:18.988                             : en:01:09:18.988
01:12:46.279                             : en:01:12:46.279
01:18:07.391                             : en:01:18:07.391
01:23:20.245                             : en:01:23:20.245
01:27:34.749                             : en:01:27:34.749
01:32:15.947                             : en:01:32:15.947
01:36:40.461                             : en:01:36:40.461
01:40:12.590                             : en:01:40:12.590
01:43:14.814                             : en:01:43:14.814

Скриншоты:



Время раздачи: с 13:00 до 23:00
Alice Through the Looking Glass.2016.BDRip.1080p.NNMClub.mkv.torrent
 Торрент: Платиновая раздача  Зарегистрирован
 
Примагнититься

Скачать
 Зарегистрирован:   28 Сен 2016 16:31:57
 Размер:   7,65 GB  (
 Рейтинг:    (Голосов: 4)
 Поблагодарили:   39
 Проверка:   Оформление проверено модератором 28 Сен 2016 16:32:31
Как cкачать  ·  Как раздать  ·  Правильно оформить  ·  Поднять ратио!  
Показать сообщения:   
Начать новую тему   Ответить на тему    Торрент-трекер NNM-Club -> Зарубежное кино -> Фильмы в оригинале (HD) Часовой пояс: GMT + 3
Страница 1 из 1