Интеллигентный торрент-трекер
canvas not supported
Нас вместе: 4 105 985

Алиса в Зазеркалье / Alice Through the Looking Glass (2016) BDRemux [H.264/1080p] [En / En, Ge, It, Gr, Da, Fi, No, Sw Sub]


 
 
RSS
Начать новую тему   Ответить на тему    Торрент-трекер NNM-Club -> Зарубежное кино -> Фильмы в оригинале (HD)
Автор Сообщение
smaster67 ®
Модератор Видео
Покровитель талантов Uploader 300+
Стаж: 7 лет 5 мес.
Сообщений: 6263
Ratio: 180,187
Поблагодарили: 173936
100%
Алиса в Зазеркалье / Alice Through the Looking Glass (2016) BDRemux [H.264/1080p] [En / En, Ge, It, Gr, Da, Fi, No, Sw Sub]

Производство: США, Великобритания
Жанр: фэнтези, приключения, семейный

Режиссер: Джеймс Бобин
Актеры: Миа Васиковска, Джонни Депп, Хелена Бонем Картер, Энн Хэтэуэй, Саша Барон Коэн, Рис Иванс, Мэтт Лукас, Линдси Дункан, Лео Билл, Джеральдин Джеймс, Эндрю Скотт, Ричард Армитедж

Описание:
На этот раз главной героине предстоит отправиться в путешествие во времени, полное неожиданностей и ярких открытий, чтобы спасти своего друга, Безумного Шляпника.



Продолжительность: 01:52:57
Качество видео: BDRemux
Перевод: Отсутствует
Язык озвучки: Английский
Язык субтитров: английский, немецкий, итальянский, греческий, датский, финский, норвежский, шведский
Вид субтитров: Вшитые

Видео: AVC, 1920x1080 (16:9), 29953 kbps, 23,976 fps, 0,602 bpp
Аудио №1: английский / DTS-HD / 7.1 / 48 kHz / 4965 kbps / 24 bit
Аудио №2: английский / AC3 / 2.0 / 48 kHz / 192 kbps /
Код:
General
Complete name                            : Alice.Through.the.Looking.Glass.2016.BluRay.1080p.DTS-HD.MA.7.1.AVC.REMUX-FraMeSToR\Alice.Through.the.Looking.Glass.2016.BluRay.1080p.DTS-HD.MA.7.1.AVC.REMUX-FraMeSToR.mkv
Format                                   : Matroska
Format version                           : Version 4 / Version 2
File size                                : 28.0 GiB
Duration                                 : 1 h 52 min
Overall bit rate mode                    : Variable
Overall bit rate                         : 35.5 Mb/s
Movie name                               : Alice Through the Looking Glass
Encoded date                             : UTC 2016-09-28 10:21:15
Writing application                      : mkvmerge v9.4.2 ('So High') 64bit
Writing library                          : libebml v1.3.4 + libmatroska v1.4.5

Video
ID                                       : 1
Format                                   : AVC
Format/Info                              : Advanced Video Codec
Format profile                           : High@L4.1
Format settings, CABAC                   : Yes
Format settings, ReFrames                : 4 frames
Codec ID                                 : V_MPEG4/ISO/AVC
Duration                                 : 1 h 52 min
Bit rate mode                            : Variable
Bit rate                                 : 30.0 Mb/s
Maximum bit rate                         : 34.0 Mb/s
Width                                    : 1 920 pixels
Height                                   : 1 080 pixels
Display aspect ratio                     : 16:9
Frame rate mode                          : Constant
Frame rate                               : 23.976 (24000/1001) FPS
Color space                              : YUV
Chroma subsampling                       : 4:2:0
Bit depth                                : 8 bits
Scan type                                : Progressive
Bits/(Pixel*Frame)                       : 0.602
Stream size                              : 23.6 GiB (84%)
Default                                  : Yes
Forced                                   : No

Audio #1
ID                                       : 2
Format                                   : DTS
Format/Info                              : Digital Theater Systems
Format profile                           : MA / Core
Mode                                     : 16
Format settings, Endianness              : Big
Codec ID                                 : A_DTS
Duration                                 : 1 h 52 min
Bit rate mode                            : Variable / Constant
Bit rate                                 : 4 965 kb/s / 1 509 kb/s
Channel(s)                               : 8 channels / 6 channels
Channel positions                        : Front: L C R, Side: L R, Back: L R, LFE / Front: L C R, Side: L R, LFE
Sampling rate                            : 48.0 kHz
Frame rate                               : 93.750 FPS (512 spf)
Bit depth                                : 24 bits
Compression mode                         : Lossless / Lossy
Stream size                              : 3.92 GiB (14%)
Title                                    : DTS-HD MA 7.1
Language                                 : English
Default                                  : Yes
Forced                                   : No

Audio #2
ID                                       : 3
Format                                   : AC-3
Format/Info                              : Audio Coding 3
Mode extension                           : CM (complete main)
Format settings, Endianness              : Big
Codec ID                                 : A_AC3
Duration                                 : 1 h 52 min
Bit rate mode                            : Constant
Bit rate                                 : 192 kb/s
Channel(s)                               : 2 channels
Channel positions                        : Front: L R
Sampling rate                            : 48.0 kHz
Frame rate                               : 31.250 FPS (1536 spf)
Compression mode                         : Lossy
Stream size                              : 155 MiB (1%)
Title                                    : Commentary by Director James Bobin
Language                                 : English
Default                                  : No
Forced                                   : No

Text #1
ID                                       : 4
Format                                   : PGS
Codec ID                                 : S_HDMV/PGS
Codec ID/Info                            : Picture based subtitle format used on BDs/HD-DVDs
Duration                                 : 3 s 3 ms
Bit rate                                 : 62.7 kb/s
Count of elements                        : 4
Stream size                              : 23.0 KiB (0%)
Title                                    : English (Forced only)
Language                                 : English
Default                                  : Yes
Forced                                   : No

Text #2
ID                                       : 5
Format                                   : PGS
Codec ID                                 : S_HDMV/PGS
Codec ID/Info                            : Picture based subtitle format used on BDs/HD-DVDs
Duration                                 : 1 h 52 min
Bit rate                                 : 34.6 kb/s
Count of elements                        : 3634
Stream size                              : 27.7 MiB (0%)
Title                                    : English (SDH)
Language                                 : English
Default                                  : No
Forced                                   : No

Text #3
ID                                       : 6
Format                                   : PGS
Codec ID                                 : S_HDMV/PGS
Codec ID/Info                            : Picture based subtitle format used on BDs/HD-DVDs
Duration                                 : 1 h 51 min
Bit rate                                 : 27.6 kb/s
Count of elements                        : 2658
Stream size                              : 22.1 MiB (0%)
Title                                    : German
Language                                 : German
Default                                  : No
Forced                                   : No

Text #4
ID                                       : 7
Format                                   : PGS
Codec ID                                 : S_HDMV/PGS
Codec ID/Info                            : Picture based subtitle format used on BDs/HD-DVDs
Duration                                 : 1 h 51 min
Bit rate                                 : 26.0 kb/s
Count of elements                        : 2778
Stream size                              : 20.8 MiB (0%)
Title                                    : Italian
Language                                 : Italian
Default                                  : No
Forced                                   : No

Text #5
ID                                       : 8
Format                                   : PGS
Codec ID                                 : S_HDMV/PGS
Codec ID/Info                            : Picture based subtitle format used on BDs/HD-DVDs
Duration                                 : 1 h 51 min
Bit rate                                 : 29.4 kb/s
Count of elements                        : 2778
Stream size                              : 23.5 MiB (0%)
Title                                    : Greek
Language                                 : Greek
Default                                  : No
Forced                                   : No

Text #6
ID                                       : 9
Format                                   : PGS
Codec ID                                 : S_HDMV/PGS
Codec ID/Info                            : Picture based subtitle format used on BDs/HD-DVDs
Duration                                 : 1 h 51 min
Bit rate                                 : 26.4 kb/s
Count of elements                        : 2250
Stream size                              : 21.1 MiB (0%)
Title                                    : Danish
Language                                 : Danish
Default                                  : No
Forced                                   : No

Text #7
ID                                       : 10
Format                                   : PGS
Codec ID                                 : S_HDMV/PGS
Codec ID/Info                            : Picture based subtitle format used on BDs/HD-DVDs
Duration                                 : 1 h 51 min
Bit rate                                 : 26.3 kb/s
Count of elements                        : 2778
Stream size                              : 21.1 MiB (0%)
Title                                    : Finnish
Language                                 : Finnish
Default                                  : No
Forced                                   : No

Text #8
ID                                       : 11
Format                                   : PGS
Codec ID                                 : S_HDMV/PGS
Codec ID/Info                            : Picture based subtitle format used on BDs/HD-DVDs
Duration                                 : 1 h 51 min
Bit rate                                 : 25.9 kb/s
Count of elements                        : 2778
Stream size                              : 20.7 MiB (0%)
Title                                    : Norwegian
Language                                 : Norwegian
Default                                  : No
Forced                                   : No

Text #9
ID                                       : 12
Format                                   : PGS
Codec ID                                 : S_HDMV/PGS
Codec ID/Info                            : Picture based subtitle format used on BDs/HD-DVDs
Duration                                 : 1 h 51 min
Bit rate                                 : 25.1 kb/s
Count of elements                        : 2118
Stream size                              : 20.1 MiB (0%)
Title                                    : Swedish
Language                                 : Swedish
Default                                  : No
Forced                                   : No

Text #10
ID                                       : 13
Format                                   : PGS
Codec ID                                 : S_HDMV/PGS
Codec ID/Info                            : Picture based subtitle format used on BDs/HD-DVDs
Duration                                 : 1 h 52 min
Bit rate                                 : 77.6 kb/s
Count of elements                        : 4732
Stream size                              : 62.6 MiB (0%)
Title                                    : English (Commentary)
Language                                 : English
Default                                  : No
Forced                                   : No

Text #11
ID                                       : 14
Format                                   : PGS
Codec ID                                 : S_HDMV/PGS
Codec ID/Info                            : Picture based subtitle format used on BDs/HD-DVDs
Duration                                 : 1 h 52 min
Bit rate                                 : 67.8 kb/s
Count of elements                        : 4360
Stream size                              : 54.6 MiB (0%)
Title                                    : German (Commentary)
Language                                 : German
Default                                  : No
Forced                                   : No

Text #12
ID                                       : 15
Format                                   : PGS
Codec ID                                 : S_HDMV/PGS
Codec ID/Info                            : Picture based subtitle format used on BDs/HD-DVDs
Duration                                 : 1 h 52 min
Bit rate                                 : 59.8 kb/s
Count of elements                        : 4424
Stream size                              : 48.2 MiB (0%)
Title                                    : Italian (Commentary)
Language                                 : Italian
Default                                  : No
Forced                                   : No

Menu
00:00:00.000                             : en:Chapter 1
00:04:33.189                             : en:Chapter 2
00:07:24.235                             : en:Chapter 3
00:12:07.435                             : en:Chapter 4
00:16:39.790                             : en:Chapter 5
00:22:47.616                             : en:Chapter 6
00:24:59.623                             : en:Chapter 7
00:30:18.233                             : en:Chapter 8
00:35:29.794                             : en:Chapter 9
00:41:32.990                             : en:Chapter 10
00:45:20.050                             : en:Chapter 11
00:51:35.675                             : en:Chapter 12
00:54:11.039                             : en:Chapter 13
00:57:40.123                             : en:Chapter 14
01:04:18.521                             : en:Chapter 15
01:09:18.988                             : en:Chapter 16
01:12:46.278                             : en:Chapter 17
01:18:07.391                             : en:Chapter 18
01:23:20.245                             : en:Chapter 19
01:27:34.749                             : en:Chapter 20
01:32:15.947                             : en:Chapter 21
01:36:40.461                             : en:Chapter 22
01:40:12.589                             : en:Chapter 23
01:43:14.813                             : en:Chapter 24

Скриншоты:



Время раздачи: с 13:00 до 23:00
[NNMClub.to]_Alice.Through.the.Looking.Glass.2016.BluRay.1080p.DTS-HD.MA.7.1.AVC.REMUX-FraMeSToR.mkv.torrent
 Торрент: Золотая раздача  Зарегистрирован
 
Примагнититься
Free Leech
Зарегистрируйтесь и скачайте торрент!
140 KB
 Зарегистрирован:   28 Сен 2016 20:37:52
 Размер:   28 GB  (
 Рейтинг:    (Голосов: 4)
 Поблагодарили:   37
 Проверка:   Оформление проверено модератором 28 Сен 2016 20:39:49
Как cкачать  ·  Как раздать  ·  Правильно оформить  ·  Поднять ратио!  
Показать сообщения:   
Начать новую тему   Ответить на тему    Торрент-трекер NNM-Club -> Зарубежное кино -> Фильмы в оригинале (HD) Часовой пояс: GMT + 3
Страница 1 из 1