Интеллигентный торрент-трекер
canvas not supported
Нас вместе: 4 105 294

Полиция Чикаго / Chicago PD (2016) WEB-DL (H.264/720p-LQ) (сезон 4, серии 1-8 из 22) Шадинский (обновляемая)


 
 
RSS
Начать новую тему   Ответить на тему    Торрент-трекер NNM-Club -> Зарубежные сериалы
Автор Сообщение
venomtver ®
Стаж: 7 лет
Сообщений: 667
Ratio: 71,307
Поблагодарили: 23890
100%
pirates.png
Полиция Чикаго / Chicago PD (2016)
Производство: США
Жанр: боевик, драма, криминал

Режиссер: Марк Тинкер, Артур В. Форни
Актеры: Джон Седа, Джейсон Бех, София Буш, Элиас Котеас, Джесси Ли Софер, Арчи Као, Патрик Джон Флюгер, Марина Скверсьяти, ЛаРойс Хоккинс, Мелисса Сейджмиллер и др.

Описание:
«Полиция Чикаго (Chicago PD)» - спин-офф сериала «Пожарные Чикаго (Chicago Fire)».
В центре сюжета находятся работники полицейского департамента города Чикаго, в частности две группы полицейских, которые находятся на разных ступенях власти.



Релиз от: Шадинский

Продолжительность: ~ 00:43:00 серия
Качество видео: WEB-DL
Перевод: Одноголосый закадровый, профессиональный - Шадинский
Автор перевода: Полина Ким
Вид субтитров: вшитые отключаемые
Язык субтитров: английский

Видео: AVC/H.264, 1280x720, ~3927 Kbps
Аудио #1 Rus: AC3, 6 ch, 384 kbs, CBR - одноголосый закадровый
Аудио #2 Eng: AC3, 6 ch, 384 kbs, CBR - оригинал
Внимание! Раздача ведётся путём добавления новых серий; при каждом добавлении создаётся новый торрент.
Чтобы начать докачку новой серии, пользователям необходимо сделать следующее:
1. Остановить скачивание;
2. Удалить старый торрент у себя из клиента (старые серии удалять не надо);
3. Скачать новый торрент и запустить его у себя в клиенте вместо старого, при этом указать клиенту путь в старую папку куда и должно происходить скачивание новых серий. Ваш клиент при этом должен произвести хеширование (проверку) старой папки и будет докачивать только те серии, которых у вас ещё нет. Старые серии при этом не удаляются, а продолжают раздаваться! Eсли вы уже удалили старые серии, то предотвратить повторную закачку старых серий можно, отжав галочку в соответствующих местах при запуске нового торрента.
Скриншоты:


Все одноименные релизы в Клубе
Время раздачи: с 19:00 - 23:00 (до появления первых 3-5 скачавших)
[NNMClub.to]_Chicago PD s4.torrent
 Торрент: Золотая раздача  Зарегистрирован
 
Примагнититься
Free Leech
Зарегистрируйтесь и скачайте торрент!
115 KB
 Зарегистрирован:   01 Дек 2016 20:23:56
 Размер:   11,4 GB  (
 Рейтинг:   4,8 (Голосов: 38)
 Поблагодарили:   152
 Проверка:   Оформление проверено модератором 02 Дек 2016 06:44:03
Как cкачать  ·  Как раздать  ·  Правильно оформить  ·  Поднять ратио!  

_________________
Sigelei Fuchai 213 | IPV 5 | iStick 100 | Tobh Atty v2 | MutationX v4 | Twisted messes v2 | Doge v3 | Zephyrus v2 | Crius rta |


Последний раз редактировалось: venomtver (01 Дек 2016 20:23:50), всего редактировалось 10 раз(а)
odissar
Стаж: 5 лет 10 мес.
Сообщений: 42
Ratio: 9,38
Раздал: 20,19 TB
1.53%
Ребята, делайте меньше размер, спасибо.
lepiskun
Стаж: 7 лет 5 мес.
Сообщений: 53
Ratio: 27,409
Поблагодарили: 137
85.24%
Размер хороший, не слушайте odissar :)
Я за качество
Vassss
Стаж: 6 лет 8 мес.
Сообщений: 66
Ratio: 2,309
86.04%
Откуда: PORTO
portugal.gif
ЧуднО! Вчера была вторая серия, скачал и посмотрел, а сегодня нет!
venomtver ®
Стаж: 7 лет
Сообщений: 667
Ratio: 71,307
Поблагодарили: 23890
100%
pirates.png
Добавлена вторая серия.
General
Unique ID : 208096562824599605653824945931991408716 (0x9C8DF0AEC567E8A3A9E871E46474604C)
Complete name : E:\Video2\Сериалы\Chicago PD s4\Chicago.P.D.S04E02.mkv
Format : Matroska
Format version : Version 4 / Version 2
File size : 1.41 GiB
Duration : 42 min 8 s
Overall bit rate : 4 799 kb/s
Encoded date : UTC 2016-10-03 11:38:43
Writing application : mkvmerge v6.7.0 ('Back to the Ground') 64bit built on Jan 8 2014 15:10:52
Writing library : libebml v1.3.0 + libmatroska v1.4.1

Video
ID : 1
Format : AVC
Format/Info : Advanced Video Codec
Format profile : High@L3.1
Format settings, CABAC : No
Format settings, ReFrames : 2 frames
Codec ID : V_MPEG4/ISO/AVC
Duration : 42 min 8 s
Bit rate : 3 935 kb/s
Width : 1 280 pixels
Height : 720 pixels
Display aspect ratio : 16:9
Frame rate mode : Constant
Frame rate : 23.976 (24000/1001) FPS
Color space : YUV
Chroma subsampling : 4:2:0
Bit depth : 8 bits
Scan type : Progressive
Bits/(Pixel*Frame) : 0.178
Stream size : 1.16 GiB (82%)
Language : English
Default : Yes
Forced : No
Color range : Limited
Color primaries : BT.709
Transfer characteristics : BT.709
Matrix coefficients : BT.709

Audio #1
ID : 2
Format : AC-3
Format/Info : Audio Coding 3
Mode extension : CM (complete main)
Format settings, Endianness : Big
Codec ID : A_AC3
Duration : 42 min 8 s
Bit rate mode : Constant
Bit rate : 384 kb/s
Channel(s) : 6 channels
Channel positions : Front: L C R, Side: L R, LFE
Sampling rate : 48.0 kHz
Frame rate : 31.250 FPS (1536 spf)
Compression mode : Lossy
Stream size : 116 MiB (8%)
Language : Russian
Default : Yes
Forced : No

Audio #2
ID : 3
Format : AC-3
Format/Info : Audio Coding 3
Mode extension : CM (complete main)
Format settings, Endianness : Big
Codec ID : A_AC3
Duration : 42 min 8 s
Bit rate mode : Constant
Bit rate : 384 kb/s
Channel(s) : 6 channels
Channel positions : Front: L C R, Side: L R, LFE
Sampling rate : 48.0 kHz
Frame rate : 31.250 FPS (1536 spf)
Compression mode : Lossy
Stream size : 116 MiB (8%)
Language : English
Default : No
Forced : No

Text
ID : 4
Format : UTF-8
Codec ID : S_TEXT/UTF8
Codec ID/Info : UTF-8 Plain Text
Language : English
Default : No
Forced : No
Vassss, Был косяк с видео. Сейчас все нормально.
Удалите 2 серию и перекачайте торрент.

_________________
Sigelei Fuchai 213 | IPV 5 | iStick 100 | Tobh Atty v2 | MutationX v4 | Twisted messes v2 | Doge v3 | Zephyrus v2 | Crius rta |
venomtver ®
Стаж: 7 лет
Сообщений: 667
Ratio: 71,307
Поблагодарили: 23890
100%
pirates.png
Добавлена третья серия.

_________________
Sigelei Fuchai 213 | IPV 5 | iStick 100 | Tobh Atty v2 | MutationX v4 | Twisted messes v2 | Doge v3 | Zephyrus v2 | Crius rta |
venomtver ®
Стаж: 7 лет
Сообщений: 667
Ratio: 71,307
Поблагодарили: 23890
100%
pirates.png
Добавлена 4 серия.

_________________
Sigelei Fuchai 213 | IPV 5 | iStick 100 | Tobh Atty v2 | MutationX v4 | Twisted messes v2 | Doge v3 | Zephyrus v2 | Crius rta |
venomtver ®
Стаж: 7 лет
Сообщений: 667
Ratio: 71,307
Поблагодарили: 23890
100%
pirates.png
Добавлена 5 серия.

_________________
Sigelei Fuchai 213 | IPV 5 | iStick 100 | Tobh Atty v2 | MutationX v4 | Twisted messes v2 | Doge v3 | Zephyrus v2 | Crius rta |
venomtver ®
Стаж: 7 лет
Сообщений: 667
Ratio: 71,307
Поблагодарили: 23890
100%
pirates.png
Добавлена 6 серия.

_________________
Sigelei Fuchai 213 | IPV 5 | iStick 100 | Tobh Atty v2 | MutationX v4 | Twisted messes v2 | Doge v3 | Zephyrus v2 | Crius rta |
venomtver ®
Стаж: 7 лет
Сообщений: 667
Ratio: 71,307
Поблагодарили: 23890
100%
pirates.png
Добавлена 7 серия.

_________________
Sigelei Fuchai 213 | IPV 5 | iStick 100 | Tobh Atty v2 | MutationX v4 | Twisted messes v2 | Doge v3 | Zephyrus v2 | Crius rta |
Kaganovich
Стаж: 6 лет 7 мес.
Сообщений: 28
Ratio: 9,741
90.09%
На мой взгляд слишком много душещипательных и нравоучительных разговоров, а доверия к товарищам нет. Готовы посадить друг друга. Штатовская мораль - каждый за себя.
venomtver ®
Стаж: 7 лет
Сообщений: 667
Ratio: 71,307
Поблагодарили: 23890
100%
pirates.png
Добавлена 8 серия.

_________________
Sigelei Fuchai 213 | IPV 5 | iStick 100 | Tobh Atty v2 | MutationX v4 | Twisted messes v2 | Doge v3 | Zephyrus v2 | Crius rta |
Показать сообщения:   
Начать новую тему   Ответить на тему    Торрент-трекер NNM-Club -> Зарубежные сериалы Часовой пояс: GMT + 3
Страница 1 из 1