Интеллигентный торрент-трекер
canvas not supported
Нас вместе: 4 304 899

Cell - Discography 5 Releases (2005-2009) [FLAC|Lossless|tracks+.cue, tracks] <Psybient, Downtempo, Psychill, Ambient>


 
 
RSS
Начать новую тему   Ответить на тему    Торрент-трекер NNM-Club -> Electronic -> Easy listening (Lossless)
Автор Сообщение
vilator ®
Модератор Музыки
RG Music
 
Стаж: 7 лет 11 мес.
Сообщений: 5696
Ratio: 125,277
Поблагодарили: 111863
100%
Откуда: Minsk
pirates.png
Cell Discography

Alexandre Scheffer - французский музыкант, работающий в стилях эмбиент и псайчилл.
Жанр: Psybient, Downtempo, Psychill, Ambient • Страна: France • Год издания: 2005-2009 • Тип издания: CD, Web
Аудиокодек: FLAC (*.flac) • Тип рипа: tracks+.cue, tracks • Продолжительность: 06:05:20 • Источник: What, Waffles, Bandcamp
Треклист:
Год выпуска: 2005
Продолжительность: 01:10:33
Треклист:

01. Sensitiv' Garden (05:22)
02. Mister Ayatih (11:26)
03. Zaz (09:38)
04. Magic Karma (05:44)
05. Soon (07:04)
06. Lord Of Silk (05:32)
07. White Call (08:29)
08. Phonic Peace For Tibet (07:58)
09. Orange (09:20)

Exact Audio Copy V0.99 prebeta 4 from 23. January 2008

EAC extraction logfile from 17. July 2008, 15:42

Cell / Phonic Peace

Used drive : TSSTcorpCD/DVDW TS-H552U Adapter: 3 ID: 0

Read mode : Secure
Utilize accurate stream : Yes
Defeat audio cache : Yes
Make use of C2 pointers : No

Read offset correction : 12
Overread into Lead-In and Lead-Out : No
Fill up missing offset samples with silence : Yes
Delete leading and trailing silent blocks : No
Null samples used in CRC calculations : Yes
Used interface : Native Win32 interface for Win NT & 2000
Gap handling : Appended to previous track

Used output format : User Defined Encoder
Selected bitrate : 128 kBit/s
Quality : High
Add ID3 tag : No
Command line compressor : C:\Program Files\Exact Audio Copy\Flac\flac.exe
Additional command line options : -V -8 -T "artist=%a" -T "title=%t" -T "album=%g" -T "date=%y" -T "tracknumber=%n" -T "genre=%m" %s

TOC of the extracted CD

Track | Start | Length | Start sector | End sector
---------------------------------------------------------
1 | 0:00.00 | 5:21.53 | 0 | 24127
2 | 5:21.53 | 11:25.72 | 24128 | 75574
3 | 16:47.50 | 9:37.60 | 75575 | 118909
4 | 26:25.35 | 5:43.68 | 118910 | 144702
5 | 32:09.28 | 7:04.16 | 144703 | 176518
6 | 39:13.44 | 5:31.66 | 176519 | 201409
7 | 44:45.35 | 8:29.25 | 201410 | 239609
8 | 53:14.60 | 7:58.30 | 239610 | 275489
9 | 61:13.15 | 9:19.42 | 275490 | 317456

Track 1

Filename D:\WAFFLE_IRON\Cell - Phonic Peace (2005)\01 - Sensitiv' Garden.wav

Pre-gap length 0:00:02.00

Peak level 87.4 %
Track quality 100.0 %
Test CRC 9515F176
Copy CRC 9515F176
Accurately ripped (confidence 3) [49C6D7E9]
Copy OK

Track 2

Filename D:\WAFFLE_IRON\Cell - Phonic Peace (2005)\02 - Mister Ayatih.wav

Peak level 91.9 %
Track quality 100.0 %
Test CRC 6CB14A39
Copy CRC 6CB14A39
Accurately ripped (confidence 3) [86541C47]
Copy OK

Track 3

Filename D:\WAFFLE_IRON\Cell - Phonic Peace (2005)\03 - Zaz.wav

Peak level 91.9 %
Track quality 99.9 %
Test CRC 88D6D444
Copy CRC 88D6D444
Accurately ripped (confidence 3) [C5B98515]
Copy OK

Track 4

Filename D:\WAFFLE_IRON\Cell - Phonic Peace (2005)\04 - Magic Karma.wav

Peak level 91.9 %
Track quality 100.0 %
Test CRC 278014B9
Copy CRC 278014B9
Accurately ripped (confidence 3) [9916EFA6]
Copy OK

Track 5

Filename D:\WAFFLE_IRON\Cell - Phonic Peace (2005)\05 - Soon.wav

Peak level 91.8 %
Track quality 100.0 %
Test CRC 7217C30C
Copy CRC 7217C30C
Accurately ripped (confidence 3) [607FD542]
Copy OK

Track 6

Filename D:\WAFFLE_IRON\Cell - Phonic Peace (2005)\06 - Lord Of Silk.wav

Peak level 91.9 %
Track quality 100.0 %
Test CRC EA3BF4EC
Copy CRC EA3BF4EC
Accurately ripped (confidence 3) [656C4B52]
Copy OK

Track 7

Filename D:\WAFFLE_IRON\Cell - Phonic Peace (2005)\07 - White Call.wav

Peak level 91.9 %
Track quality 100.0 %
Test CRC A52AF1ED
Copy CRC A52AF1ED
Accurately ripped (confidence 3) [4D007D81]
Copy OK

Track 8

Filename D:\WAFFLE_IRON\Cell - Phonic Peace (2005)\08 - Phonic Peace for Tibet.wav

Peak level 91.6 %
Track quality 100.0 %
Test CRC 890BA86C
Copy CRC 890BA86C
Accurately ripped (confidence 3) [5252F3F5]
Copy OK

Track 9

Filename D:\WAFFLE_IRON\Cell - Phonic Peace (2005)\09 - Orange.wav

Peak level 91.6 %
Track quality 100.0 %
Test CRC 1E4217AF
Copy CRC 1E4217AF
Accurately ripped (confidence 2) [60C05047]
Copy OK

All tracks accurately ripped

No errors occurred

End of status report


REM GENRE Ambient
REM DATE 2005
REM DISCID 85108809
REM COMMENT "ExactAudioCopy v0.99pb4"
PERFORMER "Cell"
TITLE "Phonic Peace"
FILE "01 - Sensitiv' Garden.wav" WAVE
TRACK 01 AUDIO
TITLE "Sensitiv' Garden"
PERFORMER "Cell"
INDEX 01 00:00:00
FILE "02 - Mister Ayatih.wav" WAVE
TRACK 02 AUDIO
TITLE "Mister Ayatih"
PERFORMER "Cell"
INDEX 01 00:00:00
FILE "03 - Zaz.wav" WAVE
TRACK 03 AUDIO
TITLE "Zaz"
PERFORMER "Cell"
INDEX 01 00:00:00
FILE "04 - Magic Karma.wav" WAVE
TRACK 04 AUDIO
TITLE "Magic Karma"
PERFORMER "Cell"
INDEX 01 00:00:00
FILE "05 - Soon.wav" WAVE
TRACK 05 AUDIO
TITLE "Soon"
PERFORMER "Cell"
INDEX 01 00:00:00
FILE "06 - Lord Of Silk.wav" WAVE
TRACK 06 AUDIO
TITLE "Lord Of Silk"
PERFORMER "Cell"
INDEX 01 00:00:00
FILE "07 - White Call.wav" WAVE
TRACK 07 AUDIO
TITLE "White Call"
PERFORMER "Cell"
INDEX 01 00:00:00
FILE "08 - Phonic Peace for Tibet.wav" WAVE
TRACK 08 AUDIO
TITLE "Phonic Peace for Tibet"
PERFORMER "Cell"
INDEX 01 00:00:00
FILE "09 - Orange.wav" WAVE
TRACK 09 AUDIO
TITLE "Orange"
PERFORMER "Cell"
INDEX 01 00:00:00

Год выпуска: 2007
Продолжительность: 01:08:57
Треклист:

01. Misty Morning (Live Edit) (08:17)
02. Father (Live Edit) (11:53)
03. Audio Deepest Night (Live Edit) (09:37)
04. Shiny Girl (Live Edit) (08:32)
05. Hawaii Transit (Live Edit) (12:14)
06. T-Ion Part 1 (Live Edit) (11:22)
07. T-Ion Part 2 (Live Edit) (07:02)

-----------------------

DON'T MODIFY THIS FILE

-----------------------

PERFORMER: auCDtect Task Manager, ver. 1.5.1RC3 build 1.5.1.4
Copyright (c) 2008-2010 y-soft. All rights reserved
http://y-soft.org

ANALYZER: auCDtect: CD records authenticity detector, version 0.8.2
Copyright (c) 2004 Oleg Berngardt. All rights reserved.
Copyright (c) 2004 Alexander Djourik. All rights reserved.

FILE: 07. T-Ion Part 2 (Live Edit).flac
Size: 39130365 Hash: ACF17DB60F3D324CB26EAC462B9745ED Accuracy: -m0
Conclusion: CDDA 100%
Signature: 8BF9C3BEDDB5A323022996CD864062AE04354B8A
FILE: 06. T-Ion Part 1 (Live Edit).flac
Size: 67132990 Hash: B4B4FFA7C2131A80E50F49DB8949FA1F Accuracy: -m0
Conclusion: CDDA 100%
Signature: 64E165EBF37C60153B75D0525A732E6CC42BCF45
FILE: 05. Hawaii Transit (Live Edit).flac
Size: 71560389 Hash: 647AD50052E3D318114785B4C194BC63 Accuracy: -m0
Conclusion: CDDA 100%
Signature: 994BACF83C855F90B9D11C5A53C0937A3AE61DD7
FILE: 04. Shiny Girl (Live Edit).flac
Size: 62142290 Hash: 415B2162B2B921F661230C96C6E68434 Accuracy: -m0
Conclusion: CDDA 100%
Signature: 65A48FA21D455E2DF1E968B948CA0D552C11E7ED
FILE: 03. Audio Deepest Night (Live Edit).flac
Size: 53010583 Hash: A6C308AFAB9DB0C556386155ED9379B7 Accuracy: -m0
Conclusion: CDDA 100%
Signature: DA43E0EB763709F0B97A5D4BD6D944D6C538BF2C
FILE: 02. Father (Live Edit).flac
Size: 65789898 Hash: DB94030C12690117599F531F8A8374F4 Accuracy: -m0
Conclusion: CDDA 100%
Signature: 296F51CB95EA60B62E1BBD022CCAF3E89F20C870
FILE: 01. Misty Morning (Live Edit).flac
Size: 45697223 Hash: 8762F5A69361349498022E0D8382F0FD Accuracy: -m0
Conclusion: CDDA 100%
Signature: 504B9DF4B583031BE075C261AFA15951A33F7435

Год выпуска: 2007
Продолжительность: 01:13:31
Треклист:

01. The Gate (08:17)
02. Above The Clouds (11:22)
03. Misty Morning (13:39)
04. Under Your Mind (09:37)
05. T-Ion (Part 2) (09:12)
06. Hawaii Transit (13:25)
07. Shiny Girl (07:59)

-----------------------

DON'T MODIFY THIS FILE

-----------------------

PERFORMER: auCDtect Task Manager, ver. 1.5.1RC6 build 1.5.1.7
Copyright (c) 2008-2010 y-soft. All rights reserved
http://y-soft.org

ANALYZER: auCDtect: CD records authenticity detector, version 0.8.2
Copyright (c) 2004 Oleg Berngardt. All rights reserved.
Copyright (c) 2004 Alexander Djourik. All rights reserved.

FILE: 07. Shiny Girl.flac
Size: 66111589 Hash: 9508E87E7141664085CD4B3D9A6F6749 Accuracy: -m0
Conclusion: CDDA 100%
Signature: 2F5397D0B0837DA436C388163EDA6C703A56026A
FILE: 06. Hawaii Transit.flac
Size: 82435340 Hash: FFE419199C300752A0EA0E89527129EC Accuracy: -m0
Conclusion: CDDA 100%
Signature: 9CD245F654A8CF20AFEC7EFD5D013CB8DA86EB44
FILE: 05. T-Ion (Part 2).flac
Size: 53294094 Hash: 4278F94A94A5A8F67ED009CDA4B8FFD0 Accuracy: -m0
Conclusion: CDDA 100%
Signature: DEC09EF656129D9F15B37AF2F6B61BC25AED8A96
FILE: 04. Under Your Mind.flac
Size: 54507730 Hash: F460EEC591859439D4C562EE640650C7 Accuracy: -m0
Conclusion: CDDA 100%
Signature: 67E19E4AEAE33A438FC97914228F8615BBE37166
FILE: 03. Misty Morning.flac
Size: 79405993 Hash: 5BF3A301BF1F8FA3CB4059C2A3616815 Accuracy: -m0
Conclusion: CDDA 100%
Signature: 6A5772013DF2CE1C1A339D637E362905C5656B71
FILE: 02. Above The Clouds.flac
Size: 71479322 Hash: 950688364A80E2F07D414219173D2302 Accuracy: -m0
Conclusion: CDDA 100%
Signature: 66EBC62D8F8268CD0098A1167C9AF27061DB235D
FILE: 01. The Gate.flac
Size: 44901989 Hash: 1A59D86D764AD50EC87AC6F56F47FE73 Accuracy: -m0
Conclusion: CDDA 100%
Signature: FAA7CBF99AB9F0F329F6057DF974B5C7DF67DF01

Год выпуска: 2008
Продолжительность: 01:19:43
Треклист:

01. 12 Inch Gold (09:45)
02. Spinning Whale (08:10)
03. Audio Deepest Night (05:25)
04. Blue Embers (04:49)
05. Fusion (08:55)
06. Misty Morning (15:43)
07. Hawai Transit (14:42)
08. Erasing Pluto (12:14)

Exact Audio Copy V1.0 beta 1 from 15. November 2010

EAC extraction logfile from 25. February 2011, 21:34

Cell / Ketama Live Vol. 2

Used drive : OPTIARC DVD-ROM DDU1678A Adapter: 0 ID: 1

Read mode : Secure
Utilize accurate stream : Yes
Defeat audio cache : Yes
Make use of C2 pointers : No

Read offset correction : 6
Overread into Lead-In and Lead-Out : No
Fill up missing offset samples with silence : Yes
Delete leading and trailing silent blocks : No
Null samples used in CRC calculations : Yes
Used interface : Native Win32 interface for Win NT & 2000
Gap handling : Appended to previous track

Used output format : User Defined Encoder
Selected bitrate : 896 kBit/s
Quality : High
Add ID3 tag : No
Command line compressor : C:\Program Files\Exact Audio Copy\Flac\flac.exe
Additional command line options : -8 -V -T "ARTIST=%a" -T "TITLE=%t" -T "ALBUM=%g" -T "DATE=%y" -T "TRACKNUMBER=%n" -T "TOTALTRACKS=%x" -T "GENRE=%m" -T "ALBUM ARTIST=%v" -T "ALBUMARTIST=%v" -T "COMMENT=EAC V1.0 Beta 1, Secure Mode, Test & Copy, AccurateRip

TOC of the extracted CD

Track | Start | Length | Start sector | End sector
---------------------------------------------------------
1 | 0:00.00 | 9:44.61 | 0 | 43860
2 | 9:44.61 | 8:09.61 | 43861 | 80596
3 | 17:54.47 | 5:25.23 | 80597 | 104994
4 | 23:19.70 | 4:48.54 | 104995 | 126648
5 | 28:08.49 | 8:54.72 | 126649 | 166770
6 | 37:03.46 | 15:43.08 | 166771 | 237503
7 | 52:46.54 | 14:41.41 | 237504 | 303619
8 | 67:28.20 | 12:13.67 | 303620 | 358661

Track 1

Filename H:\Torrents\Cell - Ketama Live Vol. 2 (2008) [FLAC]\01. Cell - 12 Inch Gold.wav

Pre-gap length 0:00:02.00

Peak level 97.7 %
Extraction speed 2.3 X
Track quality 100.0 %
Test CRC DCEE0641
Copy CRC DCEE0641
Accurately ripped (confidence 4) [F97D4E17]
Copy OK

Track 2

Filename H:\Torrents\Cell - Ketama Live Vol. 2 (2008) [FLAC]\02. Cell - Spinning Whale.wav

Peak level 97.7 %
Extraction speed 2.4 X
Track quality 100.0 %
Test CRC AB1C6B9C
Copy CRC AB1C6B9C
Accurately ripped (confidence 4) [53F7801B]
Copy OK

Track 3

Filename H:\Torrents\Cell - Ketama Live Vol. 2 (2008) [FLAC]\03. Cell - Audio Deepest Night.wav

Peak level 97.7 %
Extraction speed 2.6 X
Track quality 100.0 %
Test CRC A5EF2691
Copy CRC A5EF2691
Accurately ripped (confidence 4) [DD275035]
Copy OK

Track 4

Filename H:\Torrents\Cell - Ketama Live Vol. 2 (2008) [FLAC]\04. Cell - Blue Embers.wav

Peak level 97.7 %
Extraction speed 2.7 X
Track quality 100.0 %
Test CRC B4FF0577
Copy CRC B4FF0577
Accurately ripped (confidence 4) [CC78B89D]
Copy OK

Track 5

Filename H:\Torrents\Cell - Ketama Live Vol. 2 (2008) [FLAC]\05. Cell - Fusion.wav

Peak level 97.7 %
Extraction speed 2.5 X
Track quality 99.9 %
Test CRC 7C33C445
Copy CRC 7C33C445
Accurately ripped (confidence 4) [B6C67CF6]
Copy OK

Track 6

Filename H:\Torrents\Cell - Ketama Live Vol. 2 (2008) [FLAC]\06. Cell - Misty Morning.wav

Peak level 97.7 %
Extraction speed 3.6 X
Track quality 100.0 %
Test CRC D18C8709
Copy CRC D18C8709
Accurately ripped (confidence 4) [64B3A099]
Copy OK

Track 7

Filename H:\Torrents\Cell - Ketama Live Vol. 2 (2008) [FLAC]\07. Cell - Hawai Transit.wav

Peak level 97.7 %
Extraction speed 4.0 X
Track quality 100.0 %
Test CRC 290E4BF4
Copy CRC 290E4BF4
Accurately ripped (confidence 4) [5962FB2D]
Copy OK

Track 8

Filename H:\Torrents\Cell - Ketama Live Vol. 2 (2008) [FLAC]\08. Cell - Erasing Pluto.wav

Peak level 97.7 %
Extraction speed 4.3 X
Track quality 100.0 %
Test CRC 294820DD
Copy CRC 294820DD
Accurately ripped (confidence 4) [91A481E7]
Copy OK

All tracks accurately ripped

No errors occurred

End of status report

==== Log checksum 0F38664BF1DD09AB7A467A3557B7D543016D8EF0680AF0613022DC1D6A860F9C ====


REM GENRE "Downtempo, Ambient"
REM DATE 2008
REM DISCID 5F12AE08
REM COMMENT "ExactAudioCopy v1.0b1"
PERFORMER "Cell"
TITLE "Ketama Live Vol. 2"
FILE "01. Cell - 12 Inch Gold.wav" WAVE
TRACK 01 AUDIO
TITLE "12 Inch Gold"
PERFORMER "Cell"
INDEX 01 00:00:00
FILE "02. Cell - Spinning Whale.wav" WAVE
TRACK 02 AUDIO
TITLE "Spinning Whale"
PERFORMER "Cell"
INDEX 01 00:00:00
FILE "03. Cell - Audio Deepest Night.wav" WAVE
TRACK 03 AUDIO
TITLE "Audio Deepest Night"
PERFORMER "Cell"
INDEX 01 00:00:00
FILE "04. Cell - Blue Embers.wav" WAVE
TRACK 04 AUDIO
TITLE "Blue Embers"
PERFORMER "Cell"
INDEX 01 00:00:00
FILE "05. Cell - Fusion.wav" WAVE
TRACK 05 AUDIO
TITLE "Fusion"
PERFORMER "Cell"
INDEX 01 00:00:00
FILE "06. Cell - Misty Morning.wav" WAVE
TRACK 06 AUDIO
TITLE "Misty Morning"
PERFORMER "Cell"
INDEX 01 00:00:00
FILE "07. Cell - Hawai Transit.wav" WAVE
TRACK 07 AUDIO
TITLE "Hawai Transit"
PERFORMER "Cell"
INDEX 01 00:00:00
FILE "08. Cell - Erasing Pluto.wav" WAVE
TRACK 08 AUDIO
TITLE "Erasing Pluto"
PERFORMER "Cell"
INDEX 01 00:00:00

Год выпуска: 2009
Продолжительность: 01:12:38
Треклист:

01. Calling (08:52)
02. Switch Off (feat. Aes Dana) (08:31)
03. Second Shape Part I (09:03)
04. Risky Nap Under Blue Tree (06:36)
05. Hanging Masses (10:49)
06. Vapor (08:33)
07. Second Shape Part II (09:00)
08. Universal Sunrise (11:14)

Exact Audio Copy V0.99 prebeta 5 from 4. May 2009

EAC extraction logfile from 21. December 2009, 19:29

Cell / Hanging Masses

Used drive : PIONEER DVD-RW DVR-212D Adapter: 2 ID: 0

Read mode : Secure
Utilize accurate stream : Yes
Defeat audio cache : Yes
Make use of C2 pointers : No

Read offset correction : 48
Overread into Lead-In and Lead-Out : No
Fill up missing offset samples with silence : Yes
Delete leading and trailing silent blocks : No
Null samples used in CRC calculations : Yes
Used interface : Native Win32 interface for Win NT & 2000
Gap handling : Appended to previous track

Used output format : User Defined Encoder
Selected bitrate : 128 kBit/s
Quality : High
Add ID3 tag : No
Command line compressor : C:\Program Files\FLAC\bin\flac.exe
Additional command line options : -8 -V -T "ARTIST=%a" -T "TITLE=%t" -T "ALBUM=%g" -T "DATE=%y" -T "TRACKNUMBER=%n" -T "GENRE=%m" %s

TOC of the extracted CD

Track | Start | Length | Start sector | End sector
---------------------------------------------------------
1 | 0:00.00 | 8:52.05 | 0 | 39904
2 | 8:52.05 | 8:30.60 | 39905 | 78214
3 | 17:22.65 | 9:02.69 | 78215 | 118933
4 | 26:25.59 | 6:35.66 | 118934 | 148624
5 | 33:01.50 | 10:48.57 | 148625 | 197281
6 | 43:50.32 | 8:32.39 | 197282 | 235720
7 | 52:22.71 | 8:59.51 | 235721 | 276196
8 | 61:22.47 | 11:13.60 | 276197 | 326731

Track 1

Filename H:\Cell - Hanging Masses (2009) [FLAC]\01 - Calling.wav

Pre-gap length 0:00:02.00

Peak level 88.1 %
Track quality 100.0 %
Test CRC 2BC29C9B
Copy CRC 2BC29C9B
Track not present in AccurateRip database
Copy OK

Track 2

Filename H:\Cell - Hanging Masses (2009) [FLAC]\02 - Switch Off (featuring AES Dana).wav

Peak level 92.2 %
Track quality 100.0 %
Test CRC F74D0DAD
Copy CRC F74D0DAD
Track not present in AccurateRip database
Copy OK

Track 3

Filename H:\Cell - Hanging Masses (2009) [FLAC]\03 - Second Shape part I.wav

Peak level 91.7 %
Track quality 99.9 %
Test CRC 01808441
Copy CRC 01808441
Track not present in AccurateRip database
Copy OK

Track 4

Filename H:\Cell - Hanging Masses (2009) [FLAC]\04 - Risky Nap Under Blue Tree.wav

Peak level 92.2 %
Track quality 100.0 %
Test CRC 58A47BD3
Copy CRC 58A47BD3
Track not present in AccurateRip database
Copy OK

Track 5

Filename H:\Cell - Hanging Masses (2009) [FLAC]\05 - Hanging Masses.wav

Peak level 92.2 %
Track quality 100.0 %
Test CRC A3A70C05
Copy CRC A3A70C05
Track not present in AccurateRip database
Copy OK

Track 6

Filename H:\Cell - Hanging Masses (2009) [FLAC]\06 - Vapor.wav

Peak level 90.1 %
Track quality 100.0 %
Test CRC 93757E04
Copy CRC 93757E04
Track not present in AccurateRip database
Copy OK

Track 7

Filename H:\Cell - Hanging Masses (2009) [FLAC]\07 - Second Shape part II.wav

Peak level 90.6 %
Track quality 100.0 %
Test CRC 91007029
Copy CRC 91007029
Track not present in AccurateRip database
Copy OK

Track 8

Filename H:\Cell - Hanging Masses (2009) [FLAC]\08 - Universal Sunrise.wav

Peak level 88.6 %
Track quality 100.0 %
Test CRC BC4AD40D
Copy CRC BC4AD40D
Track not present in AccurateRip database
Copy OK

None of the tracks are present in the AccurateRip database

No errors occurred

End of status report


REM GENRE Ambient
REM DATE 2009
REM DISCID 6F110408
REM COMMENT "ExactAudioCopy v0.99pb5"
CATALOG 3760180500239
PERFORMER "Cell"
TITLE "Hanging Masses"
FILE "01 - Calling.wav" WAVE
TRACK 01 AUDIO
TITLE "Calling"
PERFORMER "Cell"
INDEX 01 00:00:00
FILE "02 - Switch Off (featuring AES Dana).wav" WAVE
TRACK 02 AUDIO
TITLE "Switch Off (featuring AES Dana)"
PERFORMER "Cell"
INDEX 01 00:00:00
FILE "03 - Second Shape part I.wav" WAVE
TRACK 03 AUDIO
TITLE "Second Shape part I"
PERFORMER "Cell"
INDEX 01 00:00:00
FILE "04 - Risky Nap Under Blue Tree.wav" WAVE
TRACK 04 AUDIO
TITLE "Risky Nap Under Blue Tree"
PERFORMER "Cell"
INDEX 01 00:00:00
FILE "05 - Hanging Masses.wav" WAVE
TRACK 05 AUDIO
TITLE "Hanging Masses"
PERFORMER "Cell"
INDEX 01 00:00:00
FILE "06 - Vapor.wav" WAVE
TRACK 06 AUDIO
TITLE "Vapor"
PERFORMER "Cell"
INDEX 01 00:00:00
FILE "07 - Second Shape part II.wav" WAVE
TRACK 07 AUDIO
TITLE "Second Shape part II"
PERFORMER "Cell"
INDEX 01 00:00:00
FILE "08 - Universal Sunrise.wav" WAVE
TRACK 08 AUDIO
TITLE "Universal Sunrise"
PERFORMER "Cell"
INDEX 01 00:00:00

Время раздачи: 12/7
[NNMClub.to]_Cell FLAC.torrent
 Торрент:   Зарегистрирован
 
Примагнититься
Free Leech
Зарегистрируйтесь и скачайте торрент!
25,8 KB
 Зарегистрирован:   29 Сен 2016 03:32:26
 Размер:   1,97 GB  (
 Рейтинг:    (Голосов: 8)
 Поблагодарили:   43
 Проверка:   Оформление проверено модератором 29 Сен 2016 03:32:57
Как cкачать  ·  Как раздать  ·  Правильно оформить  ·  Поднять ратио!  
Показать сообщения:   
Начать новую тему   Ответить на тему    Торрент-трекер NNM-Club -> Electronic -> Easy listening (Lossless) Часовой пояс: GMT + 3
Страница 1 из 1