Интеллигентный торрент-трекер
canvas not supported
Нас вместе: 4 200 472

Охотники за привидениями / Ghostbusters (2016) BDRemux [H.264/1080p] [EN / EN, Sp Sub] [Extended Cut]


 
 
RSS
Начать новую тему   Ответить на тему    Торрент-трекер NNM-Club -> Зарубежное кино -> Фильмы в оригинале (HD)
Автор Сообщение
smaster67 ®
Модератор Видео
Покровитель талантов Uploader 300+
Стаж: 7 лет 6 мес.
Сообщений: 6395
Ratio: 186,962
Поблагодарили: 180305
100%
Охотники за привидениями / Ghostbusters (2016) BDRemux [H.264/1080p] [EN / EN, Sp Sub] [Extended Cut]

Производство: США, Австралия
Жанр: фантастика, фэнтези, боевик, комедия

Режиссер: Пол Фиг
Актеры: Мелисса МакКарти, Кристен Уиг, Кейт МакКиннон, Лесли Джонс, Крис Хемсворт, Сесили Стронг, Энди Гарсиа, Нил Кэйси, Чарльз Дэнс, Майкл Кеннет Уильямс, Мэтт Уолш, Майкл МакДональд

Описание:
Тридцать лет назад охотники за привидениями спасли Нью-Йорк от нашествия призраков, но теперь городу вновь угрожает опасность. Былые герои не могут стать на его защиту, но находятся и другие отважные люди, всю свою жизнь посвятившие изучению паранормальных явлений. Эбби Йейтс объединяется с Эрин Гилберт, пожалуй лучшим специалистом в квантовой физике, и вместе они собирают команду новых охотников за привидениями, в которую принимают отличного инженера Джиллиан Хольцман, сотрудницу метрополитена Пэтти Толан, знающую город как свои пять пальцев, и секретаря - настоящего красавчика Кэвина. Вместе они начинают борьбу с нечистой силой, терроризирующей мегаполис...



Продолжительность: 02:13:44
Качество видео: BDRemux
Перевод: Отсутствует
Язык озвучки: Английский
Язык субтитров: английский, испанский
Вид субтитров: Вшитые

Видео: AVC, 1920x1080 (16:9), 21773 kbps, 23,976 fps, 0,438 bpp
Аудио №1: английский / DTS-HD / 5.1 / 48 kHz / 2283 kbps / 16 bit (Core: 5.1 / 48 kHz / 1509 kbps / 16 bit)
Аудио №2: английский / AC3 / 2.0 / 48 kHz / 192 kbps /
Аудио №3: английский / AC3 / 2.0 / 48 kHz / 192 kbps /
Код:
General
Unique ID                               Ghostbusters.2016.Extended.Cut.BluRay.1080p.DTS-HD.MA.5.1.AVC.REMUX-FraMeSToR\Ghostbusters.2016.Extended.Cut.BluRay.1080p.DTS-HD.MA.5.1.AVC.REMUX-FraMeSToR.mkv
Format                                   : Matroska
Format version                           : Version 4 / Version 2
File size                                : 23.0 GiB
Duration                                 : 2 h 13 min
Overall bit rate mode                    : Variable
Overall bit rate                         : 24.6 Mb/s
Encoded date                             : UTC 2016-09-29 00:22:01
Writing application                      : mkvmerge v9.4.2 ('So High') 64bit
Writing library                          : libebml v1.3.4 + libmatroska v1.4.5

Video
ID                                       : 1
Format                                   : AVC
Format/Info                              : Advanced Video Codec
Format profile                           : High@L4.1
Format settings, CABAC                   : Yes
Format settings, ReFrames                : 2 frames
Format settings, GOP                     : M=1, N=10
Codec ID                                 : V_MPEG4/ISO/AVC
Duration                                 : 2 h 13 min
Bit rate mode                            : Variable
Bit rate                                 : 21.8 Mb/s
Width                                    : 1 920 pixels
Height                                   : 1 080 pixels
Display aspect ratio                     : 16:9
Frame rate mode                          : Constant
Frame rate                               : 23.976 (24000/1001) FPS
Color space                              : YUV
Chroma subsampling                       : 4:2:0
Bit depth                                : 8 bits
Scan type                                : Progressive
Bits/(Pixel*Frame)                       : 0.438
Stream size                              : 20.3 GiB (88%)
Default                                  : Yes
Forced                                   : No

Audio #1
ID                                       : 2
Format                                   : DTS
Format/Info                              : Digital Theater Systems
Format profile                           : MA / Core
Mode                                     : 16
Format settings, Endianness              : Big
Codec ID                                 : A_DTS
Duration                                 : 2 h 13 min
Bit rate mode                            : Variable / Constant
Bit rate                                 : 2 284 kb/s / 1 509 kb/s
Channel(s)                               : 6 channels
Channel positions                        : Front: L C R, Side: L R, LFE
Sampling rate                            : 48.0 kHz
Frame rate                               : 93.750 FPS (512 spf)
Bit depth                                : 16 bits
Compression mode                         : Lossless / Lossy
Stream size                              : 2.13 GiB (9%)
Title                                    : DTS-HD MA 5.1
Language                                 : English
Default                                  : Yes
Forced                                   : No

Audio #2
ID                                       : 3
Format                                   : AC-3
Format/Info                              : Audio Coding 3
Format profile                           : Dolby Digital
Mode extension                           : CM (complete main)
Format settings, Endianness              : Big
Codec ID                                 : A_AC3
Duration                                 : 2 h 13 min
Bit rate mode                            : Constant
Bit rate                                 : 192 kb/s
Channel(s)                               : 2 channels
Channel positions                        : Front: L R
Sampling rate                            : 48.0 kHz
Frame rate                               : 31.250 FPS (1536 spf)
Compression mode                         : Lossy
Stream size                              : 184 MiB (1%)
Title                                    : Commentary by Paul Feig/Brent White/Jessie Henderson/Jefferson Sage/Peter G. Travers/Mark Hawker
Language                                 : English
Default                                  : No
Forced                                   : No

Audio #3
ID                                       : 4
Format                                   : AC-3
Format/Info                              : Audio Coding 3
Format profile                           : Dolby Digital
Mode extension                           : CM (complete main)
Format settings, Endianness              : Big
Codec ID                                 : A_AC3
Duration                                 : 2 h 13 min
Bit rate mode                            : Constant
Bit rate                                 : 192 kb/s
Channel(s)                               : 2 channels
Channel positions                        : Front: L R
Sampling rate                            : 48.0 kHz
Frame rate                               : 31.250 FPS (1536 spf)
Compression mode                         : Lossy
Stream size                              : 184 MiB (1%)
Title                                    : Commentary by Director Paul Feig and Writer Katie Dippold
Language                                 : English
Default                                  : No
Forced                                   : No

Text #1
ID                                       : 5
Format                                   : PGS
Codec ID                                 : S_HDMV/PGS
Codec ID/Info                            : Picture based subtitle format used on BDs/HD-DVDs
Duration                                 : 2 h 12 min
Bit rate                                 : 52.7 kb/s
Count of elements                        : 4706
Stream size                              : 49.9 MiB (0%)
Title                                    : English
Language                                 : English
Default                                  : No
Forced                                   : No

Text #2
ID                                       : 6
Format                                   : PGS
Codec ID                                 : S_HDMV/PGS
Codec ID/Info                            : Picture based subtitle format used on BDs/HD-DVDs
Duration                                 : 2 h 12 min
Bit rate                                 : 64.3 kb/s
Count of elements                        : 5808
Stream size                              : 60.9 MiB (0%)
Title                                    : English (SDH)
Language                                 : English
Default                                  : No
Forced                                   : No

Text #3
ID                                       : 7
Format                                   : PGS
Codec ID                                 : S_HDMV/PGS
Codec ID/Info                            : Picture based subtitle format used on BDs/HD-DVDs
Duration                                 : 2 h 12 min
Bit rate                                 : 47.2 kb/s
Count of elements                        : 4759
Stream size                              : 44.7 MiB (0%)
Title                                    : Spanish (Latin American)
Language                                 : Spanish
Default                                  : No
Forced                                   : No

Menu
00:00:00.000                             : en:Chapter 01
00:10:26.626                             : en:Chapter 02
00:17:52.405                             : en:Chapter 03
00:23:00.879                             : en:Chapter 04
00:28:51.521                             : en:Chapter 05
00:37:36.629                             : en:Chapter 06
00:42:48.566                             : en:Chapter 07
00:49:06.068                             : en:Chapter 08
01:00:15.153                             : en:Chapter 09
01:05:10.073                             : en:Chapter 10
01:10:32.978                             : en:Chapter 11
01:16:51.940                             : en:Chapter 12
01:29:05.882                             : en:Chapter 13
01:37:40.521                             : en:Chapter 14
01:47:35.073                             : en:Chapter 15
01:59:31.706                             : en:Chapter 16

Скриншоты:



Время раздачи: с 13:00 до 23:00
[NNMClub.to]_Ghostbusters.2016.Extended.Cut.BluRay.1080p.DTS-HD.MA.5.1.AVC.REMUX-FraMeSToR.mkv.torrent
 Торрент: Золотая раздача  Зарегистрирован
 
Примагнититься
Free Leech
Зарегистрируйтесь и скачайте торрент!
115 KB
 Зарегистрирован:   29 Сен 2016 13:40:13
 Размер:   23 GB  (
 Рейтинг:    (Голосов: 8)
 Поблагодарили:   32
 Проверка:   Оформление проверено модератором 29 Сен 2016 13:41:19
Как cкачать  ·  Как раздать  ·  Правильно оформить  ·  Поднять ратио!  
Показать сообщения:   
Начать новую тему   Ответить на тему    Торрент-трекер NNM-Club -> Зарубежное кино -> Фильмы в оригинале (HD) Часовой пояс: GMT + 3
Страница 1 из 1