Интеллигентный торрент-трекер
canvas not supported
Нас вместе: 4 348 405

Моя пекарня в Бруклине / My Bakery in Brooklyn (2016) BDRip [H.264/720p] [EN / EN Sub]


 
 
RSS
Начать новую тему   Ответить на тему    Торрент-трекер NNM-Club -> Зарубежное кино -> Фильмы в оригинале (HD)
Автор Сообщение
smaster67 ®
Модератор Видео
Покровитель талантов Uploader 300+
Стаж: 7 лет 10 мес.
Сообщений: 6630
Ratio: 198,753
Поблагодарили: 192467
100%
Моя пекарня в Бруклине / My Bakery in Brooklyn (2016) BDRip [H.264/720p] [EN / EN Sub]

Производство: Испания, США
Жанр: мелодрама, комедия

Режиссер: Густаво Рон
Актеры: Эйми Тигарден, Криста Родригез, Гриффин Ньюман, Эрни Сабелла, Бланка Суарес, Уорд Хортон, Летти Серра, Айтор Луна, Энрике Арсе, Энтони Чисхолм, Линда Лавин, Энтони Алессандро

Описание:
Романтическая комедия о двоюродных сестрах Вивьен и Хлое, получивших в наследство тетушкину пекарню. Дружные с детства героини становятся конкурентками: Хлоя на своей половине устраивает современное заведение для хипстеров, в то время как Вивьен остается верна старым порядкам. Но девушкам придется забыть о разногласиях, когда над семейным наследием нависнет угроза.



Продолжительность: 01:36:17
Качество видео: BDRip 720p
Перевод: Отсутствует
Язык озвучки: Английский
Язык субтитров: английский
Вид субтитров: Вшитые

Видео: AVC, 1280x536 (2.40:1), 4983 kbps, 25 fps, 0,291 bpp
Аудио: английский / DTS / 2.0 / 48 kHz / 1509 kbps / 16 bit
Код:
General
Unique ID                                My Bakery in Brooklyn.2016.BDRip.720p.NNMClub.mkv
Format                                   : Matroska
Format version                           : Version 4 / Version 2
File size                                : 4.37 GiB
Duration                                 : 1 h 36 min
Overall bit rate                         : 6 494 kb/s
Encoded date                             : UTC 2016-09-29 16:53:55
Writing application                      : mkvmerge v8.3.0 ('Over the Horizon') 64bit
Writing library                          : libebml v1.3.1 + libmatroska v1.4.2

Video
ID                                       : 1
Format                                   : AVC
Format/Info                              : Advanced Video Codec
Format profile                           : High@L4.1
Format settings, CABAC                   : Yes
Format settings, ReFrames                : 5 frames
Codec ID                                 : V_MPEG4/ISO/AVC
Duration                                 : 1 h 36 min
Bit rate                                 : 4 983 kb/s
Width                                    : 1 280 pixels
Height                                   : 536 pixels
Display aspect ratio                     : 2.40:1
Frame rate mode                          : Constant
Frame rate                               : 25.000 FPS
Color space                              : YUV
Chroma subsampling                       : 4:2:0
Bit depth                                : 8 bits
Scan type                                : Progressive
Bits/(Pixel*Frame)                       : 0.291
Stream size                              : 3.35 GiB (77%)
Writing library                          : x264 core 148 r2705 3f5ed56
Encoding settings                        : cabac=1 / ref=5 / deblock=1:1:1 / analyse=0x3:0x133 / me=umh / subme=8 / psy=1 / psy_rd=1.00:0.00 / mixed_ref=1 / me_range=16 / chroma_me=1 / trellis=1 / 8x8dct=1 / cqm=0 / deadzone=21,11 / fast_pskip=0 / chroma_qp_offset=-2 / threads=8 / lookahead_threads=1 / sliced_threads=0 / nr=0 / decimate=1 / interlaced=0 / bluray_compat=0 / constrained_intra=0 / bframes=3 / b_pyramid=2 / b_adapt=2 / b_bias=0 / direct=3 / weightb=1 / open_gop=0 / weightp=2 / keyint=250 / keyint_min=25 / scenecut=40 / intra_refresh=0 / rc_lookahead=50 / rc=2pass / mbtree=1 / bitrate=4983 / ratetol=1.0 / qcomp=0.60 / qpmin=0 / qpmax=69 / qpstep=4 / cplxblur=20.0 / qblur=0.5 / ip_ratio=1.40 / aq=1:1.00
Default                                  : Yes
Forced                                   : No

Audio
ID                                       : 2
Format                                   : DTS
Format/Info                              : Digital Theater Systems
Mode                                     : 16
Format settings, Endianness              : Big
Codec ID                                 : A_DTS
Duration                                 : 1 h 36 min
Bit rate mode                            : Constant
Bit rate                                 : 1 509 kb/s
Channel(s)                               : 2 channels
Channel positions                        : Front: L R
Sampling rate                            : 48.0 kHz
Frame rate                               : 93.750 FPS (512 spf)
Bit depth                                : 16 bits
Compression mode                         : Lossy
Stream size                              : 1.01 GiB (23%)
Language                                 : English
Default                                  : Yes
Forced                                   : No

Text
ID                                       : 3
Format                                   : UTF-8
Codec ID                                 : S_TEXT/UTF8
Codec ID/Info                            : UTF-8 Plain Text
Duration                                 : 27 min
Bit rate                                 : 4 b/s
Count of elements                        : 32
Stream size                              : 868 Bytes (0%)
Language                                 : English
Default                                  : Yes
Forced                                   : Yes

Menu
00:00:00.000                             : en:00:00:00.000
00:07:16.080                             : en:00:07:16.080
00:16:06.800                             : en:00:16:06.800
00:24:12.520                             : en:00:24:12.520
00:32:21.800                             : en:00:32:21.800
00:40:07.840                             : en:00:40:07.840
00:48:45.320                             : en:00:48:45.320
00:56:05.800                             : en:00:56:05.800
01:06:09.760                             : en:01:06:09.760
01:12:28.280                             : en:01:12:28.280
01:19:22.360                             : en:01:19:22.360
01:27:09.120                             : en:01:27:09.120

Скриншоты:



Время раздачи: с 13:00 до 23:00
My Bakery in Brooklyn.2016.BDRip.720p.NNMClub.mkv.torrent
 Торрент: Серебряная раздча  Зарегистрирован
 
Примагнититься
Free Leech
Зарегистрируйтесь и скачайте торрент!
22,1 KB
 Зарегистрирован:   30 Сен 2016 06:45:57
 Размер:   4,37 GB  (
 Рейтинг:    (Голосов: 6)
 Поблагодарили:   34
 Проверка:   Оформление проверено модератором 30 Сен 2016 06:46:31
Как cкачать  ·  Как раздать  ·  Правильно оформить  ·  Поднять ратио!  
Загрузка...
Показать сообщения:   
Начать новую тему   Ответить на тему    Торрент-трекер NNM-Club -> Зарубежное кино -> Фильмы в оригинале (HD) Часовой пояс: GMT + 3
Страница 1 из 1