Интеллигентный торрент-трекер
canvas not supported
Нас вместе: 4 328 998

Афера под прикрытием / The Infiltrator (2016) BDRip [H.264/720p] [EN]


 
 
RSS
Начать новую тему   Ответить на тему    Торрент-трекер NNM-Club -> Зарубежное кино -> Фильмы в оригинале (HD)
Автор Сообщение
smaster67 ®
Модератор Видео
Покровитель талантов Uploader 300+
Стаж: 8 лет
Сообщений: 6671
Ratio: 202,853
Поблагодарили: 194201
100%
Афера под прикрытием / The Infiltrator (2016) BDRip [H.264/720p] [EN]

Производство: Великобритания
Жанр: триллер, драма, криминал, биография

Режиссер: Брэд Фурман
Актеры: Брайан Крэнстон, Лиэнн Бест, Дэниэл Мейс, Том Вон-Лолор, Ниал Хэйес, Лара Дэкаро, Джульетт Обри, Олимпия Дукакис, Эми Райан, Джон Легуизамо, Джозеф Гилган, Джейсон Айзекс

Описание:
Федеральный агент Боб Мейзур, специалист по внедрению в преступные группировки, ставит себе целью раскрыть схему отмывания денег наркокартеля Пабло Эскобара. В одной команде со вспыльчивым оперативником Эмиром Абреу, а также начинающим агентом Кэти Эртс, исполняющей роль подставной невесты Боба, ему предстоит провернуть самую рискованную операцию под прикрытием в истории.



Продолжительность: 02:07:08
Качество видео: BDRip 720р
Перевод: Отсутствует
Язык озвучки: Английский

Видео: AVC, 1280x536 (2.40:1), 4643 kbps, 23,976 fps, 0,282 bpp
Аудио: английский / DTS / 5.1 / 48 kHz / 1509 kbps / 24 bit
Код: выделить все
General
Unique ID                                The Infiltrator.2016.BDRip.720p.NNMClub.mkv
Format                                   : Matroska
Format version                           : Version 4 / Version 2
File size                                : 5.46 GiB
Duration                                 : 2 h 7 min
Overall bit rate                         : 6 150 kb/s
Encoded date                             : UTC 2016-09-30 05:57:06
Writing application                      : mkvmerge v8.3.0 ('Over the Horizon') 64bit
Writing library                          : libebml v1.3.1 + libmatroska v1.4.2

Video
ID                                       : 1
Format                                   : AVC
Format/Info                              : Advanced Video Codec
Format profile                           : High@L4.1
Format settings, CABAC                   : Yes
Format settings, ReFrames                : 5 frames
Codec ID                                 : V_MPEG4/ISO/AVC
Duration                                 : 2 h 7 min
Bit rate                                 : 4 643 kb/s
Width                                    : 1 280 pixels
Height                                   : 536 pixels
Display aspect ratio                     : 2.40:1
Frame rate mode                          : Constant
Frame rate                               : 23.976 FPS
Color space                              : YUV
Chroma subsampling                       : 4:2:0
Bit depth                                : 8 bits
Scan type                                : Progressive
Bits/(Pixel*Frame)                       : 0.282
Stream size                              : 4.12 GiB (75%)
Writing library                          : x264 core 148 r2705 3f5ed56
Encoding settings                        : cabac=1 / ref=5 / deblock=1:0:0 / analyse=0x3:0x133 / me=umh / subme=7 / psy=1 / psy_rd=1.00:0.00 / mixed_ref=1 / me_range=16 / chroma_me=1 / trellis=1 / 8x8dct=1 / cqm=0 / deadzone=21,11 / fast_pskip=0 / chroma_qp_offset=-2 / threads=17 / lookahead_threads=2 / sliced_threads=0 / nr=0 / decimate=1 / interlaced=0 / bluray_compat=0 / constrained_intra=0 / bframes=3 / b_pyramid=2 / b_adapt=1 / b_bias=0 / direct=1 / weightb=1 / open_gop=0 / weightp=2 / keyint=250 / keyint_min=23 / scenecut=40 / intra_refresh=0 / rc_lookahead=40 / rc=2pass / mbtree=1 / bitrate=4643 / ratetol=1.0 / qcomp=0.60 / qpmin=0 / qpmax=69 / qpstep=4 / cplxblur=20.0 / qblur=0.5 / ip_ratio=1.40 / aq=1:1.00
Language                                 : English
Default                                  : Yes
Forced                                   : No

Audio
ID                                       : 2
Format                                   : DTS
Format/Info                              : Digital Theater Systems
Mode                                     : 16
Format settings, Endianness              : Big
Codec ID                                 : A_DTS
Duration                                 : 2 h 7 min
Bit rate mode                            : Constant
Bit rate                                 : 1 509 kb/s
Channel(s)                               : 6 channels
Channel positions                        : Front: L C R, Side: L R, LFE
Sampling rate                            : 48.0 kHz
Frame rate                               : 93.750 FPS (512 spf)
Bit depth                                : 24 bits
Compression mode                         : Lossy
Stream size                              : 1.34 GiB (25%)
Language                                 : English
Default                                  : Yes
Forced                                   : No

Menu
00:00:00.000                             : en:00:00:00.000
00:09:01.666                             : en:00:09:01.666
00:17:00.686                             : en:00:17:00.686
00:24:48.654                             : en:00:24:48.654
00:28:36.882                             : en:00:28:36.882
00:35:12.193                             : en:00:35:12.193
00:42:31.340                             : en:00:42:31.340
00:51:42.725                             : en:00:51:42.725
00:57:40.832                             : en:00:57:40.832
01:02:47.806                             : en:01:02:47.806
01:07:41.474                             : en:01:07:41.474
01:17:04.662                             : en:01:17:04.662
01:24:18.553                             : en:01:24:18.553
01:31:43.832                             : en:01:31:43.832
01:40:58.970                             : en:01:40:58.970
01:47:44.249                             : en:01:47:44.249
01:52:50.222                             : en:01:52:50.222
01:58:14.129                             : en:01:58:14.129

Скриншоты:



Время раздачи: с 13:00 до 23:00
The Infiltrator.2016.BDRip.720p.NNMClub.mkv.torrent
 Торрент: Серебряная раздча  Зарегистрирован
 
Примагнититься

Зарегистрируйтесь и скачайте торрент!
27,5 KB
 Зарегистрирован:   30 Сен 2016 14:07:15
 Размер:   5,46 GB  (
 Рейтинг:   4,8 (Голосов: 21)
 Поблагодарили:   119
 Проверка:   Оформление проверено модератором 30 Сен 2016 14:07:38
Как cкачать  ·  Как раздать  ·  Правильно оформить  ·  Поднять ратио!  
Logi-XXX
Стаж: 6 лет 5 мес.
Сообщений: 405
Ratio: 16,866
0%
ukraine.gif
Да это же учитель химии)))
Юрдосик
Стаж: 3 года 3 мес.
Сообщений: 26
Ratio: 6,32
78.43%
Откуда: Uzukovo grand
russia.gif
Как родной =)
Zheneriq
Стаж: 4 года 9 мес.
Сообщений: 82
Ratio: 11,822
54.05%
Гайзенбергу и Пабло нипочем
Demon​iks_r​us​
Стаж: 6 лет 1 мес.
Сообщений: 9
Ratio: 24,022
78.65%
russia.gif
перевод будет позже, я понимаю?
Показать сообщения:   
Начать новую тему   Ответить на тему    Торрент-трекер NNM-Club -> Зарубежное кино -> Фильмы в оригинале (HD) Часовой пояс: GMT + 3
Страница 1 из 1