Интеллигентный торрент-трекер
canvas not supported
Нас вместе: 4 300 417

Кровный отец / Blood Father (2016) BDRip [H.264/720p] [EN / EN, Sp Sub]


 
 
RSS
Начать новую тему   Ответить на тему    Торрент-трекер NNM-Club -> Зарубежное кино -> Фильмы в оригинале (HD)
Автор Сообщение
smaster67 ®
Модератор Видео
Покровитель талантов Uploader 300+
Стаж: 7 лет 8 мес.
Сообщений: 6576
Ratio: 192,143
Поблагодарили: 189479
100%
Кровный отец / Blood Father (2016) BDRip [H.264/720p] [EN / EN, Sp Sub]

Производство: Франция
Жанр: боевик, триллер

Режиссер: Жан-Франсуа Рише
Актеры: Мэл Гибсон, Эрин Мориарти, Диего Луна, Майкл Паркс, Уильям Х. Мэйси, Мигель Сандовал, Дейл Дикки, Ричард Кебрал, Дэниэл Монкада, Райан Дорси, Рауль Трухильо

Описание:
Бывший заключенный, раньше не участвовавший в воспитании дочери, узнав о том, что его дочь преследуют наркоторговцы и жаждут ее смерти, решил помочь ей с проблемами.



Продолжительность: 01:28:12
Качество видео: BDRip 720p
Перевод: Отсутствует
Язык озвучки: Английский
Язык субтитров: английский, испанский
Вид субтитров: Вшитые

Видео: AVC, 1280x536 (2.40:1), 4900 kbps, 23,976 fps, 0,298 bpp
Аудио: английский / DTS / 5.1 / 48 kHz / 1509 kbps / 24 bit
Код:
General
Unique ID                               Blood.Father.2016.720p.BluRay.x264.DTS-HDChina\Blood.Father.2016.720p.BluRay.x264.DTS-HDChina.mkv
Format                                   : Matroska
Format version                           : Version 2
File size                                : 3.98 GiB
Duration                                 : 1 h 28 min
Overall bit rate                         : 6 453 kb/s
Movie name                               : Medusa @ HDChina
Encoded date                             : UTC 2016-09-30 03:00:03
Writing application                      : mkvmerge v5.8.0 ('No Sleep / Pillow') built on Sep  2 2012 15:37:04
Writing library                          : libebml v1.2.3 + libmatroska v1.3.0

Video
ID                                       : 1
Format                                   : AVC
Format/Info                              : Advanced Video Codec
Format profile                           : High@L4.1
Format settings, CABAC                   : Yes
Format settings, ReFrames                : 12 frames
Muxing mode                              : Header stripping
Codec ID                                 : V_MPEG4/ISO/AVC
Duration                                 : 1 h 28 min
Bit rate                                 : 4 900 kb/s
Width                                    : 1 280 pixels
Height                                   : 536 pixels
Display aspect ratio                     : 2.40:1
Frame rate mode                          : Constant
Frame rate                               : 23.976 (24000/1001) FPS
Color space                              : YUV
Chroma subsampling                       : 4:2:0
Bit depth                                : 8 bits
Scan type                                : Progressive
Bits/(Pixel*Frame)                       : 0.298
Stream size                              : 2.97 GiB (75%)
Writing library                          : x264 core 148 r2665kMod a01e339
Encoding settings                        : cabac=1 / ref=12 / deblock=1:-3:-3 / analyse=0x3:0x133 / me=umh / subme=11 / psy=1 / fade_compensate=0.00 / psy_rd=1.05:0.00 / mixed_ref=1 / me_range=32 / chroma_me=1 / trellis=2 / 8x8dct=1 / cqm=0 / deadzone=21,11 / fast_pskip=0 / chroma_qp_offset=-2 / threads=17 / lookahead_threads=2 / sliced_threads=0 / nr=0 / decimate=0 / interlaced=0 / bluray_compat=0 / constrained_intra=0 / fgo=0 / bframes=8 / b_pyramid=2 / b_adapt=2 / b_bias=0 / direct=3 / weightb=1 / open_gop=0 / weightp=2 / keyint=240 / keyint_min=24 / scenecut=40 / intra_refresh=0 / rc=2pass / mbtree=0 / bitrate=4900 / ratetol=1.0 / qcomp=0.70 / qpmin=0 / qpmax=69 / qpstep=4 / cplxblur=20.0 / qblur=0.5 / ip_ratio=1.20 / pb_ratio=1.20 / aq=3:0.85
Language                                 : English
Default                                  : Yes
Forced                                   : No

Audio
ID                                       : 2
Format                                   : DTS
Format/Info                              : Digital Theater Systems
Mode                                     : 16
Format settings, Endianness              : Big
Muxing mode                              : Header stripping
Codec ID                                 : A_DTS
Duration                                 : 1 h 28 min
Bit rate mode                            : Constant
Bit rate                                 : 1 509 kb/s
Channel(s)                               : 6 channels
Channel positions                        : Front: L C R, Side: L R, LFE
Sampling rate                            : 48.0 kHz
Frame rate                               : 93.750 FPS (512 spf)
Bit depth                                : 24 bits
Compression mode                         : Lossy
Stream size                              : 952 MiB (23%)
Language                                 : English
Default                                  : Yes
Forced                                   : No

Text #1
ID                                       : 3
Format                                   : PGS
Muxing mode                              : zlib
Codec ID                                 : S_HDMV/PGS
Codec ID/Info                            : Picture based subtitle format used on BDs/HD-DVDs
Language                                 : English
Default                                  : Yes
Forced                                   : No

Text #2
ID                                       : 4
Format                                   : PGS
Muxing mode                              : zlib
Codec ID                                 : S_HDMV/PGS
Codec ID/Info                            : Picture based subtitle format used on BDs/HD-DVDs
Language                                 : English
Default                                  : No
Forced                                   : No

Text #3
ID                                       : 5
Format                                   : PGS
Muxing mode                              : zlib
Codec ID                                 : S_HDMV/PGS
Codec ID/Info                            : Picture based subtitle format used on BDs/HD-DVDs
Language                                 : Spanish
Default                                  : No
Forced                                   : No

Menu
00:00:00.000                             : en:00:00:00.000
00:07:02.797                             : en:00:07:02.797
00:10:16.741                             : en:00:10:16.741
00:15:59.584                             : en:00:15:59.584
00:22:02.196                             : en:00:22:02.196
00:28:58.695                             : en:00:28:58.695
00:32:28.947                             : en:00:32:28.947
00:38:43.112                             : en:00:38:43.112
00:45:11.584                             : en:00:45:11.584
00:48:45.839                             : en:00:48:45.839
00:52:44.369                             : en:00:52:44.369
00:57:36.328                             : en:00:57:36.328
01:02:32.707                             : en:01:02:32.707
01:07:51.734                             : en:01:07:51.734
01:12:41.607                             : en:01:12:41.607
01:20:57.561                             : en:01:20:57.561

Скриншоты:



Время раздачи: с 13:00 до 23:00
[NNMClub.to]_Blood.Father.2016.720p.BluRay.x264.DTS-HDChina.mkv.torrent
 Торрент: Серебряная раздча  Зарегистрирован
 
Примагнититься

Зарегистрируйтесь и скачайте торрент!
20,1 KB
 Зарегистрирован:   30 Сен 2016 14:48:22
 Размер:   3,98 GB  (
 Рейтинг:    (Голосов: 9)
 Поблагодарили:   73
 Проверка:   Оформление проверено модератором 30 Сен 2016 14:48:50
Как cкачать  ·  Как раздать  ·  Правильно оформить  ·  Поднять ратио!  
kRONiCXXII
Стаж: 4 года 9 мес.
Сообщений: 744
Ratio: 9,346
100%
russia.gif
безумный макс на пенсии, а есть поменьше?

Добавлено спустя 44 секунды:

спасибо, нашёл, гляну
ZooYork
Стаж: 3 года
Сообщений: 2
Ratio: 8,458
57%
Проблема с фильмом. Постоянно меняются сцены... Толи сборку китайцы такую делали...
Идет одна сцена, затем смена на более позднюю, затем на раннюю, потом опять 25... и так несколько раз на протяжении фильма.
Показать сообщения:   
Начать новую тему   Ответить на тему    Торрент-трекер NNM-Club -> Зарубежное кино -> Фильмы в оригинале (HD) Часовой пояс: GMT + 3
Страница 1 из 1