Интеллигентный торрент-трекер
canvas not supported
Нас вместе: 4 332 886

Gescom - Discography 16 Releases (1994-2011) Skam [FLAC|Lossless|tracks+.cue, tracks] <Abstract, Leftfield, IDM, Experimental>


 
 
RSS
Начать новую тему   Ответить на тему    Торрент-трекер NNM-Club -> Electronic -> IDM (Lossless)
Автор Сообщение
vilator ®
Модератор Музыки
RG Music
 
Стаж: 8 лет 3 мес.
Сообщений: 5928
Ratio: 133,796
Поблагодарили: 117903
100%
Откуда: Minsk
pirates.png
Gescom Discography

Gescom - сокращенное от Gestalt Communications. Неправильно воспринимать Gescom просто как сайд-проект Autechre. Gescom на самом деле существует в качестве платформы воплощения своих идей для целого ряда художников, дизайнеров, композиторов, присоединившихся к работе в самых различных сочетаниях, но оставшихся так или иначе анонимными. По словам самих Шона и Роба, Gescom является чем-то вроде "формации свободного современного искусства". Команда в Gescom менялась от пластинки к пластинке и даже от композиции к композиции. Проект Gescom, вероятно, лучше всего охарактеризовать как компанию друзей Шона Бута (Sean Booth) и Роба Брауна (Rob Brown), которым вышеупомянутые Autechre помогали с выпуском релизов. Цитата из Autechre FAQ: "На самом деле вся команда Gescom состоит почти из 20 человек. Шон называет это "проект - зонтик". В коллекцию в 1998 году был включен даже “Minidisc” вышедший на лейбле OR. Особенность заключалась в том, что это был единственный на тот момент релиз (более такой опыт не повторялся) вышедший исключительно на минидиске. Состоял он из 45 композиций разрезанных на 88 частей. Задачей было нацелить слушателя на воспроизведение типа “shuffle”. Членами рабочей командой над Minidisc-проектом были Рассел Хасуэлл (Russell Haswell), Шон Бут и Роб Браун. Позже Роб Браун стал выступать в роли SKAM DJ Rob Hall (a.k.a. Ad Vanz), а Gescom продолжил действовать и придерживаться своей самобытности. Не смотря на все сказанное выше, существует также целый ряд релизов Gescom, изданные от лица конкретно Шона и Роба. Если они издаются на Skam - они называют себя Gescom, независимо от сотрудничества.
Жанр: Abstract, Leftfield, IDM, Ambient, Techno, Experimental • Страна: UK • Год издания диска: 1994-2011 • Тип издания: CD, Vinyl • Лейбл: Skam
Аудиокодек: FLAC (*.flac) • Тип рипа: tracks+.cue, tracks • Продолжительность: 08:18:27 • Источник: What, Waffles • Наличие сканов: нет
Треклист:
Год выпуска: 2006
Продолжительность: 01:07:08
Треклист:

01. Cut Begin (00:15)
02. Cut Begin (00:10)
03. Cut Begin (00:13)
04. Cut Begin (00:08)
05. Cut Begin (00:13)
06. Cut Begin (00:16)
07. Cut Begin (00:20)
08. Amendment 84 (01:05)
09. Helix Shatterproof (01:06)
10. A Newer Beginning (00:07)
11. A Newer Beginning (01:09)
12. Polarized Beam Splitter (00:37)
13. Polarized Beam Splitter (00:09)
14. Polarized Beam Splitter (00:43)
15. Polarized Beam Splitter (01:20)
16. Polarized Beam Splitter (00:22)
17. Inter (02:42)
18. R M I Corporate ID 1 (00:09)
19. Pricks (00:23)
20. Pricks (03:55)
21. Pricks (00:24)
22. Pricks (00:06)
23. Devil (00:30)
24. Is We (03:08)
25. Is We (00:51)
26. Dan Dan Dan (00:27)
27. Dan Dan Dan (00:14)
28. Dan Dan Dan (00:15)
29. Dan Dan Dan (00:16)
30. Le Shark (00:05)
31. Le Shark (00:05)
32. Le Shark (00:06)
33. Le Shark (00:06)
34. Le Shark (00:09)
35. Le Shark (00:18)
36. Le Shark (00:15)
37. 1D Shapethrower (02:13)
38. Shoegazer (04:15)
39. Vermin (00:14)
40. Vermin (00:48)
41. Vermin (00:14)
42. Hemiplegia 1 (01:05)
43. Mcdcc (01:02)
44. Gortex (00:23)
45. Alf Sprey (00:13)
46. Interchangeable World (00:09)
47. Interchangeable World (00:33)
48. Interchangeable World (01:17)
49. Cranusberg (00:48)
50. Cranusberg (04:15)
51. Cranusberg (02:56)
52. Raindance (00:38)
53. Horse (00:04)
54. New Contact Lense (01:30)
55. Of Our Time (01:47)
56. Crepe (00:04)
57. Crepe (00:28)
58. Crepe (00:04)
59. Crepe (00:23)
60. Wab Wat (00:50)
61. MC (00:14)
62. Peel (01:03)
63. I G E (00:08)
64. Knutsford Services (00:57)
65. Fully (02:24)
66. Fully (01:46)
67. Squashed To Pureness (00:09)
68. Squashed To Pureness (00:15)
69. Squashed To Pureness (00:10)
70. Squashed To Pureness (00:49)
71. Yo! DMX Crew (02:48)
72. Go On (01:36)
73. Stroyer 2 (00:20)
74. _ (01:05)
75. _ (00:09)
76. Shep (01:08)
77. Langue (00:09)
78. Poke (00:10)
79. Poke (00:16)
80. Poke (00:31)
81. Poke (00:14)
82. Hemiplegia 2 (00:17)
83. Territory Of Usage (00:17)
84. Territory Of Usage (00:37)
85. Tomo (00:15)
86. Tomo (00:17)
87. R M I Corporate ID 2 (00:07)
88. PT/AE (00:07)

Exact Audio Copy V0.99 prebeta 3 from 28. July 2007

EAC extraction logfile from 17. January 2009, 3:37

Gescom / MiniDisc

Used drive : TSSTcorpCD/DVDW SH-S183A Adapter: 2 ID: 1

Read mode : Secure
Utilize accurate stream : Yes
Defeat audio cache : Yes
Make use of C2 pointers : No

Read offset correction : 6
Overread into Lead-In and Lead-Out : No
Fill up missing offset samples with silence : Yes
Delete leading and trailing silent blocks : No
Null samples used in CRC calculations : Yes
Used interface : Installed external ASPI interface
Gap handling : Appended to previous track

Used output format : User Defined Encoder
Selected bitrate : 1024 kBit/s
Quality : High
Add ID3 tag : No
Command line compressor : C:\Program Files\FLAC\flac.exe
Additional command line options : --best -V -T "date=%y" -T "genre=%m" %s

TOC of the extracted CD

Track | Start | Length | Start sector | End sector
---------------------------------------------------------
1 | 0:00.00 | 0:14.43 | 0 | 1092
2 | 0:14.43 | 0:10.30 | 1093 | 1872
3 | 0:24.73 | 0:13.29 | 1873 | 2876
4 | 0:38.27 | 0:07.66 | 2877 | 3467
5 | 0:46.18 | 0:12.44 | 3468 | 4411
6 | 0:58.62 | 0:15.56 | 4412 | 5592
7 | 1:14.43 | 0:19.59 | 5593 | 7076
8 | 1:34.27 | 1:05.08 | 7077 | 11959
9 | 2:39.35 | 1:06.16 | 11960 | 16925
10 | 3:45.51 | 0:06.71 | 16926 | 17446
11 | 3:52.47 | 1:08.58 | 17447 | 22604
12 | 5:01.30 | 0:37.32 | 22605 | 25411
13 | 5:38.62 | 0:08.66 | 25412 | 26077
14 | 5:47.53 | 0:43.00 | 26078 | 29302
15 | 6:30.53 | 1:19.40 | 29303 | 35267
16 | 7:50.18 | 0:22.32 | 35268 | 36949
17 | 8:12.50 | 2:41.69 | 36950 | 49093
18 | 10:54.44 | 0:08.60 | 49094 | 49753
19 | 11:03.29 | 0:23.31 | 49754 | 51509
20 | 11:26.60 | 3:55.20 | 51510 | 69154
21 | 15:22.05 | 0:23.72 | 69155 | 70951
22 | 15:46.02 | 0:05.53 | 70952 | 71379
23 | 15:51.55 | 0:29.45 | 71380 | 73599
24 | 16:21.25 | 3:08.00 | 73600 | 87699
25 | 19:29.25 | 0:51.29 | 87700 | 91553
26 | 20:20.54 | 0:27.10 | 91554 | 93588
27 | 20:47.64 | 0:14.32 | 93589 | 94670
28 | 21:02.21 | 0:14.45 | 94671 | 95765
29 | 21:16.66 | 0:15.72 | 95766 | 96962
30 | 21:32.63 | 0:04.43 | 96963 | 97305
31 | 21:37.31 | 0:04.51 | 97306 | 97656
32 | 21:42.07 | 0:05.74 | 97657 | 98105
33 | 21:48.06 | 0:06.00 | 98106 | 98555
34 | 21:54.06 | 0:09.00 | 98556 | 99230
35 | 22:03.06 | 0:18.00 | 99231 | 100580
36 | 22:21.06 | 0:15.21 | 100581 | 101726
37 | 22:36.27 | 2:12.40 | 101727 | 111666
38 | 24:48.67 | 4:14.59 | 111667 | 130775
39 | 29:03.51 | 0:13.46 | 130776 | 131796
40 | 29:17.22 | 0:47.67 | 131797 | 135388
41 | 30:05.14 | 0:13.71 | 135389 | 136434
42 | 30:19.10 | 1:04.59 | 136435 | 141293
43 | 31:23.69 | 1:01.70 | 141294 | 145938
44 | 32:25.64 | 0:23.10 | 145939 | 147673
45 | 32:48.74 | 0:13.02 | 147674 | 148650
46 | 33:02.01 | 0:09.37 | 148651 | 149362
47 | 33:11.38 | 0:32.50 | 149363 | 151812
48 | 33:44.13 | 1:17.31 | 151813 | 157618
49 | 35:01.44 | 0:48.16 | 157619 | 161234
50 | 35:49.60 | 4:14.51 | 161235 | 180335
51 | 40:04.36 | 2:55.43 | 180336 | 193503
52 | 43:00.04 | 0:37.64 | 193504 | 196342
53 | 43:37.68 | 0:04.31 | 196343 | 196673
54 | 43:42.24 | 1:29.69 | 196674 | 203417
55 | 45:12.18 | 1:47.29 | 203418 | 211471
56 | 46:59.47 | 0:04.24 | 211472 | 211795
57 | 47:03.71 | 0:27.65 | 211796 | 213885
58 | 47:31.61 | 0:04.25 | 213886 | 214210
59 | 47:36.11 | 0:22.64 | 214211 | 215924
60 | 47:59.00 | 0:49.39 | 215925 | 219638
61 | 48:48.39 | 0:13.68 | 219639 | 220681
62 | 49:02.32 | 1:02.42 | 220682 | 225373
63 | 50:04.74 | 0:08.33 | 225374 | 226006
64 | 50:13.32 | 0:57.19 | 226007 | 230300
65 | 51:10.51 | 2:24.23 | 230301 | 241123
66 | 53:34.74 | 1:45.51 | 241124 | 249049
67 | 55:20.50 | 0:08.54 | 249050 | 249703
68 | 55:29.29 | 0:15.17 | 249704 | 250845
69 | 55:44.46 | 0:10.23 | 250846 | 251618
70 | 55:54.69 | 0:48.72 | 251619 | 255290
71 | 56:43.66 | 2:47.58 | 255291 | 267873
72 | 59:31.49 | 1:36.17 | 267874 | 275090
73 | 61:07.66 | 0:20.14 | 275091 | 276604
74 | 61:28.05 | 1:05.31 | 276605 | 281510
75 | 62:33.36 | 0:09.03 | 281511 | 282188
76 | 62:42.39 | 1:07.50 | 282189 | 287263
77 | 63:50.14 | 0:08.38 | 287264 | 287901
78 | 63:58.52 | 0:09.60 | 287902 | 288636
79 | 64:08.37 | 0:15.43 | 288637 | 289804
80 | 64:24.05 | 0:30.42 | 289805 | 292096
81 | 64:54.47 | 0:13.66 | 292097 | 293137
82 | 65:08.38 | 0:16.46 | 293138 | 294383
83 | 65:25.09 | 0:17.03 | 294384 | 295661
84 | 65:42.12 | 0:36.41 | 295662 | 298402
85 | 66:18.53 | 0:15.27 | 298403 | 299554
86 | 66:34.05 | 0:16.69 | 299555 | 300823
87 | 66:50.74 | 0:07.33 | 300824 | 301381
88 | 66:58.32 | 0:06.43 | 301382 | 301874

Track 1

Filename C:\01 Gescom - Cut Begin.wav

Pre-gap length 0:00:02.00

Peak level 99.8 %
Track quality 99.2 %
Test CRC C5B4B44F
Copy CRC C5B4B44F
Track not present in AccurateRip database
Copy OK

Track 2

Filename C:\02 Gescom - Cut Begin.wav

Peak level 99.0 %
Track quality 100.0 %
Test CRC 1D09397D
Copy CRC 1D09397D
Track not present in AccurateRip database
Copy OK

Track 3

Filename C:\03 Gescom - Cut Begin.wav

Peak level 95.3 %
Track quality 100.0 %
Test CRC EE0D3568
Copy CRC EE0D3568
Track not present in AccurateRip database
Copy OK

Track 4

Filename C:\04 Gescom - Cut Begin.wav

Peak level 0.0 %
Track quality 100.0 %
Test CRC 26A024DC
Copy CRC 26A024DC
Track not present in AccurateRip database
Copy OK

Track 5

Filename C:\05 Gescom - Cut Begin.wav

Peak level 99.2 %
Track quality 100.0 %
Test CRC 2164D770
Copy CRC 2164D770
Track not present in AccurateRip database
Copy OK

Track 6

Filename C:\06 Gescom - Cut Begin.wav

Peak level 94.6 %
Track quality 100.0 %
Test CRC B62194ED
Copy CRC B62194ED
Track not present in AccurateRip database
Copy OK

Track 7

Filename C:\07 Gescom - Cut Begin.wav

Peak level 99.7 %
Track quality 100.0 %
Test CRC 9904B95D
Copy CRC 9904B95D
Track not present in AccurateRip database
Copy OK

Track 8

Filename C:\08 Gescom - Amendment 84.wav

Peak level 99.8 %
Track quality 100.0 %
Test CRC F08A035D
Copy CRC F08A035D
Track not present in AccurateRip database
Copy OK

Track 9

Filename C:\09 Gescom - Helix Shatterproof.wav

Peak level 99.8 %
Track quality 100.0 %
Test CRC 853AA15F
Copy CRC 853AA15F
Track not present in AccurateRip database
Copy OK

Track 10

Filename C:\10 Gescom - A Newer Beginning.wav

Peak level 13.1 %
Track quality 100.0 %
Test CRC FC83F321
Copy CRC FC83F321
Track not present in AccurateRip database
Copy OK

Track 11

Filename C:\11 Gescom - A Newer Beginning.wav

Peak level 96.0 %
Track quality 100.0 %
Test CRC 7DDC9AFE
Copy CRC 7DDC9AFE
Track not present in AccurateRip database
Copy OK

Track 12

Filename C:\12 Gescom - Polarised Beam Splitter.wav

Peak level 93.8 %
Track quality 100.0 %
Test CRC E15FBB44
Copy CRC E15FBB44
Track not present in AccurateRip database
Copy OK

Track 13

Filename C:\13 Gescom - Polarised Beam Splitter.wav

Peak level 94.0 %
Track quality 100.0 %
Test CRC BA276070
Copy CRC BA276070
Track not present in AccurateRip database
Copy OK

Track 14

Filename C:\14 Gescom - Polarised Beam Splitter.wav

Peak level 94.3 %
Track quality 100.0 %
Test CRC 4B516AA8
Copy CRC 4B516AA8
Track not present in AccurateRip database
Copy OK

Track 15

Filename C:\15 Gescom - Polarised Beam Splitter.wav

Peak level 84.2 %
Track quality 100.0 %
Test CRC EEC84E00
Copy CRC EEC84E00
Track not present in AccurateRip database
Copy OK

Track 16

Filename C:\16 Gescom - Polarised Beam Splitter.wav

Peak level 28.6 %
Track quality 100.0 %
Test CRC 35C6E4B3
Copy CRC 35C6E4B3
Track not present in AccurateRip database
Copy OK

Track 17

Filename C:\17 Gescom - Inter.wav

Peak level 98.5 %
Track quality 100.0 %
Test CRC 37AB1C30
Copy CRC 37AB1C30
Track not present in AccurateRip database
Copy OK

Track 18

Filename C:\18 Gescom - R M I Corporate ID 1.wav

Peak level 99.8 %
Track quality 100.0 %
Test CRC 890BC73D
Copy CRC 890BC73D
Track not present in AccurateRip database
Copy OK

Track 19

Filename C:\19 Gescom - Pricks.wav

Peak level 94.7 %
Track quality 100.0 %
Test CRC 149A1AA1
Copy CRC 149A1AA1
Track not present in AccurateRip database
Copy OK

Track 20

Filename C:\20 Gescom - Pricks.wav

Peak level 99.8 %
Track quality 100.0 %
Test CRC 0E22DFF0
Copy CRC 0E22DFF0
Track not present in AccurateRip database
Copy OK

Track 21

Filename C:\21 Gescom - Pricks.wav

Peak level 96.0 %
Track quality 100.0 %
Test CRC A021ABB9
Copy CRC A021ABB9
Track not present in AccurateRip database
Copy OK

Track 22

Filename C:\22 Gescom - Pricks.wav

Peak level 43.3 %
Track quality 100.0 %
Test CRC D08CA944
Copy CRC D08CA944
Track not present in AccurateRip database
Copy OK

Track 23

Filename C:\23 Gescom - Devil.wav

Peak level 85.5 %
Track quality 100.0 %
Test CRC 8451D83F
Copy CRC 8451D83F
Track not present in AccurateRip database
Copy OK

Track 24

Filename C:\24 Gescom - Is We.wav

Peak level 99.8 %
Track quality 100.0 %
Test CRC 9904F063
Copy CRC 9904F063
Track not present in AccurateRip database
Copy OK

Track 25

Filename C:\25 Gescom - Is We.wav

Peak level 99.8 %
Track quality 100.0 %
Test CRC B6676A45
Copy CRC B6676A45
Track not present in AccurateRip database
Copy OK

Track 26

Filename C:\26 Gescom - Dan Dan Dan.wav

Peak level 58.1 %
Track quality 100.0 %
Test CRC 0E5C1583
Copy CRC 0E5C1583
Track not present in AccurateRip database
Copy OK

Track 27

Filename C:\27 Gescom - Dan Dan Dan.wav

Peak level 87.8 %
Track quality 100.0 %
Test CRC 091BF2EA
Copy CRC 091BF2EA
Track not present in AccurateRip database
Copy OK

Track 28

Filename C:\28 Gescom - Dan Dan Dan.wav

Peak level 87.4 %
Track quality 99.2 %
Test CRC 5B697DBA
Copy CRC 5B697DBA
Track not present in AccurateRip database
Copy OK

Track 29

Filename C:\29 Gescom - Dan Dan Dan.wav

Peak level 86.6 %
Track quality 100.0 %
Test CRC EFB75F47
Copy CRC EFB75F47
Track not present in AccurateRip database
Copy OK

Track 30

Filename C:\30 Gescom - Le Shark.wav

Peak level 97.1 %
Track quality 100.0 %
Test CRC A740DC60
Copy CRC A740DC60
Track not present in AccurateRip database
Copy OK

Track 31

Filename C:\31 Gescom - Le Shark.wav

Peak level 99.8 %
Track quality 100.0 %
Test CRC 1D5E4047
Copy CRC 1D5E4047
Track not present in AccurateRip database
Copy OK

Track 32

Filename C:\32 Gescom - Le Shark.wav

Peak level 99.8 %
Track quality 98.1 %
Test CRC 17BBBFFC
Copy CRC 17BBBFFC
Track not present in AccurateRip database
Copy OK

Track 33

Filename C:\33 Gescom - Le Shark.wav

Peak level 99.8 %
Track quality 98.1 %
Test CRC B8BA7C07
Copy CRC B8BA7C07
Track not present in AccurateRip database
Copy OK

Track 34

Filename C:\34 Gescom - Le Shark.wav

Peak level 99.8 %
Track quality 100.0 %
Test CRC 8EC022B5
Copy CRC 8EC022B5
Track not present in AccurateRip database
Copy OK

Track 35

Filename C:\35 Gescom - Le Shark.wav

Peak level 99.8 %
Track quality 100.0 %
Test CRC 9A81E16E
Copy CRC 9A81E16E
Track not present in AccurateRip database
Copy OK

Track 36

Filename C:\36 Gescom - Le Shark.wav

Peak level 99.8 %
Track quality 99.2 %
Test CRC 7095FE3C
Copy CRC 7095FE3C
Track not present in AccurateRip database
Copy OK

Track 37

Filename C:\37 Gescom - 1D Shapethrower.wav

Peak level 65.3 %
Track quality 100.0 %
Test CRC 360160A8
Copy CRC 360160A8
Track not present in AccurateRip database
Copy OK

Track 38

Filename C:\38 Gescom - Shoegazer.wav

Peak level 96.6 %
Track quality 100.0 %
Test CRC B84C3845
Copy CRC B84C3845
Track not present in AccurateRip database
Copy OK

Track 39

Filename C:\39 Gescom - Vermin.wav

Peak level 99.8 %
Track quality 99.2 %
Test CRC 4F8C57BF
Copy CRC 4F8C57BF
Track not present in AccurateRip database
Copy OK

Track 40

Filename C:\40 Gescom - Vermin.wav

Peak level 96.8 %
Track quality 100.0 %
Test CRC 5E55095D
Copy CRC 5E55095D
Track not present in AccurateRip database
Copy OK

Track 41

Filename C:\41 Gescom - Vermin.wav

Peak level 22.5 %
Track quality 99.2 %
Test CRC 3B6E0785
Copy CRC 3B6E0785
Track not present in AccurateRip database
Copy OK

Track 42

Filename C:\42 Gescom - Hemiplegia 1.wav

Peak level 99.8 %
Track quality 100.0 %
Test CRC C6763380
Copy CRC C6763380
Track not present in AccurateRip database
Copy OK

Track 43

Filename C:\43 Gescom - Mcdcc.wav

Peak level 70.2 %
Track quality 100.0 %
Test CRC E5D95689
Copy CRC E5D95689
Track not present in AccurateRip database
Copy OK

Track 44

Filename C:\44 Gescom - Gortex.wav

Peak level 99.8 %
Track quality 100.0 %
Test CRC 400C70D6
Copy CRC 400C70D6
Track not present in AccurateRip database
Copy OK

Track 45

Filename C:\45 Gescom - Alf Sprey.wav

Peak level 92.8 %
Track quality 100.0 %
Test CRC 6D75BA90
Copy CRC 6D75BA90
Track not present in AccurateRip database
Copy OK

Track 46

Filename C:\46 Gescom - Interchangeable World.wav

Peak level 7.9 %
Track quality 100.0 %
Test CRC E6B28A1C
Copy CRC E6B28A1C
Track not present in AccurateRip database
Copy OK

Track 47

Filename C:\47 Gescom - Interchangeable World.wav

Peak level 93.7 %
Track quality 100.0 %
Test CRC 2212B975
Copy CRC 2212B975
Track not present in AccurateRip database
Copy OK

Track 48

Filename C:\48 Gescom - Interchangeable World.wav

Peak level 95.7 %
Track quality 100.0 %
Test CRC DAAFC2EC
Copy CRC DAAFC2EC
Track not present in AccurateRip database
Copy OK

Track 49

Filename C:\49 Gescom - Cranusberg.wav

Peak level 93.0 %
Track quality 100.0 %
Test CRC FF329C9D
Copy CRC FF329C9D
Track not present in AccurateRip database
Copy OK

Track 50

Filename C:\50 Gescom - Cranusberg.wav

Peak level 93.4 %
Track quality 99.9 %
Test CRC 476E1F76
Copy CRC 476E1F76
Track not present in AccurateRip database
Copy OK

Track 51

Filename C:\51 Gescom - Cranusberg.wav

Peak level 92.9 %
Track quality 100.0 %
Test CRC 224729EE
Copy CRC 224729EE
Track not present in AccurateRip database
Copy OK

Track 52

Filename C:\52 Gescom - Raindance.wav

Peak level 91.2 %
Track quality 99.7 %
Test CRC 31CC50D2
Copy CRC 31CC50D2
Track not present in AccurateRip database
Copy OK

Track 53

Filename C:\53 Gescom - Horse.wav

Peak level 61.6 %
Track quality 100.0 %
Test CRC B8CBEA45
Copy CRC B8CBEA45
Track not present in AccurateRip database
Copy OK

Track 54

Filename C:\54 Gescom - New Contact Lens.wav

Peak level 80.2 %
Track quality 100.0 %
Test CRC EF625E14
Copy CRC EF625E14
Track not present in AccurateRip database
Copy OK

Track 55

Filename C:\55 Gescom - Of Our Time.wav

Peak level 95.2 %
Track quality 100.0 %
Test CRC 89E0ACEB
Copy CRC 89E0ACEB
Track not present in AccurateRip database
Copy OK

Track 56

Filename C:\56 Gescom - Crepe.wav

Peak level 70.4 %
Track quality 97.4 %
Test CRC B7D0A616
Copy CRC B7D0A616
Track not present in AccurateRip database
Copy OK

Track 57

Filename C:\57 Gescom - Crepe.wav

Peak level 77.0 %
Track quality 100.0 %
Test CRC 25024166
Copy CRC 25024166
Track not present in AccurateRip database
Copy OK

Track 58

Filename C:\58 Gescom - Crepe.wav

Peak level 26.3 %
Track quality 97.4 %
Test CRC 8E31CA54
Copy CRC 8E31CA54
Track not present in AccurateRip database
Copy OK

Track 59

Filename C:\59 Gescom - Crepe.wav

Peak level 65.3 %
Track quality 100.0 %
Test CRC 034AE486
Copy CRC 034AE486
Track not present in AccurateRip database
Copy OK

Track 60

Filename C:\60 Gescom - Wab Wat.wav

Peak level 97.5 %
Track quality 100.0 %
Test CRC D4D68FFA
Copy CRC D4D68FFA
Track not present in AccurateRip database
Copy OK

Track 61

Filename C:\61 Gescom - Mc.wav

Peak level 17.2 %
Track quality 100.0 %
Test CRC 5B8BA515
Copy CRC 5B8BA515
Track not present in AccurateRip database
Copy OK

Track 62

Filename C:\62 Gescom - Peel.wav

Peak level 87.0 %
Track quality 100.0 %
Test CRC 21F09357
Copy CRC 21F09357
Track not present in AccurateRip database
Copy OK

Track 63

Filename C:\63 Gescom - I G E.wav

Peak level 99.8 %
Track quality 100.0 %
Test CRC 10603AAC
Copy CRC 10603AAC
Track not present in AccurateRip database
Copy OK

Track 64

Filename C:\64 Gescom - Knutsford Services.wav

Peak level 93.4 %
Track quality 100.0 %
Test CRC 96971CA7
Copy CRC 96971CA7
Track not present in AccurateRip database
Copy OK

Track 65

Filename C:\65 Gescom - Fully.wav

Peak level 59.2 %
Track quality 100.0 %
Test CRC 1F65ACEA
Copy CRC 1F65ACEA
Track not present in AccurateRip database
Copy OK

Track 66

Filename C:\66 Gescom - Fully.wav

Peak level 85.8 %
Track quality 100.0 %
Test CRC A58CA4EF
Copy CRC A58CA4EF
Track not present in AccurateRip database
Copy OK

Track 67

Filename C:\67 Gescom - Squashed To Pureness.wav

Peak level 98.5 %
Track quality 100.0 %
Test CRC 11F0187B
Copy CRC 11F0187B
Track not present in AccurateRip database
Copy OK

Track 68

Filename C:\68 Gescom - Squashed To Pureness.wav

Peak level 77.3 %
Track quality 100.0 %
Test CRC 647D6821
Copy CRC 647D6821
Track not present in AccurateRip database
Copy OK

Track 69

Filename C:\69 Gescom - Squashed To Pureness.wav

Peak level 68.5 %
Track quality 98.9 %
Test CRC 0F8B9C87
Copy CRC 0F8B9C87
Track not present in AccurateRip database
Copy OK

Track 70

Filename C:\70 Gescom - Squashed To Pureness.wav

Peak level 99.8 %
Track quality 100.0 %
Test CRC 66BC55D2
Copy CRC 66BC55D2
Track not present in AccurateRip database
Copy OK

Track 71

Filename C:\71 Gescom - Yo! DMX Crew.wav

Peak level 93.7 %
Track quality 100.0 %
Test CRC A35DC538
Copy CRC A35DC538
Track not present in AccurateRip database
Copy OK

Track 72

Filename C:\72 Gescom - Go On.wav

Peak level 94.0 %
Track quality 100.0 %
Test CRC 4EBA1CF0
Copy CRC 4EBA1CF0
Track not present in AccurateRip database
Copy OK

Track 73

Filename C:\73 Gescom - Stroyer 2.wav

Peak level 43.7 %
Track quality 100.0 %
Test CRC FF6556E6
Copy CRC FF6556E6
Track not present in AccurateRip database
Copy OK

Track 74

Filename C:\74 Gescom - _.wav

Peak level 44.5 %
Track quality 99.8 %
Test CRC 5AB57BF5
Copy CRC 5AB57BF5
Track not present in AccurateRip database
Copy OK

Track 75

Filename C:\75 Gescom - _.wav

Peak level 17.8 %
Track quality 100.0 %
Test CRC F416A8E8
Copy CRC F416A8E8
Track not present in AccurateRip database
Copy OK

Track 76

Filename C:\76 Gescom - Shep.wav

Peak level 70.2 %
Track quality 100.0 %
Test CRC 372ADF28
Copy CRC 372ADF28
Track not present in AccurateRip database
Copy OK

Track 77

Filename C:\77 Gescom - Langue.wav

Peak level 35.1 %
Track quality 100.0 %
Test CRC DE4A8831
Copy CRC DE4A8831
Track not present in AccurateRip database
Copy OK

Track 78

Filename C:\78 Gescom - Poke.wav

Peak level 99.8 %
Track quality 100.0 %
Test CRC 88C6D70A
Copy CRC 88C6D70A
Track not present in AccurateRip database
Copy OK

Track 79

Filename C:\79 Gescom - Poke.wav

Peak level 99.8 %
Track quality 99.3 %
Test CRC 7151AD65
Copy CRC 7151AD65
Track not present in AccurateRip database
Copy OK

Track 80

Filename C:\80 Gescom - Poke.wav

Peak level 99.8 %
Track quality 99.6 %
Test CRC BD0A21E1
Copy CRC BD0A21E1
Track not present in AccurateRip database
Copy OK

Track 81

Filename C:\81 Gescom - Poke.wav

Peak level 99.8 %
Track quality 100.0 %
Test CRC E7394FC7
Copy CRC E7394FC7
Track not present in AccurateRip database
Copy OK

Track 82

Filename C:\82 Gescom - Hemiplegia 2.wav

Peak level 99.8 %
Track quality 99.3 %
Test CRC 5D473068
Copy CRC 5D473068
Track not present in AccurateRip database
Copy OK

Track 83

Filename C:\83 Gescom - Territory Of Usage.wav

Peak level 73.0 %
Track quality 100.0 %
Test CRC 0949BE27
Copy CRC 0949BE27
Track not present in AccurateRip database
Copy OK

Track 84

Filename C:\84 Gescom - Territory Of Usage.wav

Peak level 91.3 %
Track quality 100.0 %
Test CRC BA7A866E
Copy CRC BA7A866E
Track not present in AccurateRip database
Copy OK

Track 85

Filename C:\85 Gescom - Tomo.wav

Peak level 32.8 %
Track quality 100.0 %
Test CRC 6129D211
Copy CRC 6129D211
Track not present in AccurateRip database
Copy OK

Track 86

Filename C:\86 Gescom - Tomo.wav

Peak level 32.8 %
Track quality 99.3 %
Test CRC 6DD83834
Copy CRC 6DD83834
Track not present in AccurateRip database
Copy OK

Track 87

Filename C:\87 Gescom - R M I Corporate Id 2.wav

Peak level 63.5 %
Track quality 100.0 %
Test CRC A93EF4AA
Copy CRC A93EF4AA
Track not present in AccurateRip database
Copy OK

Track 88

Filename C:\88 Gescom - Pt-Ae.wav

Peak level 50.7 %
Track quality 100.0 %
Test CRC 671E2C62
Copy CRC 671E2C62
Track not present in AccurateRip database
Copy OK

None of the tracks are present in the AccurateRip database

No errors occurred

End of status report


REM GENRE Electronic
REM DATE 2006
REM DISCID 0B0FB958
REM COMMENT "ExactAudioCopy v0.99pb3"
PERFORMER "Gescom"
TITLE "MiniDisc"
FILE "01 Gescom - Cut Begin.wav" WAVE
TRACK 01 AUDIO
TITLE "Cut Begin"
PERFORMER "Gescom"
FLAGS DCP
INDEX 01 00:00:00
FILE "02 Gescom - Cut Begin.wav" WAVE
TRACK 02 AUDIO
TITLE "Cut Begin"
PERFORMER "Gescom"
FLAGS DCP
INDEX 01 00:00:00
FILE "03 Gescom - Cut Begin.wav" WAVE
TRACK 03 AUDIO
TITLE "Cut Begin"
PERFORMER "Gescom"
FLAGS DCP
INDEX 01 00:00:00
FILE "04 Gescom - Cut Begin.wav" WAVE
TRACK 04 AUDIO
TITLE "Cut Begin"
PERFORMER "Gescom"
FLAGS DCP
INDEX 01 00:00:00
FILE "05 Gescom - Cut Begin.wav" WAVE
TRACK 05 AUDIO
TITLE "Cut Begin"
PERFORMER "Gescom"
FLAGS DCP
INDEX 01 00:00:00
FILE "06 Gescom - Cut Begin.wav" WAVE
TRACK 06 AUDIO
TITLE "Cut Begin"
PERFORMER "Gescom"
FLAGS DCP
INDEX 01 00:00:00
FILE "07 Gescom - Cut Begin.wav" WAVE
TRACK 07 AUDIO
TITLE "Cut Begin"
PERFORMER "Gescom"
FLAGS DCP
INDEX 01 00:00:00
FILE "08 Gescom - Amendment 84.wav" WAVE
TRACK 08 AUDIO
TITLE "Amendment 84"
PERFORMER "Gescom"
FLAGS DCP
INDEX 01 00:00:00
FILE "09 Gescom - Helix Shatterproof.wav" WAVE
TRACK 09 AUDIO
TITLE "Helix Shatterproof"
PERFORMER "Gescom"
FLAGS DCP
INDEX 01 00:00:00
FILE "10 Gescom - A Newer Beginning.wav" WAVE
TRACK 10 AUDIO
TITLE "A Newer Beginning"
PERFORMER "Gescom"
FLAGS DCP
INDEX 01 00:00:00
FILE "11 Gescom - A Newer Beginning.wav" WAVE
TRACK 11 AUDIO
TITLE "A Newer Beginning"
PERFORMER "Gescom"
FLAGS DCP
INDEX 01 00:00:00
FILE "12 Gescom - Polarised Beam Splitter.wav" WAVE
TRACK 12 AUDIO
TITLE "Polarised Beam Splitter"
PERFORMER "Gescom"
FLAGS DCP
INDEX 01 00:00:00
FILE "13 Gescom - Polarised Beam Splitter.wav" WAVE
TRACK 13 AUDIO
TITLE "Polarised Beam Splitter"
PERFORMER "Gescom"
FLAGS DCP
INDEX 01 00:00:00
FILE "14 Gescom - Polarised Beam Splitter.wav" WAVE
TRACK 14 AUDIO
TITLE "Polarised Beam Splitter"
PERFORMER "Gescom"
FLAGS DCP
INDEX 01 00:00:00
FILE "15 Gescom - Polarised Beam Splitter.wav" WAVE
TRACK 15 AUDIO
TITLE "Polarised Beam Splitter"
PERFORMER "Gescom"
FLAGS DCP
INDEX 01 00:00:00
FILE "16 Gescom - Polarised Beam Splitter.wav" WAVE
TRACK 16 AUDIO
TITLE "Polarised Beam Splitter"
PERFORMER "Gescom"
FLAGS DCP
INDEX 01 00:00:00
FILE "17 Gescom - Inter.wav" WAVE
TRACK 17 AUDIO
TITLE "Inter"
PERFORMER "Gescom"
FLAGS DCP
INDEX 01 00:00:00
FILE "18 Gescom - R M I Corporate ID 1.wav" WAVE
TRACK 18 AUDIO
TITLE "R M I Corporate ID 1"
PERFORMER "Gescom"
FLAGS DCP
INDEX 01 00:00:00
FILE "19 Gescom - Pricks.wav" WAVE
TRACK 19 AUDIO
TITLE "Pricks"
PERFORMER "Gescom"
FLAGS DCP
INDEX 01 00:00:00
FILE "20 Gescom - Pricks.wav" WAVE
TRACK 20 AUDIO
TITLE "Pricks"
PERFORMER "Gescom"
FLAGS DCP
INDEX 01 00:00:00
FILE "21 Gescom - Pricks.wav" WAVE
TRACK 21 AUDIO
TITLE "Pricks"
PERFORMER "Gescom"
FLAGS DCP
INDEX 01 00:00:00
FILE "22 Gescom - Pricks.wav" WAVE
TRACK 22 AUDIO
TITLE "Pricks"
PERFORMER "Gescom"
FLAGS DCP
INDEX 01 00:00:00
FILE "23 Gescom - Devil.wav" WAVE
TRACK 23 AUDIO
TITLE "Devil"
PERFORMER "Gescom"
FLAGS DCP
INDEX 01 00:00:00
FILE "24 Gescom - Is We.wav" WAVE
TRACK 24 AUDIO
TITLE "Is We"
PERFORMER "Gescom"
FLAGS DCP
INDEX 01 00:00:00
FILE "25 Gescom - Is We.wav" WAVE
TRACK 25 AUDIO
TITLE "Is We"
PERFORMER "Gescom"
FLAGS DCP
INDEX 01 00:00:00
FILE "26 Gescom - Dan Dan Dan.wav" WAVE
TRACK 26 AUDIO
TITLE "Dan Dan Dan"
PERFORMER "Gescom"
FLAGS DCP
INDEX 01 00:00:00
FILE "27 Gescom - Dan Dan Dan.wav" WAVE
TRACK 27 AUDIO
TITLE "Dan Dan Dan"
PERFORMER "Gescom"
FLAGS DCP
INDEX 01 00:00:00
FILE "28 Gescom - Dan Dan Dan.wav" WAVE
TRACK 28 AUDIO
TITLE "Dan Dan Dan"
PERFORMER "Gescom"
FLAGS DCP
INDEX 01 00:00:00
FILE "29 Gescom - Dan Dan Dan.wav" WAVE
TRACK 29 AUDIO
TITLE "Dan Dan Dan"
PERFORMER "Gescom"
FLAGS DCP
INDEX 01 00:00:00
FILE "30 Gescom - Le Shark.wav" WAVE
TRACK 30 AUDIO
TITLE "Le Shark"
PERFORMER "Gescom"
FLAGS DCP
INDEX 01 00:00:00
FILE "31 Gescom - Le Shark.wav" WAVE
TRACK 31 AUDIO
TITLE "Le Shark"
PERFORMER "Gescom"
FLAGS DCP
INDEX 01 00:00:00
FILE "32 Gescom - Le Shark.wav" WAVE
TRACK 32 AUDIO
TITLE "Le Shark"
PERFORMER "Gescom"
FLAGS DCP
INDEX 01 00:00:00
FILE "33 Gescom - Le Shark.wav" WAVE
TRACK 33 AUDIO
TITLE "Le Shark"
PERFORMER "Gescom"
FLAGS DCP
INDEX 01 00:00:00
FILE "34 Gescom - Le Shark.wav" WAVE
TRACK 34 AUDIO
TITLE "Le Shark"
PERFORMER "Gescom"
FLAGS DCP
INDEX 01 00:00:00
FILE "35 Gescom - Le Shark.wav" WAVE
TRACK 35 AUDIO
TITLE "Le Shark"
PERFORMER "Gescom"
FLAGS DCP
INDEX 01 00:00:00
FILE "36 Gescom - Le Shark.wav" WAVE
TRACK 36 AUDIO
TITLE "Le Shark"
PERFORMER "Gescom"
FLAGS DCP
INDEX 01 00:00:00
FILE "37 Gescom - 1D Shapethrower.wav" WAVE
TRACK 37 AUDIO
TITLE "1D Shapethrower"
PERFORMER "Gescom"
FLAGS DCP
INDEX 01 00:00:00
FILE "38 Gescom - Shoegazer.wav" WAVE
TRACK 38 AUDIO
TITLE "Shoegazer"
PERFORMER "Gescom"
FLAGS DCP
INDEX 01 00:00:00
FILE "39 Gescom - Vermin.wav" WAVE
TRACK 39 AUDIO
TITLE "Vermin"
PERFORMER "Gescom"
FLAGS DCP
INDEX 01 00:00:00
FILE "40 Gescom - Vermin.wav" WAVE
TRACK 40 AUDIO
TITLE "Vermin"
PERFORMER "Gescom"
FLAGS DCP
INDEX 01 00:00:00
FILE "41 Gescom - Vermin.wav" WAVE
TRACK 41 AUDIO
TITLE "Vermin"
PERFORMER "Gescom"
FLAGS DCP
INDEX 01 00:00:00
FILE "42 Gescom - Hemiplegia 1.wav" WAVE
TRACK 42 AUDIO
TITLE "Hemiplegia 1"
PERFORMER "Gescom"
FLAGS DCP
INDEX 01 00:00:00
FILE "43 Gescom - Mcdcc.wav" WAVE
TRACK 43 AUDIO
TITLE "Mcdcc"
PERFORMER "Gescom"
FLAGS DCP
INDEX 01 00:00:00
FILE "44 Gescom - Gortex.wav" WAVE
TRACK 44 AUDIO
TITLE "Gortex"
PERFORMER "Gescom"
FLAGS DCP
INDEX 01 00:00:00
FILE "45 Gescom - Alf Sprey.wav" WAVE
TRACK 45 AUDIO
TITLE "Alf Sprey"
PERFORMER "Gescom"
FLAGS DCP
INDEX 01 00:00:00
FILE "46 Gescom - Interchangeable World.wav" WAVE
TRACK 46 AUDIO
TITLE "Interchangeable World"
PERFORMER "Gescom"
FLAGS DCP
INDEX 01 00:00:00
FILE "47 Gescom - Interchangeable World.wav" WAVE
TRACK 47 AUDIO
TITLE "Interchangeable World"
PERFORMER "Gescom"
FLAGS DCP
INDEX 01 00:00:00
FILE "48 Gescom - Interchangeable World.wav" WAVE
TRACK 48 AUDIO
TITLE "Interchangeable World"
PERFORMER "Gescom"
FLAGS DCP
INDEX 01 00:00:00
FILE "49 Gescom - Cranusberg.wav" WAVE
TRACK 49 AUDIO
TITLE "Cranusberg"
PERFORMER "Gescom"
FLAGS DCP
INDEX 01 00:00:00
FILE "50 Gescom - Cranusberg.wav" WAVE
TRACK 50 AUDIO
TITLE "Cranusberg"
PERFORMER "Gescom"
FLAGS DCP
INDEX 01 00:00:00
FILE "51 Gescom - Cranusberg.wav" WAVE
TRACK 51 AUDIO
TITLE "Cranusberg"
PERFORMER "Gescom"
FLAGS DCP
INDEX 01 00:00:00
FILE "52 Gescom - Raindance.wav" WAVE
TRACK 52 AUDIO
TITLE "Raindance"
PERFORMER "Gescom"
FLAGS DCP
INDEX 01 00:00:00
FILE "53 Gescom - Horse.wav" WAVE
TRACK 53 AUDIO
TITLE "Horse"
PERFORMER "Gescom"
FLAGS DCP
INDEX 01 00:00:00
FILE "54 Gescom - New Contact Lens.wav" WAVE
TRACK 54 AUDIO
TITLE "New Contact Lens"
PERFORMER "Gescom"
FLAGS DCP
INDEX 01 00:00:00
FILE "55 Gescom - Of Our Time.wav" WAVE
TRACK 55 AUDIO
TITLE "Of Our Time"
PERFORMER "Gescom"
FLAGS DCP
INDEX 01 00:00:00
FILE "56 Gescom - Crepe.wav" WAVE
TRACK 56 AUDIO
TITLE "Crepe"
PERFORMER "Gescom"
FLAGS DCP
INDEX 01 00:00:00
FILE "57 Gescom - Crepe.wav" WAVE
TRACK 57 AUDIO
TITLE "Crepe"
PERFORMER "Gescom"
FLAGS DCP
INDEX 01 00:00:00
FILE "58 Gescom - Crepe.wav" WAVE
TRACK 58 AUDIO
TITLE "Crepe"
PERFORMER "Gescom"
FLAGS DCP
INDEX 01 00:00:00
FILE "59 Gescom - Crepe.wav" WAVE
TRACK 59 AUDIO
TITLE "Crepe"
PERFORMER "Gescom"
FLAGS DCP
INDEX 01 00:00:00
FILE "60 Gescom - Wab Wat.wav" WAVE
TRACK 60 AUDIO
TITLE "Wab Wat"
PERFORMER "Gescom"
FLAGS DCP
INDEX 01 00:00:00
FILE "61 Gescom - Mc.wav" WAVE
TRACK 61 AUDIO
TITLE "Mc"
PERFORMER "Gescom"
FLAGS DCP
INDEX 01 00:00:00
FILE "62 Gescom - Peel.wav" WAVE
TRACK 62 AUDIO
TITLE "Peel"
PERFORMER "Gescom"
FLAGS DCP
INDEX 01 00:00:00
FILE "63 Gescom - I G E.wav" WAVE
TRACK 63 AUDIO
TITLE "I G E"
PERFORMER "Gescom"
FLAGS DCP
INDEX 01 00:00:00
FILE "64 Gescom - Knutsford Services.wav" WAVE
TRACK 64 AUDIO
TITLE "Knutsford Services"
PERFORMER "Gescom"
FLAGS DCP
INDEX 01 00:00:00
FILE "65 Gescom - Fully.wav" WAVE
TRACK 65 AUDIO
TITLE "Fully"
PERFORMER "Gescom"
FLAGS DCP
INDEX 01 00:00:00
FILE "66 Gescom - Fully.wav" WAVE
TRACK 66 AUDIO
TITLE "Fully"
PERFORMER "Gescom"
FLAGS DCP
INDEX 01 00:00:00
FILE "67 Gescom - Squashed To Pureness.wav" WAVE
TRACK 67 AUDIO
TITLE "Squashed To Pureness"
PERFORMER "Gescom"
FLAGS DCP
INDEX 01 00:00:00
FILE "68 Gescom - Squashed To Pureness.wav" WAVE
TRACK 68 AUDIO
TITLE "Squashed To Pureness"
PERFORMER "Gescom"
FLAGS DCP
INDEX 01 00:00:00
FILE "69 Gescom - Squashed To Pureness.wav" WAVE
TRACK 69 AUDIO
TITLE "Squashed To Pureness"
PERFORMER "Gescom"
FLAGS DCP
INDEX 01 00:00:00
FILE "70 Gescom - Squashed To Pureness.wav" WAVE
TRACK 70 AUDIO
TITLE "Squashed To Pureness"
PERFORMER "Gescom"
FLAGS DCP
INDEX 01 00:00:00
FILE "71 Gescom - Yo! DMX Crew.wav" WAVE
TRACK 71 AUDIO
TITLE "Yo! DMX Crew"
PERFORMER "Gescom"
FLAGS DCP
INDEX 01 00:00:00
FILE "72 Gescom - Go On.wav" WAVE
TRACK 72 AUDIO
TITLE "Go On"
PERFORMER "Gescom"
FLAGS DCP
INDEX 01 00:00:00
FILE "73 Gescom - Stroyer 2.wav" WAVE
TRACK 73 AUDIO
TITLE "Stroyer 2"
PERFORMER "Gescom"
FLAGS DCP
INDEX 01 00:00:00
FILE "74 Gescom - _.wav" WAVE
TRACK 74 AUDIO
TITLE "_"
PERFORMER "Gescom"
FLAGS DCP
INDEX 01 00:00:00
FILE "75 Gescom - _.wav" WAVE
TRACK 75 AUDIO
TITLE "_"
PERFORMER "Gescom"
FLAGS DCP
INDEX 01 00:00:00
FILE "76 Gescom - Shep.wav" WAVE
TRACK 76 AUDIO
TITLE "Shep"
PERFORMER "Gescom"
FLAGS DCP
INDEX 01 00:00:00
FILE "77 Gescom - Langue.wav" WAVE
TRACK 77 AUDIO
TITLE "Langue"
PERFORMER "Gescom"
FLAGS DCP
INDEX 01 00:00:00
FILE "78 Gescom - Poke.wav" WAVE
TRACK 78 AUDIO
TITLE "Poke"
PERFORMER "Gescom"
FLAGS DCP
INDEX 01 00:00:00
FILE "79 Gescom - Poke.wav" WAVE
TRACK 79 AUDIO
TITLE "Poke"
PERFORMER "Gescom"
FLAGS DCP
INDEX 01 00:00:00
FILE "80 Gescom - Poke.wav" WAVE
TRACK 80 AUDIO
TITLE "Poke"
PERFORMER "Gescom"
FLAGS DCP
INDEX 01 00:00:00
FILE "81 Gescom - Poke.wav" WAVE
TRACK 81 AUDIO
TITLE "Poke"
PERFORMER "Gescom"
FLAGS DCP
INDEX 01 00:00:00
FILE "82 Gescom - Hemiplegia 2.wav" WAVE
TRACK 82 AUDIO
TITLE "Hemiplegia 2"
PERFORMER "Gescom"
FLAGS DCP
INDEX 01 00:00:00
FILE "83 Gescom - Territory Of Usage.wav" WAVE
TRACK 83 AUDIO
TITLE "Territory Of Usage"
PERFORMER "Gescom"
FLAGS DCP
INDEX 01 00:00:00
FILE "84 Gescom - Territory Of Usage.wav" WAVE
TRACK 84 AUDIO
TITLE "Territory Of Usage"
PERFORMER "Gescom"
FLAGS DCP
INDEX 01 00:00:00
FILE "85 Gescom - Tomo.wav" WAVE
TRACK 85 AUDIO
TITLE "Tomo"
PERFORMER "Gescom"
FLAGS DCP
INDEX 01 00:00:00
FILE "86 Gescom - Tomo.wav" WAVE
TRACK 86 AUDIO
TITLE "Tomo"
PERFORMER "Gescom"
FLAGS DCP
INDEX 01 00:00:00
FILE "87 Gescom - R M I Corporate Id 2.wav" WAVE
TRACK 87 AUDIO
TITLE "R M I Corporate Id 2"
PERFORMER "Gescom"
FLAGS DCP
INDEX 01 00:00:00
FILE "88 Gescom - Pt-Ae.wav" WAVE
TRACK 88 AUDIO
TITLE "Pt\Ae"
PERFORMER "Gescom"
FLAGS DCP
INDEX 01 00:00:00

Год выпуска: 2007
Продолжительность: 00:39:30
Треклист:

01. A1 (06:43)
02. A2 (05:29)
03. B1 (07:53)
04. C1 (05:31)
05. C2 (04:41)
06. D1 (09:13)

Exact Audio Copy V0.99 prebeta 4 from 23. January 2008

EAC extraction logfile from 23. April 2008, 12:13

Gescom / A1-D1

Used drive : MATSHITACD-RW CW-8124 Adapter: 0 ID: 1

Read mode : Secure
Utilize accurate stream : Yes
Defeat audio cache : Yes
Make use of C2 pointers : No

Read offset correction : 102
Overread into Lead-In and Lead-Out : No
Fill up missing offset samples with silence : Yes
Delete leading and trailing silent blocks : No
Null samples used in CRC calculations : Yes
Used interface : Native Win32 interface for Win NT & 2000
Gap handling : Appended to previous track

Used output format : User Defined Encoder
Selected bitrate : 256 kBit/s
Quality : High
Add ID3 tag : No
Command line compressor : C:\Program Files\Exact Audio Copy\Flac\flac.exe
Additional command line options : -V -8 -T "artist=%a" -T "title=%t" -T "album=%g" -T "date=%y" -T "tracknumber=%n" -T "genre=%m" %s

TOC of the extracted CD

Track | Start | Length | Start sector | End sector
---------------------------------------------------------
1 | 0:00.00 | 6:42.47 | 0 | 30196
2 | 6:42.47 | 5:29.26 | 30197 | 54897
3 | 12:11.73 | 7:52.69 | 54898 | 90366
4 | 20:04.67 | 5:31.29 | 90367 | 115220
5 | 25:36.21 | 4:41.14 | 115221 | 136309
6 | 30:17.35 | 9:12.54 | 136310 | 177763

Track 1

Filename C:\EAC rips\Gescom - 2007 - A1-D1\01 - A1.wav

Pre-gap length 0:00:02.00

Peak level 100.0 %
Track quality 100.0 %
Test CRC 4C7D8163
Copy CRC 4C7D8163
Track not present in AccurateRip database
Copy OK

Track 2

Filename C:\EAC rips\Gescom - 2007 - A1-D1\02 - A2.wav

Peak level 100.0 %
Track quality 100.0 %
Test CRC 51CA6023
Copy CRC 51CA6023
Track not present in AccurateRip database
Copy OK

Track 3

Filename C:\EAC rips\Gescom - 2007 - A1-D1\03 - B1.wav

Peak level 100.0 %
Track quality 100.0 %
Test CRC 6F5E209E
Copy CRC 6F5E209E
Track not present in AccurateRip database
Copy OK

Track 4

Filename C:\EAC rips\Gescom - 2007 - A1-D1\04 - C1.wav

Peak level 100.0 %
Track quality 99.9 %
Test CRC BCB8F6C1
Copy CRC BCB8F6C1
Track not present in AccurateRip database
Copy OK

Track 5

Filename C:\EAC rips\Gescom - 2007 - A1-D1\05 - C2.wav

Peak level 88.9 %
Track quality 100.0 %
Test CRC 475DE4EF
Copy CRC 475DE4EF
Track not present in AccurateRip database
Copy OK

Track 6

Filename C:\EAC rips\Gescom - 2007 - A1-D1\06 - D1.wav

Peak level 100.0 %
Track quality 100.0 %
Test CRC 8CB87491
Copy CRC 8CB87491
Track not present in AccurateRip database
Copy OK

None of the tracks are present in the AccurateRip database

No errors occurred

End of status report


REM GENRE IDM
REM DATE 2007
REM DISCID 44094206
REM COMMENT "ExactAudioCopy v0.99pb4"
PERFORMER "Gescom"
TITLE "A1-D1"
FILE "01 - A1.wav" WAVE
TRACK 01 AUDIO
TITLE "A1"
PERFORMER "Gescom"
INDEX 01 00:00:00
FILE "02 - A2.wav" WAVE
TRACK 02 AUDIO
TITLE "A2"
PERFORMER "Gescom"
INDEX 01 00:00:00
FILE "03 - B1.wav" WAVE
TRACK 03 AUDIO
TITLE "B1"
PERFORMER "Gescom"
INDEX 01 00:00:00
FILE "04 - C1.wav" WAVE
TRACK 04 AUDIO
TITLE "C1"
PERFORMER "Gescom"
INDEX 01 00:00:00
FILE "05 - C2.wav" WAVE
TRACK 05 AUDIO
TITLE "C2"
PERFORMER "Gescom"
INDEX 01 00:00:00
FILE "06 - D1.wav" WAVE
TRACK 06 AUDIO
TITLE "D1"
PERFORMER "Gescom"
INDEX 01 00:00:00

Год выпуска: 1994
Продолжительность: 00:35:59
Треклист:

01. Dan One (07:12)
02. Five (09:57)
03. Cicada (08:36)
04. Sciew Spoc (10:14)

-----------------------

DON'T MODIFY THIS FILE

-----------------------

PERFORMER: auCDtect Task Manager, ver. 1.5.1RC6 build 1.5.1.7
Copyright (c) 2008-2010 y-soft. All rights reserved
http://y-soft.org

ANALYZER: auCDtect: CD records authenticity detector, version 0.8.2
Copyright (c) 2004 Oleg Berngardt. All rights reserved.
Copyright (c) 2004 Alexander Djourik. All rights reserved.

FILE: 04. Sciew Spoc.flac
Size: 66672528 Hash: E94ACB0D8566A4EA846A62B7B5DE4EA2 Accuracy: -m0
Conclusion: MPEG 95%
Signature: 3E0993B7A832ED804BAC6A5DA8C4CB1AC979E480
FILE: 03. Cicada.flac
Size: 54142077 Hash: 2D72F60CC09E3C4736F4EAA860318A31 Accuracy: -m0
Conclusion: MPEG 95%
Signature: 7AE04BA6CDE1E1626809DD9FEF88D124DAA988E8
FILE: 02. Five.flac
Size: 63594544 Hash: 05D2B5905A40174B35786ACB72DA39E1 Accuracy: -m0
Conclusion: MPEG 95%
Signature: 6462C03E7DCA2F2E0FE1C5C0E5EC8E48801FFB3C
FILE: 01. Dan One.flac
Size: 53674443 Hash: 7AC78D7403AEBDBBEDE84528A026708D Accuracy: -m0
Conclusion: MPEG 95%
Signature: AA6332963C6A5A2F007E0F9814D73A0BE482B6F3

Год выпуска: 1994
Продолжительность: 00:30:02
Треклист:

01. Motor1 (08:49)
02. Motor2 (08:06)
03. Motor3 (07:07)
04. Motor4 (06:00)

-----------------------

DON'T MODIFY THIS FILE

-----------------------

PERFORMER: auCDtect Task Manager, ver. 1.5.1RC6 build 1.5.1.7
Copyright (c) 2008-2010 y-soft. All rights reserved
http://y-soft.org

ANALYZER: auCDtect: CD records authenticity detector, version 0.8.2
Copyright (c) 2004 Oleg Berngardt. All rights reserved.
Copyright (c) 2004 Alexander Djourik. All rights reserved.

FILE: 04. Motor4.flac
Size: 32979442 Hash: 844346F0118E5167F3807F4F8CC7C84E Accuracy: -m0
Conclusion: CDDA 100%
Signature: 44BCC18FCB3EF67DFA78FAA5CDC0E5DA2BCF0C55
FILE: 03. Motor3.flac
Size: 31763181 Hash: F767615BBC8D128FBE0DBD4EE1293E54 Accuracy: -m0
Conclusion: CDDA 100%
Signature: 089DF36A1ACAB5DB32A12D1A0C6B62CEF8A79804
FILE: 02. Motor2.flac
Size: 44597095 Hash: 2C6A0A913649957CCB426BE2F96D0CC4 Accuracy: -m0
Conclusion: CDDA 100%
Signature: 6D9F20556BA552E2A1BD28CD86CC1886F418DF1B
FILE: 01. Motor1.flac
Size: 53782364 Hash: 842F28FC7D7B0390D5BE6241A0FBE569 Accuracy: -m0
Conclusion: CDDA 86%
Signature: 84F9493E9974C579CDCB159E6F12C88CA56D9C03

Год выпуска: 1995
Продолжительность: 00:14:15
Треклист:

01. Snackwitch (06:08)
02. Mag (08:07)

-----------------------

DON'T MODIFY THIS FILE

-----------------------

PERFORMER: auCDtect Task Manager, ver. 1.5.1RC6 build 1.5.1.7
Copyright (c) 2008-2010 y-soft. All rights reserved
http://y-soft.org

ANALYZER: auCDtect: CD records authenticity detector, version 0.8.2
Copyright (c) 2004 Oleg Berngardt. All rights reserved.
Copyright (c) 2004 Alexander Djourik. All rights reserved.

FILE: 02. Mag.flac
Size: 51192875 Hash: 25D9853AD29B8E6A44E889B8E5A9D920 Accuracy: -m0
Conclusion: CDDA 100%
Signature: 33C055E975AC38A3A98445CE2D1AF518E902FD76
FILE: 01. Snackwitch.flac
Size: 41738190 Hash: 4E7211EE234BDE731876B8F5B0961623 Accuracy: -m0
Conclusion: CDDA 100%
Signature: E66596293530E4489742D6F62FF1032D228A254D

Год выпуска: 1995
Продолжительность: 00:29:55
Треклист:

01. Puzl (14:23)
02. Go Sumo (07:31)
03. Go Sheep (08:01)

-----------------------

DON'T MODIFY THIS FILE

-----------------------

PERFORMER: auCDtect Task Manager, ver. 1.5.1RC6 build 1.5.1.7
Copyright (c) 2008-2010 y-soft. All rights reserved
http://y-soft.org

ANALYZER: auCDtect: CD records authenticity detector, version 0.8.2
Copyright (c) 2004 Oleg Berngardt. All rights reserved.
Copyright (c) 2004 Alexander Djourik. All rights reserved.

FILE: 03. Go Sheep.flac
Size: 46885005 Hash: F609FD083055DAC825FEE268CFFF4513 Accuracy: -m0
Conclusion: CDDA 100%
Signature: 915A840767AFD9F599C958FE78E9986348ABB2AD
FILE: 02. Go Sumo.flac
Size: 49292359 Hash: EA5C8D8CE460B4B8C761E426A26014FE Accuracy: -m0
Conclusion: CDDA 100%
Signature: 5BA5C636A6F3E463693A78DAEA96CE9BC829AE15
FILE: 01. Puzl.flac
Size: 102030003 Hash: 09A47464D861DB14D8407BBDDA0F77A1 Accuracy: -m0
Conclusion: CDDA 100%
Signature: 9F4ED3C579C302BE2FD18AA4C78F79EEB8A040C3

Год выпуска: 2001
Продолжительность: 00:38:22
Треклист:

01. Key Nell 1 (08:02)
02. Key Nell 2 (11:03)
03. Key Nell 3 (08:11)
04. Key Nell 4 (11:06)

EAC extraction logfile from 20. December 2006, 16:40 for CD
Gescom / Key Nell [SKA007CD]

Used drive : _NEC DVD_RW ND-3550A Adapter: 0 ID: 0
Read mode : Secure with NO C2, accurate stream, disable cache
Read offset correction : 48
Overread into Lead-In and Lead-Out : No

Used output format : C:\Program Files\FLAC\flac.exe (User Defined Encoder)
192 kBit/s
Additional command line options : -V -8 -T "artist=%a" -T "title=%t" -T "album=%g" -T "date=%y" -T "tracknumber=%n" -T "genre=%m" %s

Other options :
Fill up missing offset samples with silence : Yes
Delete leading and trailing silent blocks : No
Native Win32 interface for Win NT & 2000

Track 1
Filename D:\Oink\Gescom\Gescom - Key Nell [SKA007CD]\01 - Key Nell 1.wav

Pre-gap length 0:00:02.00

Peak level 99.3 %
Track quality 100.0 %
Test CRC EF889844
Copy CRC EF889844
Copy OK

Track 2
Filename D:\Oink\Gescom\Gescom - Key Nell [SKA007CD]\02 - Key Nell 2.wav

Pre-gap length 0:00:01.56

Peak level 99.8 %
Track quality 99.9 %
Test CRC 3E6CC146
Copy CRC 3E6CC146
Copy OK

Track 3
Filename D:\Oink\Gescom\Gescom - Key Nell [SKA007CD]\03 - Key Nell 3.wav

Pre-gap length 0:00:01.57

Peak level 94.5 %
Track quality 99.9 %
Test CRC 6B6CB098
Copy CRC 6B6CB098
Copy OK

Track 4
Filename D:\Oink\Gescom\Gescom - Key Nell [SKA007CD]\04 - Key Nell 4.wav

Pre-gap length 0:00:02.01

Peak level 87.5 %
Track quality 100.0 %
Test CRC 570286BD
Copy CRC 570286BD
Copy OK

No errors occured

End of status report

------------------------------------------------------------

EAC extraction logfile from 20. December 2006, 16:40 for CD
Gescom / Key Nell [SKA007CD]

Used drive : _NEC DVD_RW ND-3550A Adapter: 0 ID: 0
Read mode : Secure with NO C2, accurate stream, disable cache
Read offset correction : 48
Overread into Lead-In and Lead-Out : No

Used output format : C:\Program Files\FLAC\flac.exe (User Defined Encoder)
192 kBit/s
Additional command line options : -V -8 -T "artist=%a" -T "title=%t" -T "album=%g" -T "date=%y" -T "tracknumber=%n" -T "genre=%m" %s

Other options :
Fill up missing offset samples with silence : Yes
Delete leading and trailing silent blocks : No
Native Win32 interface for Win NT & 2000

Track 1
Filename D:\Oink\Gescom\Gescom - Key Nell [SKA007CD]\01 - Key Nell 1.wav

Pre-gap length 0:00:02.00

Peak level 99.3 %
Track quality 100.0 %
Test CRC EF889844
Copy CRC EF889844
Copy OK

Track 2
Filename D:\Oink\Gescom\Gescom - Key Nell [SKA007CD]\02 - Key Nell 2.wav

Pre-gap length 0:00:01.56

Peak level 99.8 %
Track quality 99.9 %
Test CRC 3E6CC146
Copy CRC 3E6CC146
Copy OK

Track 3
Filename D:\Oink\Gescom\Gescom - Key Nell [SKA007CD]\03 - Key Nell 3.wav

Pre-gap length 0:00:01.57

Peak level 94.5 %
Track quality 99.9 %
Test CRC 6B6CB098
Copy CRC 6B6CB098
Copy OK

Track 4
Filename D:\Oink\Gescom\Gescom - Key Nell [SKA007CD]\04 - Key Nell 4.wav

Pre-gap length 0:00:02.01

Peak level 87.5 %
Track quality 100.0 %
Test CRC 570286BD
Copy CRC 570286BD
Copy OK

No errors occured

End of status report


REM GENRE Electronic
REM DATE 1996
REM DISCID 2E08FE04
REM COMMENT "ExactAudioCopy v0.95b4"
CATALOG 0000000000000
PERFORMER "Gescom"
TITLE "Key Nell [SKA007CD]"
FILE "01 - Key Nell 1.wav" WAVE
TRACK 01 AUDIO
TITLE "Key Nell 1"
PERFORMER "Gescom"
ISRC 000000000000
INDEX 01 00:00:00
TRACK 02 AUDIO
TITLE "Key Nell 2"
PERFORMER "Gescom"
ISRC 000000000000
INDEX 00 07:59:58
FILE "02 - Key Nell 2.wav" WAVE
INDEX 01 00:00:00
TRACK 03 AUDIO
TITLE "Key Nell 3"
PERFORMER "Gescom"
ISRC 000000000000
INDEX 00 11:01:27
FILE "03 - Key Nell 3.wav" WAVE
INDEX 01 00:00:00
TRACK 04 AUDIO
TITLE "Key Nell 4"
PERFORMER "Gescom"
ISRC 000000000000
INDEX 00 08:09:12
FILE "04 - Key Nell 4.wav" WAVE
INDEX 01 00:00:00

Год выпуска: 1996
Продолжительность: 00:19:43
Треклист:

01. Keynell A (09:28)
02. Keynell B (10:15)

-----------------------

DON'T MODIFY THIS FILE

-----------------------

PERFORMER: auCDtect Task Manager, ver. 1.5.1RC6 build 1.5.1.7
Copyright (c) 2008-2010 y-soft. All rights reserved
http://y-soft.org

ANALYZER: auCDtect: CD records authenticity detector, version 0.8.2
Copyright (c) 2004 Oleg Berngardt. All rights reserved.
Copyright (c) 2004 Alexander Djourik. All rights reserved.

FILE: 02. Keynell B.flac
Size: 58175700 Hash: 84FC72874DD55E4637ADB149F97C1CB0 Accuracy: -m0
Conclusion: CDDA 100%
Signature: F13C9CC76518198850B69710BBC320CC66D1B935
FILE: 01. Keynell A.flac
Size: 52259972 Hash: FC53CDFA0BE55F1A2D19FC2386B43AC4 Accuracy: -m0
Conclusion: CDDA 100%
Signature: 4F0B81F3319A01770560D6347E0FA1438F209A11

Год выпуска: 1998
Продолжительность: 00:21:06
Треклист:

01. Viral (07:04)
02. Shrouded (04:43)
03. Funeral In Space (09:19)

-----------------------

DON'T MODIFY THIS FILE

-----------------------

PERFORMER: auCDtect Task Manager, ver. 1.5.1RC6 build 1.5.1.7
Copyright (c) 2008-2010 y-soft. All rights reserved
http://y-soft.org

ANALYZER: auCDtect: CD records authenticity detector, version 0.8.2
Copyright (c) 2004 Oleg Berngardt. All rights reserved.
Copyright (c) 2004 Alexander Djourik. All rights reserved.

FILE: 03. Funeral In Space.flac
Size: 40996900 Hash: 95AE81A75053675179AA3EF3A683C809 Accuracy: -m0
Conclusion: CDDA 100%
Signature: 37070C9326D3F2446A50D166290B5DE902379AE5
FILE: 02. Shrouded.flac
Size: 19291524 Hash: AD0B82F839ED9F3285AE27734B4DD06C Accuracy: -m0
Conclusion: CDDA 100%
Signature: 2C65CA2D0392EAFEDC2ED49C4D06039AE8DF01AF
FILE: 01. Viral.flac
Size: 45172354 Hash: 4F7B8FA316CE3D5886CD9355A85F5C54 Accuracy: -m0
Conclusion: CDDA 99%
Signature: EABE02E6D71AD2F60DAB55C334B89D7914F615E2

Technics 1200mk2, Shure N97xE (stylus)
M97xE (cartridge)
Cambridge Audio Azur 551P
M-Audio Delta 66
Soundforge 8 @ 24bit/96kHz - 16bit/44.1kHz
Год выпуска: 1998
Продолжительность: 00:26:57
Треклист:

01. Chunge (Rmxd By Gescom) (05:12)
02. A57 (Rmxd By DC Duo's) (07:39)
03. Whatever (Rmxd By Tara) (06:40)
04. Self Impersonation (Rmxd By Pharoid With Time Chamber) (07:26)

-----------------------

DON'T MODIFY THIS FILE

-----------------------

PERFORMER: auCDtect Task Manager, ver. 1.5.1RC6 build 1.5.1.7
Copyright (c) 2008-2010 y-soft. All rights reserved
http://y-soft.org

ANALYZER: auCDtect: CD records authenticity detector, version 0.8.2
Copyright (c) 2004 Oleg Berngardt. All rights reserved.
Copyright (c) 2004 Alexander Djourik. All rights reserved.

FILE: 04. Self Impersonation (Rmxd By Pharoid With Time Chamber).flac
Size: 42980366 Hash: 2F7E99183063EE7711096688B169B57A Accuracy: -m0
Conclusion: CDDA 100%
Signature: 3DD18DF0F42C4F508B7873102B334EF28318FDA3
FILE: 03. Whatever (Rmxd By Tara).flac
Size: 39188787 Hash: A190C211AE837B88A773275D3073E661 Accuracy: -m0
Conclusion: CDDA 100%
Signature: FFE2E28F79C47165BA8FD851F06BE14C2B53AAEB
FILE: 02. A57 (Rmxd By DC Duo's).flac
Size: 41424380 Hash: 906CBC671DA5229879D9CA5704D298C4 Accuracy: -m0
Conclusion: CDDA 99%
Signature: F6F56F91EEA0821076F737B1F74EE4AE60319160
FILE: 01. Chunge (Rmxd By Gescom).flac
Size: 29417687 Hash: 2AAD46A9976B3443C41B2128932DEB99 Accuracy: -m0
Conclusion: CDDA 100%
Signature: DD0142BF4108D5247577DDB18468BED0BEE0EAA1

Год выпуска: 1998
Продолжительность: 00:27:57
Треклист:

01. Keynell (Rmxd By AE) (07:25)
02. Pelt (Rmxd By Velocity Kendall) (06:52)
03. Viral Rival (Rmxd By AE) (07:54)
04. Mag 3.1426 (Rmxd By AE) (05:46)

-----------------------

DON'T MODIFY THIS FILE

-----------------------

PERFORMER: auCDtect Task Manager, ver. 1.5.1RC6 build 1.5.1.7
Copyright (c) 2008-2010 y-soft. All rights reserved
http://y-soft.org

ANALYZER: auCDtect: CD records authenticity detector, version 0.8.2
Copyright (c) 2004 Oleg Berngardt. All rights reserved.
Copyright (c) 2004 Alexander Djourik. All rights reserved.

FILE: 04. Mag 3.1426 (Rmxd By AE).flac
Size: 34590414 Hash: 4D52DDEE990D16383430FE33C03F0C43 Accuracy: -m0
Conclusion: CDDA 99%
Signature: 81B9356221C8C0567FAAA10D10B40A2DF373D699
FILE: 03. Viral Rival (Rmxd By AE).flac
Size: 49665125 Hash: F8838AC9A12EC1281A40FF2053ECC674 Accuracy: -m0
Conclusion: CDDA 99%
Signature: 2EB6873E00A209058E857C20B51710DC6E36AA5B
FILE: 02. Pelt (Rmxd By Velocity Kendall).flac
Size: 46622860 Hash: E0F667747B7C250701550EF7D4B18B51 Accuracy: -m0
Conclusion: CDDA 100%
Signature: 7617B7488AB4C20B5D6E25E718AFD028C6693D16
FILE: 01. Keynell (Rmxd By AE).flac
Size: 48833803 Hash: D99D6B4FBD2113A12114366F0CACF525 Accuracy: -m0
Conclusion: CDDA 100%
Signature: 926605C68F0EA4FB216888F7AD6DB27834CCCDA7

Technics SL-1200 table
Audio Technica AT440MLa
M-Audio Audiophile Delta AP192
Sound Forge 9 - 24bit/96Khz/AISO-4096 - 16bit/44.1Khz
Год выпуска: 2000
Продолжительность: 00:21:18
Треклист:

01. Hobs (04:43)
02. ANX9i (05:28)
03. Minx (06:10)
04. Minxed (04:57)

-----------------------

DON'T MODIFY THIS FILE

-----------------------

PERFORMER: auCDtect Task Manager, ver. 1.5.1RC6 build 1.5.1.7
Copyright (c) 2008-2010 y-soft. All rights reserved
http://y-soft.org

ANALYZER: auCDtect: CD records authenticity detector, version 0.8.2
Copyright (c) 2004 Oleg Berngardt. All rights reserved.
Copyright (c) 2004 Alexander Djourik. All rights reserved.

FILE: 04. Minxed.flac
Size: 37657815 Hash: 7AA9F57042699EE3BA604D7A3FF69EB9 Accuracy: -m0
Conclusion: CDDA 100%
Signature: E155ED62677DE6310C8663CE4440A99AAF95E810
FILE: 03. Minx.flac
Size: 34236914 Hash: 9D7E93DC2C1D2293E081EC9CCE0A2386 Accuracy: -m0
Conclusion: CDDA 100%
Signature: E5E0DF8990BAA8648A49DF852BADA2AF437DE761
FILE: 02. ANX9i.flac
Size: 30983983 Hash: 0990DEE8156E96B510ABF91C76ABF66D Accuracy: -m0
Conclusion: CDDA 99%
Signature: 8498AECF4B356A43306095FA05B72171A0681E85
FILE: 01. Hobs.flac
Size: 27822660 Hash: 421AF0B73E3F782C32017A415214067E Accuracy: -m0
Conclusion: CDDA 100%
Signature: 6FE80887480116D99A1EF206AFE9FF429AEC448A

Год выпуска: 2003
Продолжительность: 00:22:01
Треклист:

01. Runfastmaybefaster (04:40)
02. Lickedlonger (05:23)
03. Colex (04:54)
04. Rubbaband (07:04)

-----------------------

DON'T MODIFY THIS FILE

-----------------------

PERFORMER: auCDtect Task Manager, ver. 1.5.1RC6 build 1.5.1.7
Copyright (c) 2008-2010 y-soft. All rights reserved
http://y-soft.org

ANALYZER: auCDtect: CD records authenticity detector, version 0.8.2
Copyright (c) 2004 Oleg Berngardt. All rights reserved.
Copyright (c) 2004 Alexander Djourik. All rights reserved.

FILE: 04. Rubbaband.flac
Size: 52819013 Hash: 37597572D15C21C3E9DB0FFD60072536 Accuracy: -m0
Conclusion: CDDA 100%
Signature: 7F91D9D3B3E15FB2BEC86E8B931A92A185EF60D9
FILE: 03. Colex.flac
Size: 38331254 Hash: E157687813370E4388E22F6C9AE66736 Accuracy: -m0
Conclusion: CDDA 100%
Signature: 95C4EDDE75BE7F811EEAE600D039312F8897B745
FILE: 02. Lickedlonger.flac
Size: 38393100 Hash: 3218E861678448183115CB65995BC191 Accuracy: -m0
Conclusion: CDDA 100%
Signature: 13F61DE55409E58FF791FC7F6A7D5CC087C0268E
FILE: 01. Runfastmaybefaster.flac
Size: 32496071 Hash: 457D92DAFE33A0D763CC2284E6E1D3B1 Accuracy: -m0
Conclusion: CDDA 100%
Signature: 45C6A388330CC0E50ED5C25C35FE4A039016FA4A

Год выпуска: 2003
Продолжительность: 00:47:00
Треклист:

01. ISS:SA (09:20)
02. Tangle Ill (07:51)
03. TR2A (05:22)
04. Slow Acid (09:44)
05. Megamix (14:43)

Exact Audio Copy V0.99 prebeta 5 from 4. May 2009

EAC extraction logfile from 19. August 2009, 2:22

Gescom / ISS:SA

Used drive : TEAC CD-W540E Adapter: 3 ID: 0

Read mode : Secure
Utilize accurate stream : Yes
Defeat audio cache : Yes
Make use of C2 pointers : No

Read offset correction : 686
Overread into Lead-In and Lead-Out : No
Fill up missing offset samples with silence : Yes
Delete leading and trailing silent blocks : No
Null samples used in CRC calculations : Yes
Used interface : Installed external ASPI interface
Gap handling : Appended to previous track

Used output format : User Defined Encoder
Selected bitrate : 1024 kBit/s
Quality : High
Add ID3 tag : No
Command line compressor : D:\Programs\Tools\_Exact Audio Copy\FLAC\FLAC.EXE
Additional command line options : -8 -V -T "ARTIST=%a" -T "TITLE=%t" -T "ALBUM=%g" -T "DATE=%y" -T "TRACKNUMBER=%n" -T "GENRE=%m" -T "COMMENT=%e" %s -o %d

TOC of the extracted CD

Track | Start | Length | Start sector | End sector
---------------------------------------------------------
1 | 0:00.00 | 9:19.45 | 0 | 41969
2 | 9:19.45 | 7:50.41 | 41970 | 77260
3 | 17:10.11 | 5:22.27 | 77261 | 101437
4 | 22:32.38 | 9:43.45 | 101438 | 145207
5 | 32:16.08 | 14:42.58 | 145208 | 211415

Track 1

Filename G:\EAC Temporare\01 ISS-SA.wav

Pre-gap length 0:00:02.00

Peak level 96.5 %
Track quality 100.0 %
Test CRC D2883E8D
Copy CRC D2883E8D
Accurately ripped (confidence 3) [93640C40]
Copy OK

Track 2

Filename G:\EAC Temporare\02 Tangle Ill.wav

Pre-gap length 0:00:01.36

Peak level 96.6 %
Track quality 99.9 %
Test CRC CFF1AA30
Copy CRC CFF1AA30
Accurately ripped (confidence 3) [8AEF483D]
Copy OK

Track 3

Filename G:\EAC Temporare\03 TR2A.wav

Pre-gap length 0:00:01.37

Peak level 96.6 %
Track quality 100.0 %
Test CRC 2200D1BC
Copy CRC 2200D1BC
Accurately ripped (confidence 2) [1EA36A97]
Copy OK

Track 4

Filename G:\EAC Temporare\04 Slow Acid.wav

Pre-gap length 0:00:01.37

Peak level 96.6 %
Track quality 100.0 %
Test CRC AB80613A
Copy CRC AB80613A
Accurately ripped (confidence 3) [3ACB610C]
Copy OK

Track 5

Filename G:\EAC Temporare\05 Megamix.wav

Pre-gap length 0:00:02.37

Peak level 97.4 %
Track quality 100.0 %
Test CRC A41EC60B
Copy CRC A41EC60B
Accurately ripped (confidence 3) [34A3994E]
Copy OK

All tracks accurately ripped

No errors occurred

End of status report


REM GENRE Abstract, IDM, Experimental, Acid
REM DATE 2003
REM DISCID 360B0205
REM COMMENT ExactAudioCopy v0.99pb5
PERFORMER "Gescom"
TITLE "ISS:SA"
FILE "01 ISS-SA.flac" WAVE
TRACK 01 AUDIO
TITLE "ISS:SA"
INDEX 01 00:00:00
FILE "02 Tangle Ill.flac" WAVE
TRACK 02 AUDIO
TITLE "Tangle Ill"
INDEX 00 00:00:00
INDEX 01 00:01:36
FILE "03 TR2A.flac" WAVE
TRACK 03 AUDIO
TITLE "TR2A"
INDEX 00 00:00:00
INDEX 01 00:01:37
FILE "04 Slow Acid.flac" WAVE
TRACK 04 AUDIO
TITLE "Slow Acid"
INDEX 00 00:00:00
INDEX 01 00:01:37
FILE "05 Megamix.flac" WAVE
TRACK 05 AUDIO
TITLE "Megamix"
INDEX 00 00:00:00
INDEX 01 00:02:37

Год выпуска: 2009
Продолжительность: 00:36:05
Треклист:

01. Dan One (07:13)
02. Five (09:59)
03. Cicada (08:36)
04. Sciew Spoc (10:17)

-----------------------

DON'T MODIFY THIS FILE

-----------------------

PERFORMER: auCDtect Task Manager, ver. 1.5.1RC6 build 1.5.1.7
Copyright (c) 2008-2010 y-soft. All rights reserved
http://y-soft.org

ANALYZER: auCDtect: CD records authenticity detector, version 0.8.2
Copyright (c) 2004 Oleg Berngardt. All rights reserved.
Copyright (c) 2004 Alexander Djourik. All rights reserved.

FILE: 04. Sciew Spoc.flac
Size: 64087849 Hash: C6A942985BECC8F352F94BC11D908BE9 Accuracy: -m0
Conclusion: CDDA 99%
Signature: C0A8C341D6C3B1D400CD08D072D149A454C9DFC9
FILE: 03. Cicada.flac
Size: 52820744 Hash: 0089742E9F24E80FB1DE986F9E8ED739 Accuracy: -m0
Conclusion: CDDA 100%
Signature: 27E4EA72B09A763FCE35D4D77FFE10E8E5F2889B
FILE: 02. Five.flac
Size: 60447389 Hash: E692ADD6F1434DC4693DA33674B80D3E Accuracy: -m0
Conclusion: CDDA 100%
Signature: A42D3EF0FFE4789A5BAC6C9B9D3C1163C03FC69A
FILE: 01. Dan One.flac
Size: 53250832 Hash: C20599E82C3140BBB86E1A3E66B2C39C Accuracy: -m0
Conclusion: CDDA 100%
Signature: 574686F1307A413BD1CA5F4FEAC0BCA6B3AB6F30

Год выпуска: 2011
Продолжительность: 00:21:14
Треклист:

01. Seventh Stone Triangle (05:23)
02. Cake Mic (05:23)
03. Seventh Ace Deuce (04:53)
04. R Zee Oner Panix (04:12)
05. V Take Fastroll (01:23)

-----------------------

DON'T MODIFY THIS FILE

-----------------------

PERFORMER: auCDtect Task Manager, ver. 1.5.1RC6 build 1.5.1.7
Copyright (c) 2008-2010 y-soft. All rights reserved
http://y-soft.org

ANALYZER: auCDtect: CD records authenticity detector, version 0.8.2
Copyright (c) 2004 Oleg Berngardt. All rights reserved.
Copyright (c) 2004 Alexander Djourik. All rights reserved.

FILE: 05. V Take Fastroll.flac
Size: 8088878 Hash: 15B0AC797B25DE6A3F059137FC2827F7 Accuracy: -m0
Conclusion: CDDA 100%
Signature: DF1F4DBE8A03A32447BB5722ABF56E79F258FB34
FILE: 04. R Zee Oner Panix.flac
Size: 25677047 Hash: 069DC1425312AAC1D2BE74C742587D28 Accuracy: -m0
Conclusion: CDDA 76%
Signature: 2C70CAB7E39E0C0E3F12E37DAF621770980445DC
FILE: 03. Seventh Ace Deuce.flac
Size: 33038066 Hash: 9099D32BF0C1645A1F2292E61653F00C Accuracy: -m0
Conclusion: CDDA 100%
Signature: 6C2C939BC15247DC8165B44FFFBAC53F92AB0343
FILE: 02. Cake Mic.flac
Size: 26550033 Hash: 6BF30F85223F310DAF1BDC5F4CC62D50 Accuracy: -m0
Conclusion: CDDA 100%
Signature: 7FAD7B4F4263DECCAFA2F9F56BB5E2C5771B66CA
FILE: 01. Seventh Stone Triangle.flac
Size: 32808534 Hash: B7160C141AD49204FAE11B021C7A3778 Accuracy: -m0
Conclusion: CDDA 100%
Signature: 030919585F57546881EB39CC5177042F1E91DCB2

Technics SL-BD22
Soundcraft M12
Motu828 mk3
16bit/44.1Khz
Время раздачи: 12/7
[NNMClub.to]_Gescom FLAC.torrent
 Торрент: Платиновая раздача  Зарегистрирован
 
Примагнититься

Скачать
 Зарегистрирован:   30 Сен 2016 22:17:14
 Размер:   2,86 GB  (
 Рейтинг:    (Голосов: 7)
 Поблагодарили:   27
 Проверка:   Оформление проверено модератором 30 Сен 2016 22:17:42
Как cкачать  ·  Как раздать  ·  Правильно оформить  ·  Поднять ратио!  
Показать сообщения:   
Начать новую тему   Ответить на тему    Торрент-трекер NNM-Club -> Electronic -> IDM (Lossless) Часовой пояс: GMT + 3
Страница 1 из 1