Интеллигентный торрент-трекер
canvas not supported
Нас вместе: 4 105 332

Афера под прикрытием / The Infiltrator (2016) BDRemux [H.264/1080p] [EN / EN, Sp Sub]


 
 
RSS
Начать новую тему   Ответить на тему    Торрент-трекер NNM-Club -> Зарубежное кино -> Фильмы в оригинале (HD)
Автор Сообщение
smaster67 ®
Модератор Видео
Покровитель талантов Uploader 300+
Стаж: 7 лет 5 мес.
Сообщений: 6261
Ratio: 180,138
Поблагодарили: 173871
100%
Афера под прикрытием / The Infiltrator (2016) BDRemux [H.264/1080p] [EN / EN, Sp Sub]

Производство: Великобритания
Жанр: триллер, драма, криминал, биография

Режиссер: Брэд Фурман
Актеры: Брайан Крэнстон, Лиэнн Бест, Дэниэл Мейс, Том Вон-Лолор, Ниал Хэйес, Лара Дэкаро, Джульетт Обри, Олимпия Дукакис, Эми Райан, Джон Легуизамо, Джозеф Гилган, Джейсон Айзекс

Описание:
Федеральный агент Боб Мейзур, специалист по внедрению в преступные группировки, ставит себе целью раскрыть схему отмывания денег наркокартеля Пабло Эскобара. В одной команде со вспыльчивым оперативником Эмиром Абреу, а также начинающим агентом Кэти Эртс, исполняющей роль подставной невесты Боба, ему предстоит провернуть самую рискованную операцию под прикрытием в истории.



Продолжительность: 02:07:08
Качество видео: BDRemux
Перевод: Отсутствует
Язык озвучки: Английский
Язык субтитров: английский, испанский
Вид субтитров: Вшитые

Видео: AVC, 1920x1080 (16:9), 31367 kbps, 23,976 fps, 0,631 bpp
Аудио: английский / DTS-HD / 5.1 / 48 kHz / 3451 kbps / 24 bit (Core: 5.1 / 48 kHz / 1509 kbps / 24 bit)
Код:
General
Unique ID                              The.Infiltrator.2016.REMUX.1080p.BluRay.AVC.DTS-HD.MA5.1-iFT\The.Infiltrator.2016.REMUX.1080p.BluRay.AVC.DTS-HD.MA5.1-iFT.mkv
Format                                   : Matroska
Format version                           : Version 4 / Version 2
File size                                : 30.9 GiB
Duration                                 : 2 h 7 min
Overall bit rate mode                    : Variable
Overall bit rate                         : 34.8 Mb/s
Encoded date                             : UTC 2016-10-01 10:35:10
Writing application                      : mkvmerge v8.9.0 ('Father Daughter') 64bit
Writing library                          : libebml v1.3.3 + libmatroska v1.4.4

Video
ID                                       : 1
Format                                   : AVC
Format/Info                              : Advanced Video Codec
Format profile                           : High@L4.1
Format settings, CABAC                   : Yes
Format settings, ReFrames                : 4 frames
Codec ID                                 : V_MPEG4/ISO/AVC
Duration                                 : 2 h 7 min
Bit rate mode                            : Variable
Bit rate                                 : 31.4 Mb/s
Maximum bit rate                         : 35.0 Mb/s
Width                                    : 1 920 pixels
Height                                   : 1 080 pixels
Display aspect ratio                     : 16:9
Frame rate mode                          : Constant
Frame rate                               : 23.976 (24000/1001) FPS
Color space                              : YUV
Chroma subsampling                       : 4:2:0
Bit depth                                : 8 bits
Scan type                                : Progressive
Bits/(Pixel*Frame)                       : 0.631
Stream size                              : 27.9 GiB (90%)
Default                                  : Yes
Forced                                   : No

Audio
ID                                       : 2
Format                                   : DTS
Format/Info                              : Digital Theater Systems
Format profile                           : MA / Core
Mode                                     : 16
Format settings, Endianness              : Big
Codec ID                                 : A_DTS
Duration                                 : 2 h 7 min
Bit rate mode                            : Variable / Constant
Bit rate                                 : 3 451 kb/s / 1 509 kb/s
Channel(s)                               : 6 channels
Channel positions                        : Front: L C R, Side: L R, LFE
Sampling rate                            : 48.0 kHz
Frame rate                               : 93.750 FPS (512 spf)
Bit depth                                : 24 bits
Compression mode                         : Lossless / Lossy
Stream size                              : 3.07 GiB (10%)
Title                                    : English
Language                                 : English
Default                                  : Yes
Forced                                   : No

Text #1
ID                                       : 3
Format                                   : PGS
Muxing mode                              : zlib
Codec ID                                 : S_HDMV/PGS
Codec ID/Info                            : Picture based subtitle format used on BDs/HD-DVDs
Duration                                 : 1 h 56 min
Bit rate                                 : 13.8 kb/s
Count of elements                        : 3449
Stream size                              : 11.5 MiB (0%)
Title                                    : English-PGS
Language                                 : English
Default                                  : Yes
Forced                                   : No

Text #2
ID                                       : 4
Format                                   : PGS
Muxing mode                              : zlib
Codec ID                                 : S_HDMV/PGS
Codec ID/Info                            : Picture based subtitle format used on BDs/HD-DVDs
Duration                                 : 1 h 58 min
Bit rate                                 : 11.3 kb/s
Count of elements                        : 3088
Stream size                              : 9.63 MiB (0%)
Title                                    : Spanish-PGS
Language                                 : Spanish
Default                                  : No
Forced                                   : No

Menu
00:00:00.000                             : en:Chapter 01
00:09:01.666                             : en:Chapter 02
00:17:00.686                             : en:Chapter 03
00:24:48.653                             : en:Chapter 04
00:28:36.881                             : en:Chapter 05
00:35:12.193                             : en:Chapter 06
00:42:31.340                             : en:Chapter 07
00:51:42.724                             : en:Chapter 08
00:57:40.832                             : en:Chapter 09
01:02:47.805                             : en:Chapter 10
01:07:41.474                             : en:Chapter 11
01:17:04.661                             : en:Chapter 12
01:24:18.553                             : en:Chapter 13
01:31:43.831                             : en:Chapter 14
01:40:58.969                             : en:Chapter 15
01:47:44.249                             : en:Chapter 16
01:52:50.221                             : en:Chapter 17
01:58:14.128                             : en:Chapter 18
02:07:08.370                             : en:Chapter 19

Скриншоты:



Время раздачи: с 13:00 до 23:00
[NNMClub.to]_The.Infiltrator.2016.REMUX.1080p.BluRay.AVC.DTS-HD.MA5.1-iFT.mkv.torrent
 Торрент: Золотая раздача  Зарегистрирован
 
Примагнититься
Free Leech
Зарегистрируйтесь и скачайте торрент!
155 KB
 Зарегистрирован:   01 Окт 2016 15:52:00
 Размер:   30,9 GB  (
 Рейтинг:   4,8 (Голосов: 14)
 Поблагодарили:   61
 Проверка:   Оформление проверено модератором 01 Окт 2016 15:53:18
Как cкачать  ·  Как раздать  ·  Правильно оформить  ·  Поднять ратио!  
Valen​tinoR​ossi​
Стаж: 2 мес. 15 дней
Сообщений: 1
Ratio: 5,376
38.71%
По трейллеру - хороший фильмец!;)
tronza
Стаж: 2 года 1 мес.
Сообщений: 71
Ratio: 54,778
100%
russia.gif
Эх, где бы русские сабы взять.
kalt12

Online
Стаж: 4 года
Сообщений: 488
Ratio: 136,547
Раздал: 65,58 TB
100%
russia.gif
tronza писал(а): Перейти к сообщению
Эх, где бы русские сабы взять.

В-о-о-о-т!.. :подмигивание: Нет ничего лучше оригинального звука и русских субтитров!.. :да:
idreamless
Стаж: 6 лет 2 мес.
Сообщений: 146
Ratio: 23,622
Раздал: 3,683 TB
91.48%
russia.gif
kalt12 писал(а): Перейти к сообщению
tronza писал(а): Перейти к сообщению
Эх, где бы русские сабы взять.

В-о-о-о-т!.. :подмигивание: Нет ничего лучше оригинального звука и русских субтитров!.. :да:
Я бы ещё добавил. Нет ничего лучше хорошего фильма. Жалко, это не относится к данному "шедевру".

_________________
картинка: Pioneer BDP-450 - Panasonic 65VT60
звук: NAD T744 - Tannoy Sensys 5.0 - Energy ESW-C10
Показать сообщения:   
Начать новую тему   Ответить на тему    Торрент-трекер NNM-Club -> Зарубежное кино -> Фильмы в оригинале (HD) Часовой пояс: GMT + 3
Страница 1 из 1