Интеллигентный торрент-трекер
canvas not supported
Нас вместе: 4 309 146

Такой же предатель, как и мы / Our Kind of Traitor (2016) BDRip [H.264/1080p] [EN / EN Sub]


 
 
RSS
Начать новую тему   Ответить на тему    Торрент-трекер NNM-Club -> Зарубежное кино -> Фильмы в оригинале (HD)
Автор Сообщение
smaster67 ®
Модератор Видео
Покровитель талантов Uploader 300+
Стаж: 7 лет 8 мес.
Сообщений: 6591
Ratio: 192,916
Поблагодарили: 190143
100%
Такой же предатель, как и мы / Our Kind of Traitor (2016) BDRip [H.264/1080p] [EN / EN Sub]

Производство: Великобритания, Франция
Жанр: триллер

Режиссер: Сюзанна Уайт
Актеры: Карлос Акоста, Радивойе Буквич, Стеллан Скарсгард, Мария Фомина, Доля Гавански, Григорий Добрыгин, Велибор Топич, Павел Жайда, Юэн МакГрегор, Наоми Харрис, Алек Утгофф, Марек Оравек

Описание:
Молодая английская пара, отдыхая в Марокко, заводит знакомство с русским олигархом, отмывающим деньги для преступных группировок, чьи лидеры вот-вот спишут его со счетов. Чтобы спасти себя и семью, он предлагает разведке Великобритании море ценных сведений в обмен на защиту и покровительство. Его последняя отчаянная надежда - на «английских джентльменов», которые всегда «играют честно»...



Продолжительность: 01:47:36
Качество видео: BDRip 1080p
Перевод: Отсутствует
Язык озвучки: Английский
Язык субтитров: английский
Вид субтитров: Вшитые

Видео: AVC, 1920x804 (2.40:1), 15557 kbps, 24 fps, 0,420 bpp
Аудио: английский / DTS-HD / 5.1 / 48 kHz / 3607 kbps / 24 bit (Core: 5.1 / 48 kHz / 768 kbps / 24 bit)
Код:
General
Unique ID                               Our Kind of Traitor 2016 1080p BluRay DTS-HD MA 5.1 x264-BluntSlayer\Our Kind of Traitor 2016 1080p BluRay DTS-HD MA 5.1 x264-BluntSlayer.mkv
Format                                   : Matroska
Format version                           : Version 4 / Version 2
File size                                : 14.4 GiB
Duration                                 : 1 h 47 min
Overall bit rate                         : 19.2 Mb/s
Encoded date                             : UTC 2016-09-26 01:01:33
Writing application                      : mkvmerge v9.3.1 ('Mask Machine') 64bit
Writing library                          : libebml v1.3.4 + libmatroska v1.4.5

Video
ID                                       : 1
Format                                   : AVC
Format/Info                              : Advanced Video Codec
Format profile                           : High@L4.1
Format settings, CABAC                   : Yes
Format settings, ReFrames                : 5 frames
Codec ID                                 : V_MPEG4/ISO/AVC
Duration                                 : 1 h 47 min
Bit rate                                 : 15.6 Mb/s
Width                                    : 1 920 pixels
Height                                   : 804 pixels
Display aspect ratio                     : 2.40:1
Frame rate mode                          : Constant
Frame rate                               : 24.000 FPS
Color space                              : YUV
Chroma subsampling                       : 4:2:0
Bit depth                                : 8 bits
Scan type                                : Progressive
Bits/(Pixel*Frame)                       : 0.420
Stream size                              : 11.7 GiB (81%)
Title                                    : BluntSlayer
Writing library                          : x264 core 148 r2638 7599210
Encoding settings                        : cabac=1 / ref=5 / deblock=1:-3:-3 / analyse=0x3:0x133 / me=umh / subme=11 / psy=1 / psy_rd=1.10:0.25 / mixed_ref=1 / me_range=64 / chroma_me=1 / trellis=2 / 8x8dct=1 / cqm=0 / deadzone=21,11 / fast_pskip=0 / chroma_qp_offset=-4 / threads=6 / lookahead_threads=1 / sliced_threads=0 / nr=0 / decimate=1 / interlaced=0 / bluray_compat=0 / constrained_intra=0 / bframes=16 / b_pyramid=2 / b_adapt=2 / b_bias=0 / direct=3 / weightb=1 / open_gop=0 / weightp=2 / keyint=240 / keyint_min=24 / scenecut=40 / intra_refresh=0 / rc_lookahead=150 / rc=2pass / mbtree=1 / bitrate=15557 / ratetol=1.0 / qcomp=0.60 / qpmin=0 / qpmax=69 / qpstep=4 / cplxblur=20.0 / qblur=0.5 / vbv_maxrate=62500 / vbv_bufsize=78125 / nal_hrd=none / filler=0 / ip_ratio=1.40 / aq=2:1.00
Language                                 : English
Default                                  : Yes
Forced                                   : No

Audio
ID                                       : 2
Format                                   : DTS
Format/Info                              : Digital Theater Systems
Format profile                           : MA / Core
Mode                                     : 16
Format settings, Endianness              : Big
Codec ID                                 : A_DTS
Duration                                 : 1 h 47 min
Bit rate mode                            : Variable / Constant
Bit rate                                 : 3 608 kb/s / 768 kb/s
Channel(s)                               : 6 channels
Channel positions                        : Front: L C R, Side: L R, LFE
Sampling rate                            : 48.0 kHz
Frame rate                               : 93.750 FPS (512 spf)
Bit depth                                : 24 bits
Compression mode                         : Lossless / Lossy
Stream size                              : 2.71 GiB (19%)
Language                                 : English
Default                                  : Yes
Forced                                   : No

Text
ID                                       : 3
Format                                   : PGS
Muxing mode                              : zlib
Codec ID                                 : S_HDMV/PGS
Codec ID/Info                            : Picture based subtitle format used on BDs/HD-DVDs
Duration                                 : 1 h 40 min
Bit rate                                 : 10.8 kb/s
Count of elements                        : 2792
Stream size                              : 7.71 MiB (0%)
Language                                 : English
Default                                  : Yes
Forced                                   : No

Menu
00:00:00.000                             : en:Chapter 1
00:07:50.916                             : en:Chapter 2
00:15:23.208                             : en:Chapter 3
00:24:40.625                             : en:Chapter 4
00:38:49.833                             : en:Chapter 5
00:43:41.791                             : en:Chapter 6
00:58:08.958                             : en:Chapter 7
01:07:19.333                             : en:Chapter 8
01:13:50.416                             : en:Chapter 9
01:17:30.166                             : en:Chapter 10
01:35:39.291                             : en:Chapter 11
01:41:33.541                             : en:Chapter 12

Скриншоты:



Время раздачи: с 13:00 до 23:00
[NNMClub.to]_Our Kind of Traitor 2016 1080p BluRay DTS-HD MA 5.1 x264-BluntSlayer.mkv.torrent
 Торрент: Золотая раздача  Зарегистрирован
 
Примагнититься
Free Leech
Зарегистрируйтесь и скачайте торрент!
72,3 KB
 Зарегистрирован:   01 Окт 2016 19:39:11
 Размер:   14,4 GB  (
 Рейтинг:    (Голосов: 4)
 Поблагодарили:   38
 Проверка:   Оформление проверено модератором 01 Окт 2016 19:40:38
Как cкачать  ·  Как раздать  ·  Правильно оформить  ·  Поднять ратио!  
Показать сообщения:   
Начать новую тему   Ответить на тему    Торрент-трекер NNM-Club -> Зарубежное кино -> Фильмы в оригинале (HD) Часовой пояс: GMT + 3
Страница 1 из 1