Интеллигентный торрент-трекер
canvas not supported
Нас вместе: 4 329 543

Полтора шпиона / Central Intelligence (2016) BDRip [H.264/1080p] [Театральная версия]


 
 
RSS
Начать новую тему   Ответить на тему    Торрент-трекер NNM-Club -> Зарубежное кино -> Зарубежные Фильмы (HD, UHD-LQ)
Автор Сообщение
Full HD Video ®
Uploader 100+
 
Стаж: 6 лет 3 мес.
Сообщений: 5364
Ratio: 1208,428
Раздал: 189,9 TB
Поблагодарили: 711844
100%
Откуда: Из мира кино.
nnm-club.gif
Полтора шпиона / Central Intelligence (2016) BDRip [H.264/1080p]

Производство: США
Жанр: боевик, комедия, криминал

Режиссер: Роусон Маршалл Тёрбер
Актеры: Дуэйн Джонсон, Кевин Харт, Эми Райан, Даниэль Николет, Джейсон Бейтман, Аарон Пол, Райан Хансен, Тим Гриффин, Тимоти Джон Смит, Сион Келепи, Дилан Бойяк, Томас Кречман

Описание:
От лайка в соцсети до спасения мира - один шаг. Сегодня ты френдишь бывшего одноклассника, а завтра - он тащит тебя под пули. Кто ж знал, что заядлый любитель пончиков превратится в похожего на скалу супершпиона.


Возраст: 16+ (зрителям, достигшим 16 лет)
Рейтинг MPAA: PG-13 (детям до 13 лет просмотр нежелателен)
Дата мировой премьеры: 10 июня 2016
Дата российской премьеры: 7 июля 2016, «UPI»

Продолжительность: 01:47:37
Качество видео: BDRip 1080p
Перевод: Дублированный (Лицензия BD CEE)
Вид субтитров: Вшитые, отключаемые
Язык субтитров: Русский, английский, украинский

Видео: AVC/H.264, 1920x800, 15.0 Mbps
Аудио: DTS, 6 ch, 768 kbps - Русский
Аудио: AAC, 2 ch, 128 kbps - Украинский
Аудио: DTS, 6 ch, 1509 kbps - Английский
Аудио: AC3, 2 ch, 192 kbps - Английский, Feature Commentary with Co-Writer/Director Rawson Marshall Thurber and Co-editor Mike Sale
Код: выделить все

General
Unique ID                                : 202901394166722452496183339940424345280 (0x98A563179144CB66969C5D2CBC6266C0)
Complete name                              Central.Intelligence.THEATRiCAL.2016.1080p.BluRay.DTS.Rus.Ukr.2xEng.HDCLUB.mkv
Format                                   : Matroska
Format version                           : Version 2
File size                                : 13.2 GiB
Duration                                 : 1h 47mn
Overall bit rate                         : 17.6 Mbps
Movie name                               : Central Intelligence (2016) - Release for HDCLUB
Encoded date                             : UTC 2016-10-04 14:07:50
Writing application                      : mkvmerge v3.4.0 ('Rapunzel') built on May 15 2010 09:38:20
Writing library                          : libebml v0.8.0 + libmatroska v0.9.0

Video
ID                                       : 1
Format                                   : AVC
Format/Info                              : Advanced Video Codec
Format profile                           : High@L4.1
Format settings, CABAC                   : Yes
Format settings, ReFrames                : 5 frames
Codec ID                                 : V_MPEG4/ISO/AVC
Duration                                 : 1h 47mn
Nominal bit rate                         : 15.0 Mbps
Width                                    : 1 920 pixels
Height                                   : 800 pixels
Display aspect ratio                     : 2.40:1
Frame rate mode                          : Constant
Frame rate                               : 23.976 fps
Color space                              : YUV
Chroma subsampling                       : 4:2:0
Bit depth                                : 8 bits
Scan type                                : Progressive
Bits/(Pixel*Frame)                       : 0.407
Title                                    : Central Intelligence (2016) - Release for HDCLUB
Writing library                          : x264 core 148 r2705 3f5ed56
Encoding settings                        : cabac=1 / ref=5 / deblock=1:-3:-3 / analyse=0x3:0x133 / me=umh / subme=11 / psy=1 / psy_rd=1.00:0.00 / mixed_ref=1 / me_range=32 / chroma_me=1 / trellis=2 / 8x8dct=1 / cqm=0 / deadzone=21,11 / fast_pskip=0 / chroma_qp_offset=-2 / threads=18 / lookahead_threads=3 / sliced_threads=0 / slices=4 / nr=0 / decimate=0 / interlaced=0 / bluray_compat=0 / constrained_intra=0 / bframes=8 / b_pyramid=2 / b_adapt=2 / b_bias=0 / direct=3 / weightb=1 / open_gop=0 / weightp=2 / keyint=250 / keyint_min=23 / scenecut=40 / intra_refresh=0 / rc_lookahead=40 / rc=2pass / mbtree=0 / bitrate=15000 / ratetol=1.0 / qcomp=0.65 / qpmin=0 / qpmax=51 / qpstep=4 / cplxblur=20.0 / qblur=0.5 / vbv_maxrate=62500 / vbv_bufsize=78125 / nal_hrd=none / filler=0 / ip_ratio=1.40 / pb_ratio=1.30 / aq=3:0.75 / zones=580,1505,b=2/7519,8238,b=1.3/19077,31367,b=1.3/38327,40117,b=1.3/42611,43903,b=1.3/73564,74041,b=1.3/106195,128278,b=1.3/131302,140347,b=1.3
Language                                 : English
Default                                  : Yes
Forced                                   : No

Audio #1
ID                                       : 2
Format                                   : DTS
Format/Info                              : Digital Theater Systems
Mode                                     : 16
Format settings, Endianness              : Big
Codec ID                                 : A_DTS
Duration                                 : 1h 47mn
Bit rate mode                            : Constant
Bit rate                                 : 768 Kbps
Channel(s)                               : 6 channels
Channel positions                        : Front: L C R, Side: L R, LFE
Sampling rate                            : 48.0 KHz
Bit depth                                : 24 bits
Compression mode                         : Lossy
Stream size                              : 591 MiB (4%)
Title                                    : DTS 5.1 @ 768 kbps - DUB, Blu-ray CEE
Language                                 : Russian
Default                                  : Yes
Forced                                   : No

Audio #2
ID                                       : 3
Format                                   : AAC
Format/Info                              : Advanced Audio Codec
Format profile                           : HE-AAC / LC
Codec ID                                 : A_AAC
Duration                                 : 1h 47mn
Channel(s)                               : 2 channels
Channel positions                        : Front: L R
Sampling rate                            : 88.2 KHz / 44.1 KHz
Compression mode                         : Lossy
Delay relative to video                  : 170ms
Title                                    : AAC 2.0 @ 128 kbps - DUB, iTunes
Language                                 : Ukrainian
Default                                  : No
Forced                                   : No

Audio #3
ID                                       : 4
Format                                   : DTS
Format/Info                              : Digital Theater Systems
Mode                                     : 16
Format settings, Endianness              : Big
Codec ID                                 : A_DTS
Duration                                 : 1h 47mn
Bit rate mode                            : Constant
Bit rate                                 : 1 509 Kbps
Channel(s)                               : 6 channels
Channel positions                        : Front: L C R, Side: L R, LFE
Sampling rate                            : 48.0 KHz
Bit depth                                : 24 bits
Compression mode                         : Lossy
Delay relative to video                  : 11ms
Stream size                              : 1.13 GiB (9%)
Title                                    : DTS 5.1 @ 1536 kbps
Language                                 : English
Default                                  : No
Forced                                   : No

Audio #4
ID                                       : 5
Format                                   : AC-3
Format/Info                              : Audio Coding 3
Format profile                           : Dolby Digital
Mode extension                           : CM (complete main)
Format settings, Endianness              : Big
Codec ID                                 : A_AC3
Duration                                 : 1h 47mn
Bit rate mode                            : Constant
Bit rate                                 : 192 Kbps
Channel(s)                               : 2 channels
Channel positions                        : Front: L R
Sampling rate                            : 48.0 KHz
Bit depth                                : 16 bits
Compression mode                         : Lossy
Stream size                              : 148 MiB (1%)
Title                                    : AC3 2.0 @ 192 kbps - Feature Commentary with Co-Writer/Director Rawson Marshall Thurber and Co-editor Mike Sale
Language                                 : English
Default                                  : No
Forced                                   : No

Text #1
ID                                       : 6
Format                                   : UTF-8
Codec ID                                 : S_TEXT/UTF8
Codec ID/Info                            : UTF-8 Plain Text
Title                                    : Forced, iTunes
Language                                 : Russian
Default                                  : Yes
Forced                                   : No

Text #2
ID                                       : 7
Format                                   : UTF-8
Codec ID                                 : S_TEXT/UTF8
Codec ID/Info                            : UTF-8 Plain Text
Title                                    : iTunes
Language                                 : Russian
Default                                  : No
Forced                                   : No

Text #3
ID                                       : 8
Format                                   : UTF-8
Codec ID                                 : S_TEXT/UTF8
Codec ID/Info                            : UTF-8 Plain Text
Title                                    : Forced, iTunes
Language                                 : Ukrainian
Default                                  : No
Forced                                   : No

Text #4
ID                                       : 9
Format                                   : UTF-8
Codec ID                                 : S_TEXT/UTF8
Codec ID/Info                            : UTF-8 Plain Text
Title                                    : iTunes
Language                                 : Ukrainian
Default                                  : No
Forced                                   : No

Text #5
ID                                       : 10
Format                                   : UTF-8
Codec ID                                 : S_TEXT/UTF8
Codec ID/Info                            : UTF-8 Plain Text
Title                                    : SDH, iTunes
Language                                 : English
Default                                  : No
Forced                                   : No

Menu
00:00:00.000                             : en:1
00:09:12.051                             : en:2
00:20:11.752                             : en:3
00:30:31.079                             : en:4
00:43:21.766                             : en:5
00:52:42.492                             : en:6
00:58:09.861                             : en:7
01:10:12.458                             : en:8
01:18:36.753                             : en:9
01:28:56.289                             : en:10
01:39:32.257                             : en:11
Скриншоты:


Все одноименные релизы в клубе

Время раздачи: 24/7 (до появления первых 3-5 скачавших)
[NNMClub.to]_Central.Intelligence.THEATRiCAL.2016.1080p.BluRay.DTS.Rus.Ukr.2xEng.HDCLUB.torrent
 Торрент: Платиновая раздача  Зарегистрирован
 
Примагнититься

Скачать
 Зарегистрирован:   04 Окт 2016 18:57:43
 Размер:   13,2 GB  (
 Рейтинг:   4,7 (Голосов: 34)
 Поблагодарили:   204
 Проверка:   Оформление проверено модератором 06 Окт 2016 07:45:51
Как cкачать  ·  Как раздать  ·  Правильно оформить  ·  Поднять ратио!  
Топик был перенесен из форума Новинки (HD) в форум Зарубежные Фильмы (HD)



Исправил релиз - напиши ЛС Full HD Video, дав ссылку на релиз.
Если нет ответа 24 часа - нажми на кнопку "Обратить внимание модераторов".
Stree​tFigh​ter​
Стаж: 6 лет 3 мес.
Сообщений: 80
Ratio: 261,426
100%
Откуда: Киев
ukraine.gif


Бред.
Показать сообщения:   
Начать новую тему   Ответить на тему    Торрент-трекер NNM-Club -> Зарубежное кино -> Зарубежные Фильмы (HD, UHD-LQ) Часовой пояс: GMT + 3
Страница 1 из 1