Интеллигентный торрент-трекер
canvas not supported
Нас вместе: 4 332 495

Полтора шпиона / Central Intelligence (2016) BDRip [H.264/720p] [Театральная версия]


 
 
RSS
Начать новую тему   Ответить на тему    Торрент-трекер NNM-Club -> Зарубежное кино -> Зарубежные Фильмы (HD, UHD-LQ)
Автор Сообщение
Full HD Video ®
Uploader 100+
 
Стаж: 6 лет 3 мес.
Сообщений: 5355
Ratio: 1208,422
Раздал: 189,9 TB
Поблагодарили: 708305
100%
Откуда: Из мира кино.
nnm-club.gif
Полтора шпиона / Central Intelligence (2016) BDRip [H.264/720p] [Театральная версия]

Производство: США
Жанр: боевик, комедия, криминал

Режиссер: Роусон Маршалл Тёрбер
Актеры: Дуэйн Джонсон, Кевин Харт, Эми Райан, Даниэль Николет, Джейсон Бейтман, Аарон Пол, Райан Хансен, Тим Гриффин, Тимоти Джон Смит, Сион Келепи, Дилан Бойяк, Томас Кречман

Описание:
От лайка в соцсети до спасения мира - один шаг. Сегодня ты френдишь бывшего одноклассника, а завтра - он тащит тебя под пули. Кто ж знал, что заядлый любитель пончиков превратится в похожего на скалу супершпиона.


Возраст: 16+ (зрителям, достигшим 16 лет)
Рейтинг MPAA: PG-13 (детям до 13 лет просмотр нежелателен)
Дата мировой премьеры: 10 июня 2016
Дата российской премьеры: 7 июля 2016, «UPI»

Продолжительность: 01:47:37
Качество видео: BDRip 720p
Перевод: Дублированный (Лицензия BD CEE)
Вид субтитров: Вшитые, отключаемые
Язык субтитров: Русский, английский

Видео: AVC/H.264, 1280x534, 4 423 kbps
Аудио: DTS, 6 ch, 768 kbps - Русский
Аудио: AC3, 6 ch, 448 kbps - Русский
Аудио: DTS, 6 ch, 1809 kbps - Английский
Код: выделить все

General
Unique ID : 170615330095720286292847923583211020120 (0x805B513BE6FAEC9EB6D8EE86B2C81F58)
Complete name : H:VideoCentral.Intelligence.2016.D.BDRip.720p.ExKinoRay.mkv
Format : Matroska
Format version : Version 4 / Version 2
File size : 5.37 GiB
Duration : 1 h 47 min
Overall bit rate : 7 150 kb/s
Movie name : ***селезень***
Encoded date : UTC 2016-10-04 18:54:29
Writing application : mkvmerge v8.3.0 ('Over the Horizon') 64bit
Writing library : libebml v1.3.1 + libmatroska v1.4.2

Video
ID : 1
Format : AVC
Format/Info : Advanced Video Codec
Format profile : High@L4.1
Format settings, CABAC : Yes
Format settings, ReFrames : 12 frames
Codec ID : V_MPEG4/ISO/AVC
Duration : 1 h 47 min
Bit rate : 4 423 kb/s
Width : 1 280 pixels
Height : 534 pixels
Display aspect ratio : 2.40:1
Frame rate mode : Constant
Frame rate : 23.976 (24000/1001) FPS
Color space : YUV
Chroma subsampling : 4:2:0
Bit depth : 8 bits
Scan type : Progressive
Bits/(Pixel*Frame) : 0.270
Stream size : 3.32 GiB (62%)
Title : ***селезень***
Writing library : x264 core 146 r2538 121396c
Encoding settings : cabac=1 / ref=12 / deblock=1:-3:-3 / analyse=0x3:0x133 / me=umh / subme=10 / psy=1 / psy_rd=1.03:0.15 / mixed_ref=1 / me_range=32 / chroma_me=1 / trellis=2 / 8x8dct=1 / cqm=0 / deadzone=21,11 / fast_pskip=0 / chroma_qp_offset=-3 / threads=12 / lookahead_threads=2 / sliced_threads=0 / nr=0 / decimate=0 / interlaced=0 / bluray_compat=0 / constrained_intra=0 / bframes=8 / b_pyramid=2 / b_adapt=2 / b_bias=0 / direct=3 / weightb=1 / open_gop=0 / weightp=2 / keyint=240 / keyint_min=23 / scenecut=40 / intra_refresh=0 / rc_lookahead=60 / rc=2pass / mbtree=1 / bitrate=4423 / ratetol=1.0 / qcomp=0.60 / qpmin=0 / qpmax=69 / qpstep=4 / cplxblur=20.0 / qblur=0.5 / vbv_maxrate=50000 / vbv_bufsize=62500 / nal_hrd=none / filler=0 / ip_ratio=1.40 / aq=1:1.00
Language : English
Default : Yes
Forced : No

Audio #1
ID : 2
Format : DTS
Format/Info : Digital Theater Systems
Mode : 16
Format settings, Endianness : Big
Codec ID : A_DTS
Duration : 1 h 47 min
Bit rate mode : Constant
Bit rate : 768 kb/s
Channel(s) : 6 channels
Channel positions : Front: L C R, Side: L R, LFE
Sampling rate : 48.0 kHz
Frame rate : 93.750 FPS (512 spf)
Bit depth : 24 bits
Compression mode : Lossy
Stream size : 591 MiB (11%)
Title : Dub-DTS [License]
Language : Russian
Default : Yes
Forced : No

Audio #2
ID : 3
Format : AC-3
Format/Info : Audio Coding 3
Mode extension : CM (complete main)
Format settings, Endianness : Big
Codec ID : A_AC3
Duration : 1 h 47 min
Bit rate mode : Constant
Bit rate : 448 kb/s
Channel(s) : 6 channels
Channel positions : Front: L C R, Side: L R, LFE
Sampling rate : 48.0 kHz
Frame rate : 31.250 FPS (1536 spf)
Compression mode : Lossy
Stream size : 345 MiB (6%)
Title : Dub-AC3 [License]
Language : Russian
Default : No
Forced : No

Audio #3
ID : 4
Format : DTS
Format/Info : Digital Theater Systems
Mode : 16
Format settings, Endianness : Big
Codec ID : A_DTS
Duration : 1 h 47 min
Bit rate mode : Constant
Bit rate : 1 509 kb/s
Channel(s) : 6 channels
Channel positions : Front: L C R, Side: L R, LFE
Sampling rate : 48.0 kHz
Frame rate : 93.750 FPS (512 spf)
Bit depth : 24 bits
Compression mode : Lossy
Stream size : 1.13 GiB (21%)
Title : Original
Language : English
Default : No
Forced : No

Text #1
ID : 5
Format : UTF-8
Codec ID : S_TEXT/UTF8
Codec ID/Info : UTF-8 Plain Text
Duration : 1 h 38 min
Bit rate : 4 b/s
Count of elements : 62
Stream size : 3.08 KiB (0%)
Title : Forced
Language : Russian
Default : Yes
Forced : No

Text #2
ID : 6
Format : UTF-8
Codec ID : S_TEXT/UTF8
Codec ID/Info : UTF-8 Plain Text
Duration : 1 h 46 min
Bit rate : 138 b/s
Count of elements : 2048
Stream size : 108 KiB (0%)
Title : Full
Language : Russian
Default : No
Forced : No

Text #3
ID : 7
Format : UTF-8
Codec ID : S_TEXT/UTF8
Codec ID/Info : UTF-8 Plain Text
Duration : 1 h 45 min
Bit rate : 83 b/s
Count of elements : 2273
Stream size : 64.6 KiB (0%)
Title : Full
Language : English
Default : No
Forced : No

Menu
00:00:00.000 : en:00:00:00.000
00:09:32.238 : en:00:09:32.238
00:21:47.848 : en:00:21:47.848
00:32:26.861 : en:00:32:26.861
00:47:37.104 : en:00:47:37.104
00:57:28.528 : en:00:57:28.528
01:03:15.750 : en:01:03:15.750
01:17:23.222 : en:01:17:23.222
01:26:11.541 : en:01:26:11.541
01:36:29.992 : en:01:36:29.992
01:48:21.411 : en:01:48:21.411
Скриншоты:


Все одноименные релизы в клубе

Время раздачи: 24/7 (до появления первых 3-5 скачавших)
[NNMClub.to]_Central.Intelligence.2016.D.BDRip.720p.ExKinoRay.torrent
 Торрент: Платиновая раздача  Зарегистрирован
 
Примагнититься

Скачать
 Зарегистрирован:   05 Окт 2016 04:06:50
 Размер:   5,37 GB  (
 Рейтинг:   4,7 (Голосов: 50)
 Поблагодарили:   224
 Проверка:   Оформление проверено модератором 06 Окт 2016 07:49:30
Как cкачать  ·  Как раздать  ·  Правильно оформить  ·  Поднять ратио!  
sokol193
Только чтение
Стаж: 6 лет 10 мес.
Сообщений: 1071
Ratio: 1,803
Раздал: 1,226 TB
100%
Откуда: Москва
russia.gif
Туповатая комедия чисто в америкосовском стиле, но на удивление легко смотрится..
Топик был перенесен из форума Новинки (HD) в форум Зарубежные Фильмы (HD)



Исправил релиз - напиши ЛС Full HD Video, дав ссылку на релиз.
Если нет ответа 24 часа - нажми на кнопку "Обратить внимание модераторов".
darth_san
Стаж: 6 лет 11 мес.
Сообщений: 465
Ratio: 11,186
Поблагодарили: 2978
100%
ukraine.gif
На один раз пойдет.
Показать сообщения:   
Начать новую тему   Ответить на тему    Торрент-трекер NNM-Club -> Зарубежное кино -> Зарубежные Фильмы (HD, UHD-LQ) Часовой пояс: GMT + 3
Страница 1 из 1