Интеллигентный торрент-трекер
canvas not supported
Нас вместе: 4 117 272

Нарушенные обеты / Broken Vows (2016) BDRemux [H.264/1080p] [EN / Ger Sub]


 
 
RSS
Начать новую тему   Ответить на тему    Торрент-трекер NNM-Club -> Зарубежное кино -> Фильмы в оригинале (HD)
Автор Сообщение
smaster67 ®
Модератор Видео
Покровитель талантов Uploader 300+
Стаж: 7 лет 5 мес.
Сообщений: 6278
Ratio: 181,171
Поблагодарили: 174837
100%
Нарушенные обеты / Broken Vows (2016) BDRemux [H.264/1080p] [EN / Ger Sub]

Производство: США
Жанр: триллер

Режиссер: Брэм Коппенс
Актеры: Уэс Бентли, Джейми Александер, Кэм Жиганде, Александра Брекенридж, Астрид Брайан, Мэтт Риди, Рене Эштон, Лэйси Хэннан, Эмили Робинсон, Джеймс Ди Томас, Алекс Ладав, Матео Саймон

Описание:
История Патрика Флинна, под шармом и харизмой которого скрываются психологические проблемы. Патрик влюбляется в красавицу Тару Блум, но, когда та его отвергает, начинает «слетать с катушек».



Продолжительность: 01:31:07
Качество видео: BDRemux
Перевод: Отсутствует
Язык озвучки: Английский
Язык субтитров: немецкий
Вид субтитров: Вшитые

Видео: AVC, 1920x1080 (16:9), 23000 kbps, 23,976 fps, 0,463 bpp
Аудио: DTS-HD / 5.1 / 48 kHz / 1794 kbps / 16 bit (Core: 5.1 / 48 kHz / 1509 kbps / 16 bit)
Код:
General
Unique ID                               Broken.Vows.2016.REMUX.BluRay.1080p.AVC.DTS-HD.MA5.1-iFT\Broken.Vows.2016.REMUX.BluRay.1080p.AVC.DTS-HD.MA5.1-iFT.mkv
Format                                   : Matroska
Format version                           : Version 4 / Version 2
File size                                : 15.8 GiB
Duration                                 : 1 h 31 min
Overall bit rate mode                    : Variable
Overall bit rate                         : 24.8 Mb/s
Encoded date                             : UTC 2016-10-05 08:17:21
Writing application                      : mkvmerge v9.1.0 ('Little Earthquakes') 64bit
Writing library                          : libebml v1.3.3 + libmatroska v1.4.4

Video
ID                                       : 1
Format                                   : AVC
Format/Info                              : Advanced Video Codec
Format profile                           : High@L4.1
Format settings, CABAC                   : Yes
Format settings, ReFrames                : 4 frames
Codec ID                                 : V_MPEG4/ISO/AVC
Duration                                 : 1 h 31 min
Bit rate mode                            : Variable
Bit rate                                 : 23.0 Mb/s
Maximum bit rate                         : 33.0 Mb/s
Width                                    : 1 920 pixels
Height                                   : 1 080 pixels
Display aspect ratio                     : 16:9
Frame rate mode                          : Constant
Frame rate                               : 23.976 (24000/1001) FPS
Standard                                 : NTSC
Color space                              : YUV
Chroma subsampling                       : 4:2:0
Bit depth                                : 8 bits
Scan type                                : Progressive
Bits/(Pixel*Frame)                       : 0.463
Stream size                              : 14.6 GiB (93%)
Default                                  : Yes
Forced                                   : No
Color range                              : Limited
Color primaries                          : BT.709
Transfer characteristics                 : BT.709
Matrix coefficients                      : BT.709

Audio
ID                                       : 2
Format                                   : DTS
Format/Info                              : Digital Theater Systems
Format profile                           : MA / Core
Mode                                     : 16
Format settings, Endianness              : Big
Codec ID                                 : A_DTS
Duration                                 : 1 h 31 min
Bit rate mode                            : Variable / Constant
Bit rate                                 : 1 794 kb/s / 1 509 kb/s
Channel(s)                               : 6 channels
Channel positions                        : Front: L C R, Side: L R, LFE
Sampling rate                            : 48.0 kHz
Frame rate                               : 93.750 FPS (512 spf)
Bit depth                                : 16 bits
Compression mode                         : Lossless / Lossy
Stream size                              : 1.14 GiB (7%)
Default                                  : Yes
Forced                                   : No

Text #1
ID                                       : 3
Format                                   : PGS
Muxing mode                              : zlib
Codec ID                                 : S_HDMV/PGS
Codec ID/Info                            : Picture based subtitle format used on BDs/HD-DVDs
Duration                                 : 1 h 30 min
Bit rate                                 : 7 967 b/s
Count of elements                        : 1556
Stream size                              : 5.15 MiB (0%)
Language                                 : German
Default                                  : Yes
Forced                                   : No

Text #2
ID                                       : 4
Format                                   : PGS
Muxing mode                              : zlib
Codec ID                                 : S_HDMV/PGS
Codec ID/Info                            : Picture based subtitle format used on BDs/HD-DVDs
Duration                                 : 48 min
Bit rate                                 : 110 b/s
Count of elements                        : 12
Stream size                              : 39.1 KiB (0%)
Language                                 : German
Default                                  : No
Forced                                   : No

Menu
00:00:00.000                             : en:00:00:00.000
00:08:27.799                             : en:00:08:27.799
00:16:39.332                             : en:00:16:39.332
00:25:09.258                             : en:00:25:09.258
00:33:18.872                             : en:00:33:18.872
00:43:08.252                             : en:00:43:08.252
00:49:50.988                             : en:00:49:50.988
00:58:13.156                             : en:00:58:13.156
01:05:22.919                             : en:01:05:22.919
01:13:40.458                             : en:01:13:40.458
01:18:55.940                             : en:01:18:55.940
01:27:20.777                             : en:01:27:20.777

Скриншоты:



Время раздачи: с 13:00 до 23:00
[NNMClub.to]_Broken.Vows.2016.REMUX.BluRay.1080p.AVC.DTS-HD.MA5.1-iFT.mkv.torrent
 Торрент: Золотая раздача  Зарегистрирован
 
Примагнититься

Зарегистрируйтесь и скачайте торрент!
79,2 KB
 Зарегистрирован:   05 Окт 2016 12:32:34
 Размер:   15,8 GB  (
 Рейтинг:    (Голосов: 6)
 Поблагодарили:   31
 Проверка:   Оформление проверено модератором 05 Окт 2016 12:33:53
Как cкачать  ·  Как раздать  ·  Правильно оформить  ·  Поднять ратио!  
comvirus
Стаж: 4 года 5 мес.
Сообщений: 11
Ratio: 1,718
0.25%
germany.gif
А немецкой дорожки небыло?
Logi-XXX
Только чтение
Стаж: 5 лет 9 мес.
Сообщений: 347
Ratio: 10,721
0%
ukraine.gif
Норм кино, девка со "Слепая Зона" тащит!!!
Показать сообщения:   
Начать новую тему   Ответить на тему    Торрент-трекер NNM-Club -> Зарубежное кино -> Фильмы в оригинале (HD) Часовой пояс: GMT + 3
Страница 1 из 1