Интеллигентный торрент-трекер
canvas not supported
Нас вместе: 4 345 696

Discovery: Как устроена Вселенная / How the Universe Works (2015) HDTVRip [H.264/720p-LQ] (Сезон 4, серии 1-8 из 8)


 
 
RSS
Начать новую тему   Ответить на тему    Торрент-трекер NNM-Club -> Зарубежные TV-бренды -> Discovery
Автор Сообщение
SmaximuS ®
Uploader 500+
Стаж: 6 лет
Сообщений: 1113
Ratio: 2542,442
Поблагодарили: 133728
100%
ussr.gif
Discovery: Как устроена Вселенная / How the Universe Works (2015) HDTVRip [H.264/720p-LQ] (Сезон 4, серии 1-8 из 8)
Режиссер / Телекомпания: Адам Уорнер, Питер Чинн, Луиз Сай, Лорни Тауненд, Шон Тревисик, Кейт Дарт, Джордж Харрис, Алекс Хирл, Pioneer Productions, Discovery Channel

Жанр: Документальный, научно-познавательный, астрономия, космос

Описание:
Ошеломляющий и уникальный проект, канала "Discovery" — представляет вашему вниманию передачу «Как устроена Вселенная». Она расскажет вам теорию о том как образовалась Вселенная, галактики, солнечные системы, планеты, звезды и т. д. Это величайшая история о том, как из маленькой точки появилась целая Вселенная, а потом начали появляться звезды, планеты и, конечно же, наша Земля.



Продолжительность: ~ 00:43:00 серия
Качество видео: HDTVRip

Перевод: Профессиональный одноголосый
Текст читал: Константин Хабенский

Видео: MPEG-4 AVC, 1280x720 (16:9), ~4000 kb/s
Аудио: AC3, 2 ch, 192 Kbps
Код:
Общее
Уникальный идентификатор                 : 253496008554190850444070116758147305778 (0xBEB58E2C7293218B830E9712FCDC1132)
Полное имя                               : 1. Как Вселенная сконструировала машину.mkv
Формат                                   : Matroska
Версия формата                           : Version 4 / Version 2
Размер файла                             : 1,28 Гбайт
Продолжительность                        : 44 м. 6 с.
Режим общего битрейта                    : Постоянный
Общий поток                              : 4159 Кбит/сек
Дата кодирования                         : UTC 2016-01-24 02:38:45
Программа кодирования                    : mkvmerge v8.8.0 ('Wind at my back') 32bit
Библиотека кодирования                   : libebml v1.3.3 + libmatroska v1.4.4

Видео
Идентификатор                            : 1
Формат                                   : AVC
Формат/Информация                        : Advanced Video Codec
Профиль формата                          : High@L4.1
Параметр CABAC формата                   : Да
Параметр ReFrames формата                : 3 кадра
Идентификатор кодека                     : V_MPEG4/ISO/AVC
Продолжительность                        : 44 м. 5 с.
Вид битрейта                             : Постоянный
Битрейт                                  : 4000 Кбит/сек
Ширина                                   : 1280 пикселей
Высота                                   : 720 пикселей
Соотношение сторон                       : 16:9
Режим частоты кадров                     : Постоянный
Частота кадров                           : 30,000 кадров/сек
Стандарт вещания                         : NTSC
Цветовое пространство                    : YUV
Субдискретизация насыщенности            : 4:2:0
Битовая глубина                          : 8 бит
Тип развёртки                            : Прогрессивная
Бит/(Пиксели*Кадры)                      : 0.145
Размер потока                            : 1,22 Гбайт (95%)
Default                                  : Нет
Forced                                   : Нет
Цветовой диапазон                        : Limited
Основные цвета                           : BT.709
Характеристики трансфера                 : BT.709
Коэффициенты матрицы                     : BT.709

Аудио
Идентификатор                            : 2
Формат                                   : AC-3
Формат/Информация                        : Audio Coding 3
Расширение режима                        : CM (complete main)
Параметр Endianness формата              : Big
Идентификатор кодека                     : A_AC3
Продолжительность                        : 44 м. 5 с.
Вид битрейта                             : Постоянный
Битрейт                                  : 192 Кбит/сек
Каналы                                   : 2 канала
Расположение каналов                     : Front: L R
Частота                                  : 48,0 КГц
Частота кадров                           : 31,250 кадров/сек (1536 spf)
Метод сжатия                             : С потерями
Задержка видео                           : -200 мс.
Размер потока                            : 60,6 Мбайт (5%)
Default                                  : Нет
Forced                                   : Нет
01. Как Вселенная сконструировала машину / How the Universe Built Your Car
02. Земля - злой близнец Венеры / Earth, Venus's Evil Twin
03. Сверхмассивная чёрная дыра / Monster Black Hole
04. На краю Солнечной системы / Edge of the Solar System
05. Зарождение жизни / Dawn of Life
06. Тайная история Луны / Secret History of the Moon
07. Первые океаны / The First Oceans
08. Силы вселенского созидания / Forces of Mass Construction
Скриншоты:


Все одноименные релизы в Клубе
Время раздачи: 24/7. До первых 10 скачавших.
[NNMClub.to]_Kak ustroena Vselennaya (sezon 4) 2015 (720p).torrent
 Торрент: Платиновая раздача  Зарегистрирован
 
Примагнититься

Скачать
 Зарегистрирован:   06 Окт 2016 16:11:27
 Размер:   10,2 GB  (
 Рейтинг:   4,9 (Голосов: 29)
 Поблагодарили:   136
 Проверка:   Оформление проверено модератором 08 Окт 2016 21:23:24
Как cкачать  ·  Как раздать  ·  Правильно оформить  ·  Поднять ратио!  
Загрузка...
fanzone
Только чтение
Стаж: 5 лет 7 мес.
Сообщений: 98
Ratio: 0,773
100%
belarus.gif
не верю я в теорию о маленькой точке
automobil
Стаж: 5 лет 8 мес.
Сообщений: 73
Ratio: 10,634
63.97%
Я тоже не верю. Но ведь она на то и теория что бы её доказывать. Либо предоставить свою версию. :)
LegikKNYAZ
Предупреждений: 1
Предупреждений: 1 
Стаж: 4 года 3 мес.
Сообщений: 135
Ratio: 6,385
0.1%
automobil писал(а): Перейти к сообщению
Я тоже не верю. Но ведь она на то и теория что бы её доказывать. Либо предоставить свою версию. :)

вообще-то теория это как раз то что уже имеет ряд доказательств, не нужно путать с гипотезой
Sladko
Стаж: 8 лет 9 мес.
Сообщений: 70
Ratio: 1,629
100%
Спасибо =)
Показать сообщения:   
Начать новую тему   Ответить на тему    Торрент-трекер NNM-Club -> Зарубежные TV-бренды -> Discovery Часовой пояс: GMT + 3
Страница 1 из 1