Интеллигентный торрент-трекер
canvas not supported
Нас вместе: 4 311 859

Кровный отец / Blood Father (2016) BDRemux [H.264/1080p] [EN / EN, Sp Sub]


 
 
RSS
Начать новую тему   Ответить на тему    Торрент-трекер NNM-Club -> Зарубежное кино -> Фильмы в оригинале (HD)
Автор Сообщение
smaster67 ®
Модератор Видео
Покровитель талантов Uploader 300+
Стаж: 7 лет 8 мес.
Сообщений: 6594
Ratio: 193,123
Поблагодарили: 190220
100%
Кровный отец / Blood Father (2016) BDRemux [H.264/1080p] [EN / EN, Sp Sub]

Производство: Франция
Жанр: боевик, триллер, криминал

Режиссер: Жан-Франсуа Рише
Актеры: Мэл Гибсон, Эрин Мориарти, Диего Луна, Майкл Паркс, Уильям Х. Мэйси, Мигель Сандовал, Дейл Дикки, Ричард Кебрал, Дэниэл Монкада, Райан Дорси, Рауль Трухильо

Описание:
17-летняя девушка попадает в серьёзные неприятности, и теперь за ней охотятся убийцы наркокартеля. Из близких у неё только отец - завязавший алкоголик и бывший заключённый, который даже особо не видел свою дочь и не принимал участия в её воспитании. Но родственников не выбирают, и девушке приходится обратиться к нему за помощью.



Продолжительность: 01:28:12
Качество видео: BDRemux
Перевод: Отсутствует
Язык озвучки: Английский
Язык субтитров: английский, испанский
Вид субтитров: Вшитые

Видео: AVC, 1920x1080 (16:9), 20430 kbps, 23,976 fps, 0,411 bpp
Аудио: английский / DTS-HD / 5.1 / 48 kHz / 3450 kbps / 24 bit (Core: 5.1 / 48 kHz / 1509 kbps / 24 bit)
Код:
General
Unique ID                                Blood.Father.2016.REMUX.1080p.BluRay.AVC.DTS-HD.MA5.1-iFT\Blood.Father.2016.REMUX.1080p.BluRay.AVC.DTS-HD.MA5.1-iFT.mkv
Format                                   : Matroska
Format version                           : Version 4 / Version 2
File size                                : 14.7 GiB
Duration                                 : 1 h 28 min
Overall bit rate mode                    : Variable
Overall bit rate                         : 23.9 Mb/s
Encoded date                             : UTC 2016-10-06 16:40:22
Writing application                      : mkvmerge v8.9.0 ('Father Daughter') 64bit
Writing library                          : libebml v1.3.3 + libmatroska v1.4.4

Video
ID                                       : 1
Format                                   : AVC
Format/Info                              : Advanced Video Codec
Format profile                           : High@L4.1
Format settings, CABAC                   : Yes
Format settings, ReFrames                : 4 frames
Codec ID                                 : V_MPEG4/ISO/AVC
Duration                                 : 1 h 28 min
Bit rate mode                            : Variable
Bit rate                                 : 20.4 Mb/s
Maximum bit rate                         : 37.0 Mb/s
Width                                    : 1 920 pixels
Height                                   : 1 080 pixels
Display aspect ratio                     : 16:9
Frame rate mode                          : Constant
Frame rate                               : 23.976 (24000/1001) FPS
Color space                              : YUV
Chroma subsampling                       : 4:2:0
Bit depth                                : 8 bits
Scan type                                : Progressive
Bits/(Pixel*Frame)                       : 0.411
Stream size                              : 12.6 GiB (85%)
Default                                  : Yes
Forced                                   : No

Audio
ID                                       : 2
Format                                   : DTS
Format/Info                              : Digital Theater Systems
Format profile                           : MA / Core
Mode                                     : 16
Format settings, Endianness              : Big
Codec ID                                 : A_DTS
Duration                                 : 1 h 28 min
Bit rate mode                            : Variable / Constant
Bit rate                                 : 3 450 kb/s / 1 509 kb/s
Channel(s)                               : 6 channels
Channel positions                        : Front: L C R, Side: L R, LFE
Sampling rate                            : 48.0 kHz
Frame rate                               : 93.750 FPS (512 spf)
Bit depth                                : 24 bits
Compression mode                         : Lossless / Lossy
Stream size                              : 2.13 GiB (14%)
Title                                    : English
Language                                 : English
Default                                  : Yes
Forced                                   : No

Text #1
ID                                       : 3
Format                                   : PGS
Muxing mode                              : zlib
Codec ID                                 : S_HDMV/PGS
Codec ID/Info                            : Picture based subtitle format used on BDs/HD-DVDs
Duration                                 : 1 h 20 min
Bit rate                                 : 17.4 kb/s
Count of elements                        : 2216
Stream size                              : 10.0 MiB (0%)
Title                                    : English-PGS
Language                                 : English
Default                                  : Yes
Forced                                   : No

Text #2
ID                                       : 4
Format                                   : PGS
Muxing mode                              : zlib
Codec ID                                 : S_HDMV/PGS
Codec ID/Info                            : Picture based subtitle format used on BDs/HD-DVDs
Duration                                 : 1 h 22 min
Bit rate                                 : 16.8 kb/s
Count of elements                        : 2202
Stream size                              : 9.91 MiB (0%)
Title                                    : Spanish-PGS
Language                                 : Spanish
Default                                  : No
Forced                                   : No

Menu
00:00:00.000                             : en:Chapter 01
00:07:02.797                             : en:Chapter 03
00:10:16.741                             : en:Chapter 05
00:15:59.583                             : en:Chapter 07
00:22:02.195                             : en:Chapter 09
00:28:58.695                             : en:Chapter 11
00:32:28.946                             : en:Chapter 13
00:38:43.112                             : en:Chapter 15
00:45:11.583                             : en:Chapter 17
00:48:45.839                             : en:Chapter 19
00:52:44.369                             : en:Chapter 21
00:57:36.327                             : en:Chapter 23
01:02:32.707                             : en:Chapter 25
01:07:51.734                             : en:Chapter 27
01:12:41.607                             : en:Chapter 29
01:20:57.560                             : en:Chapter 31
01:28:12.495                             : en:Chapter 32

Скриншоты:



Время раздачи: с 13:00 до 23:00
[NNMClub.to]_Blood.Father.2016.REMUX.1080p.BluRay.AVC.DTS-HD.MA5.1-iFT.mkv.torrent
 Торрент: Золотая раздача  Зарегистрирован
 
Примагнититься
Free Leech
Зарегистрируйтесь и скачайте торрент!
73,9 KB
 Зарегистрирован:   06 Окт 2016 20:59:09
 Размер:   14,7 GB  (
 Рейтинг:    (Голосов: 4)
 Поблагодарили:   43
 Проверка:   Оформление проверено модератором 06 Окт 2016 20:59:48
Как cкачать  ·  Как раздать  ·  Правильно оформить  ·  Поднять ратио!  
Показать сообщения:   
Начать новую тему   Ответить на тему    Торрент-трекер NNM-Club -> Зарубежное кино -> Фильмы в оригинале (HD) Часовой пояс: GMT + 3
Страница 1 из 1