Интеллигентный торрент-трекер
canvas not supported
Нас вместе: 4 303 304

VA - Greenpeace Rocks (1993) [FLAC|lossless|image + .cue] <Rock>


 
 
RSS
Начать новую тему   Ответить на тему    Торрент-трекер NNM-Club -> Rock, Alternative, Punk, Metal -> Русский Рок (Lossless)
Автор Сообщение
fanDYNAMO ®
Модератор Музыки
RG Music
 

Online
Стаж: 4 года 10 мес.
Сообщений: 2700
Ratio: 351,675
Раздал: 19,7 TB
Поблагодарили: 58565
100%
Откуда: Черновцы
ukraine.gif
VA - Greenpeace Rocks (1993)
Страна: Россия
Год Выпуска: 1993
Издатель (лейбл): SNC Records - SNCD-3012
Жанр: Rock
Продолжительность: 00:37:56

Кодек: FLAC
Битрейт: Lossless
Тип рипа: image + .cue

Треклист:
01. Чай Ф - Не спеши (03:52)
02. БГ - Китай (01:47)
03. Джоанна Стингрэй - Бум-Бум (03:14)
04. Наутилус Помпилиус - Синоптика (04:39)
05. Машина Времени - Костер (03:50)
06. Джоанна Стингрэй и БГ - Come Together (03:35)
07. Алиса - Все в наших руках (03:20)
08. Бригада С - Дорожная (05:04)
09. ДДТ - Актриса Весна (08:35)
Код: выделить все
Exact Audio Copy V1.1 from 23. June 2015

EAC extraction logfile from 11. January 2016, 20:50

Разные исполнители / Greenpeace Rocks

Used drive  : SlimtypeDVD A  DS8A8SH   Adapter: 1  ID: 0

Read mode               : Secure
Utilize accurate stream : Yes
Defeat audio cache      : Yes
Make use of C2 pointers : No

Read offset correction                      : 6
Overread into Lead-In and Lead-Out          : No
Fill up missing offset samples with silence : Yes
Delete leading and trailing silent blocks   : No
Null samples used in CRC calculations       : Yes
Used interface                              : Native Win32 interface for Win NT & 2000

Used output format              : User Defined Encoder
Selected bitrate                : 896 kBit/s
Quality                         : High
Add ID3 tag                     : No
Command line compressor         : C:\Program Files (x86)\Exact Audio Copy\Flac\flac.exe
Additional command line options : -V -8 -T "Date=%year%" -T "Genre=%genre%" %source%

TOC of the extracted CD

     Track |   Start  |  Length  | Start sector | End sector
    ---------------------------------------------------------
        1  |  0:00.00 |  3:51.42 |         0    |    17366
        2  |  3:51.42 |  1:47.33 |     17367    |    25424
        3  |  5:39.00 |  3:14.35 |     25425    |    40009
        4  |  8:53.35 |  4:39.15 |     40010    |    60949
        5  | 13:32.50 |  3:50.07 |     60950    |    78206
        6  | 17:22.57 |  3:34.38 |     78207    |    94294
        7  | 20:57.20 |  3:20.05 |     94295    |   109299
        8  | 24:17.25 |  5:03.65 |    109300    |   132089
        9  | 29:21.15 |  8:34.60 |    132090    |   170699

Range status and errors

Selected range

     Filename D:\Аквариум и БГ\(1993) Разные исполнители - Greenpeace Rocks [SNCD - 3012]\Разные исполнители - Greenpeace

Rocks.wav

     Peak level 91.8 %
     Extraction speed 1.7 X
     Range quality 100.0 %
     Test CRC 232C584D
     Copy CRC 232C584D
     Copy OK

No errors occurred

AccurateRip summary

Track  1  not present in database
Track  2  not present in database
Track  3  not present in database
Track  4  not present in database
Track  5  not present in database
Track  6  not present in database
Track  7  not present in database
Track  8  not present in database
Track  9  not present in database

None of the tracks are present in the AccurateRip database

End of status report

---- CUETools DB Plugin V2.1.6

[CTDB TOCID: LGcTrrUFKrmymEXHkNM51KxRMDU-] disk not present in database
Submit result: LGcTrrUFKrmymEXHkNM51KxRMDU- has been uploaded

==== Log checksum C8E49144D7977EA924D96BCFA07DE0978C6F7633B9A142593397450480091C67 ====
Код: выделить все
REM GENRE Rock
REM DATE 1993
REM DISCID 6A08E409
REM COMMENT ExactAudioCopy v1.1
PERFORMER "Разные исполнители"
TITLE "Greenpeace Rocks [SNC Records, SNCD-3012]"
FILE "Разные исполнители - Greenpeace Rocks.flac" WAVE
  TRACK 01 AUDIO
    TITLE "Не спеши"
    PERFORMER "Чай Ф"
    INDEX 01 00:00:00
  TRACK 02 AUDIO
    TITLE "Китай"
    PERFORMER "БГ"
    INDEX 00 03:50:00
    INDEX 01 03:51:42
  TRACK 03 AUDIO
    TITLE "Бум-Бум"
    PERFORMER "Джоанна Стингрэй"
    INDEX 00 05:37:00
    INDEX 01 05:39:00
  TRACK 04 AUDIO
    TITLE "Синоптика"
    PERFORMER "Наутилус Помпилиус"
    INDEX 00 08:51:00
    INDEX 01 08:53:35
  TRACK 05 AUDIO
    TITLE "Костер"
    PERFORMER "Машина Времени"
    INDEX 00 13:31:00
    INDEX 01 13:32:50
  TRACK 06 AUDIO
    TITLE "Come Together"
    PERFORMER "Джоанна Стингрэй и БГ"
    INDEX 00 17:21:00
    INDEX 01 17:22:57
  TRACK 07 AUDIO
    TITLE "Все в наших руках"
    PERFORMER "Алиса"
    INDEX 00 20:56:00
    INDEX 01 20:57:20
  TRACK 08 AUDIO
    TITLE "Дорожная"
    PERFORMER "Бригада С"
    INDEX 00 24:16:00
    INDEX 01 24:17:25
  TRACK 09 AUDIO
    TITLE "Актриса Весна"
    PERFORMER "ДДТ"
    INDEX 00 29:20:00
    INDEX 01 29:21:15
Код: выделить все
-----------------------

DON'T MODIFY THIS FILE

-----------------------

PERFORMER: auCDtect Task Manager, ver. 1.6.0 RC1 build 1.6.0.1
Copyright (c) 2008-2010 y-soft. All rights reserved
http://y-soft.org

ANALYZER: auCDtect: CD records authenticity detector, version 0.8.2
Copyright (c) 2004 Oleg Berngardt. All rights reserved.
Copyright (c) 2004 Alexander Djourik. All rights reserved.

FILE: Разные исполнители - Greenpeace Rocks.flac
  Size: 252986184 Hash: C143B3E65EEACDA3CCD39B6A4874661A Accuracy: -m0
  Conclusion: CDDA 100%
  Signature: 1DEDF8DABB20DC7406A36A3F1AEDAE9B75F64701
Время раздачи: с 09:00 до 23:00 (UTC\GTM+2)


Поглощение/вытеснение
Только с согласия релизера

Bigbeer
[NNMClub.to]_Greenpeace Rocks (1993).torrent
 Торрент:   Зарегистрирован
 
Примагнититься
Free Leech
Зарегистрируйтесь и скачайте торрент!
20,6 KB
 Зарегистрирован:   09 Окт 2016 15:28:36
 Размер:   252 MB  (
 Рейтинг:   4,6 (Голосов: 11)
 Поблагодарили:   53
 Проверка:   Оформление проверено модератором 10 Окт 2016 12:55:42
Как cкачать  ·  Как раздать  ·  Правильно оформить  ·  Поднять ратио!  

_________________
Исправил(а) релиз - напиши в ЛС
На своих раздачах минимум месяц! Одиночные раздачи удаляю, но стараюсь сохранить копию на облаке! Пишите в ЛС, если будет возможность - вернусь на раздачу!
Показать сообщения:   
Начать новую тему   Ответить на тему    Торрент-трекер NNM-Club -> Rock, Alternative, Punk, Metal -> Русский Рок (Lossless) Часовой пояс: GMT + 3
Страница 1 из 1