Интеллигентный торрент-трекер
canvas not supported
Нас вместе: 4 348 424

День независимости: Возрождение / Independence Day: Resurgence (2016) BDRemux [H.264/1080p] [EN / EN, Fr, Sp, Po Sub]


 
 
RSS
Начать новую тему   Ответить на тему    Торрент-трекер NNM-Club -> Зарубежное кино -> Фильмы в оригинале (HD)
Автор Сообщение
smaster67 ®
Модератор Видео
Покровитель талантов Uploader 300+
Стаж: 7 лет 10 мес.
Сообщений: 6629
Ratio: 198,427
Поблагодарили: 192325
100%
День независимости: Возрождение / Independence Day: Resurgence (2016) BDRemux [H.264/1080p] [EN / EN, Fr, Sp, Po Sub]

Производство: США
Жанр: фантастика, боевик, приключения

Режиссер: Роланд Эммерих
Актеры: Лиам Хемсворт, Джефф Голдблюм, Джесси Ашер, Билл Пуллман, Майка Монро, Села Уорд, Уильям Фихтнер, Джадд Хёрш, Брент Спайнер, Патрик Ст. Эсприт, Вивика А. Фокс, Анджела Бейби

Описание:
Используя инопланетные технологии, жители Земли создали специальную программу по защите планеты. Но ничего не может нас спасти от нового, еще более разрушительного и масштабного инопланетного вторжения - только смелость нескольких героев, которые единственные могут спасти наш мир от уничтожения.



Продолжительность: 01:59:44
Качество видео: BDRemux
Перевод: Отсутствует
Язык озвучки: Английский
Язык субтитров: английский, испанский, французский, португальский
Вид субтитров: Вшитые

Видео: AVC, 1920x1080 (16:9), 25815 kbps, 23,976 fps, 0,519 bpp
Аудио: английский / DTS-HD / 7.1 / 48 kHz / 5022 kbps / 24 bit
Код: выделить все
General
Unique ID
Complete name                            : Independence.Day.Resurgence.2016.REMUX.1080p.BluRay.AVC.DTS-HD.MA7.1-iFT\Independence.Day.Resurgence.2016.REMUX.1080p.BluRay.AVC.DTS-HD.MA7.1-iFT.mkv
Format                                   : Matroska
Format version                           : Version 4 / Version 2
File size                                : 25.8 GiB
Duration                                 : 1 h 59 min
Overall bit rate mode                    : Variable
Overall bit rate                         : 30.9 Mb/s
Encoded date                             : UTC 2016-10-09 19:06:02
Writing application                      : mkvmerge v8.9.0 ('Father Daughter') 64bit
Writing library                          : libebml v1.3.3 + libmatroska v1.4.4

Video
ID                                       : 1
Format                                   : AVC
Format/Info                              : Advanced Video Codec
Format profile                           : High@L4.1
Format settings, CABAC                   : Yes
Format settings, ReFrames                : 2 frames
Codec ID                                 : V_MPEG4/ISO/AVC
Duration                                 : 1 h 59 min
Bit rate mode                            : Variable
Bit rate                                 : 25.8 Mb/s
Width                                    : 1 920 pixels
Height                                   : 1 080 pixels
Display aspect ratio                     : 16:9
Frame rate mode                          : Constant
Frame rate                               : 23.976 (24000/1001) FPS
Color space                              : YUV
Chroma subsampling                       : 4:2:0
Bit depth                                : 8 bits
Scan type                                : Progressive
Bits/(Pixel*Frame)                       : 0.519
Stream size                              : 21.6 GiB (84%)
Default                                  : Yes
Forced                                   : No

Audio
ID                                       : 2
Format                                   : DTS
Format/Info                              : Digital Theater Systems
Format profile                           : MA / ES Matrix / Core
Mode                                     : 16
Format settings, Endianness              : Big
Codec ID                                 : A_DTS
Duration                                 : 1 h 59 min
Bit rate mode                            : Variable / Constant / Constant
Bit rate                                 : 5 023 kb/s / 1 509 kb/s / 1 509 kb/s
Channel(s)                               : 8 channels / 7 channels / 6 channels
Channel positions                        : Front: L C R, Side: L R, Back: L R, LFE / Front: L C R, Side: L R, Back: C, LFE / Front: L C R, Side: L R, LFE
Sampling rate                            : 48.0 kHz
Frame rate                               : 93.750 FPS (512 spf)
Bit depth                                : 24 bits
Compression mode                         : Lossless / Lossy / Lossy
Stream size                              : 4.20 GiB (16%)
Title                                    : English
Language                                 : English
Default                                  : Yes
Forced                                   : No

Text #1
ID                                       : 3
Format                                   : PGS
Muxing mode                              : zlib
Codec ID                                 : S_HDMV/PGS
Codec ID/Info                            : Picture based subtitle format used on BDs/HD-DVDs
Duration                                 : 1 h 49 min
Bit rate                                 : 16.0 kb/s
Count of elements                        : 4316
Stream size                              : 12.6 MiB (0%)
Title                                    : English-PGS
Language                                 : English
Default                                  : Yes
Forced                                   : No

Text #2
ID                                       : 4
Format                                   : PGS
Muxing mode                              : zlib
Codec ID                                 : S_HDMV/PGS
Codec ID/Info                            : Picture based subtitle format used on BDs/HD-DVDs
Duration                                 : 16 min
Bit rate                                 : 70 b/s
Count of elements                        : 10
Stream size                              : 8.74 KiB (0%)
Title                                    : English-PGS
Language                                 : English
Default                                  : No
Forced                                   : No

Text #3
ID                                       : 5
Format                                   : PGS
Muxing mode                              : zlib
Codec ID                                 : S_HDMV/PGS
Codec ID/Info                            : Picture based subtitle format used on BDs/HD-DVDs
Duration                                 : 1 h 58 min
Bit rate                                 : 10.9 kb/s
Count of elements                        : 3194
Stream size                              : 9.29 MiB (0%)
Title                                    : Spanish-PGS
Language                                 : Spanish
Default                                  : No
Forced                                   : No

Text #4
ID                                       : 6
Format                                   : PGS
Muxing mode                              : zlib
Codec ID                                 : S_HDMV/PGS
Codec ID/Info                            : Picture based subtitle format used on BDs/HD-DVDs
Duration                                 : 1 h 58 min
Bit rate                                 : 11.7 kb/s
Count of elements                        : 3456
Stream size                              : 9.94 MiB (0%)
Title                                    : French-PGS
Language                                 : French
Default                                  : No
Forced                                   : No

Text #5
ID                                       : 7
Format                                   : PGS
Muxing mode                              : zlib
Codec ID                                 : S_HDMV/PGS
Codec ID/Info                            : Picture based subtitle format used on BDs/HD-DVDs
Duration                                 : 1 h 58 min
Bit rate                                 : 11.7 kb/s
Count of elements                        : 3434
Stream size                              : 9.96 MiB (0%)
Title                                    : Portuguese-PGS
Language                                 : Portuguese
Default                                  : No
Forced                                   : No

Menu
00:00:00.000                             : en:Chapter 01
00:05:37.336                             : en:Chapter 03
00:09:15.471                             : en:Chapter 05
00:14:06.720                             : en:Chapter 07
00:19:40.470                             : en:Chapter 09
00:22:59.002                             : en:Chapter 11
00:27:10.253                             : en:Chapter 13
00:31:37.645                             : en:Chapter 15
00:39:11.974                             : en:Chapter 17
00:43:41.118                             : en:Chapter 19
00:47:46.613                             : en:Chapter 21
00:52:32.190                             : en:Chapter 23
00:59:10.255                             : en:Chapter 25
01:02:00.133                             : en:Chapter 27
01:07:12.069                             : en:Chapter 29
01:09:54.815                             : en:Chapter 31
01:13:11.720                             : en:Chapter 33
01:18:27.452                             : en:Chapter 35
01:22:45.502                             : en:Chapter 37
01:27:51.808                             : en:Chapter 39
01:32:36.717                             : en:Chapter 41
01:39:38.138                             : en:Chapter 43
01:47:20.142                             : en:Chapter 45
01:50:36.713                             : en:Chapter 47
01:59:43.926                             : en:Chapter 49

Скриншоты:



Время раздачи: с 13:00 до 23:00
[NNMClub.to]_Independence.Day.Resurgence.2016.REMUX.1080p.BluRay.AVC.DTS-HD.MA7.1-iFT.mkv.torrent
 Торрент: Платиновая раздача  Зарегистрирован
 
Примагнититься

Скачать
 Зарегистрирован:   10 Окт 2016 00:21:17
 Размер:   25,8 GB  (
 Рейтинг:    (Голосов: 8)
 Поблагодарили:   44
 Проверка:   Оформление проверено модератором 10 Окт 2016 00:21:55
Как cкачать  ·  Как раздать  ·  Правильно оформить  ·  Поднять ратио!  
Mishael777
Стаж: 4 года 3 мес.
Сообщений: 13
Ratio: 67,187
77.87%
Рейтинг кинопоиска даже до шестёрки не дотягивает.. Неужели всё так плохо!?
Показать сообщения:   
Начать новую тему   Ответить на тему    Торрент-трекер NNM-Club -> Зарубежное кино -> Фильмы в оригинале (HD) Часовой пояс: GMT + 3
Страница 1 из 1