Интеллигентный торрент-трекер
canvas not supported
Нас вместе: 4 303 498

VA - Outburst Records pres. Prism Volume 1 (Mixed by Mark Sherry & Alex Di Stefano) (2016) [FLAC|Lossless|tracks+.cue] <Trance, Progressive House, Techno>


 
 
RSS
Начать новую тему   Ответить на тему    Торрент-трекер NNM-Club -> Electronic -> Trance (Lossless)
Автор Сообщение
Lazyra ®
Модератор Electronic
RG Music
 
Стаж: 6 лет
Сообщений: 4627
Ratio: 1630,364
Раздал: 55,64 TB
Поблагодарили: 95964
100%
Откуда: Владимир
russia.gif
VA - Outburst Records pres. Prism Volume 1 (Mixed by Mark Sherry & Alex Di Stefano) (2016)



Год: 2016
Жанр: Trance, Progressive House, Techno
Продолжительность: 02:36:52
Лейбл: Black Hole Recordings
Каталог №: BHCD147
Сканы: Комплект
Тип рипа: tracks+.cue
Кодек: FLAC
Битрейт: Lossless

Треклист:


Треклист:
01. Mauro Picotto - Eterea (Mark Sherry Remix) (6:26)
02. Mark Sherry & Dark Fusion feat. Jan Johnston - Deja vu (Outburst Vocal Mix) (4:43)
03. Solarstone - Lost Hearts (Mark Sherry Remix) (5:02)
04. Mallorca Lee & Stephen Kirkwood - 2029 (4:00)
05. Joseph Mara - Shock (3:45)
06. Tempo Giusto & Ima'gin - Pachinko (3:14)
07. Mark Sherry - Gravitational Waves (5:07)
08. Adam Ellis - Mr. Mayhem (3:21)
09. Mark Sherry meets Space Frog & Derb - Follow Me (Psyburst Mix) (3:38)
10. ReOrder - Singularity (2:32)
11. Ikorus - Twitch (3:06)
12. Sunscreem - Please Save Me (James Dymond Remix) (3:24)
13. Nick Grater - My Rendition (Sean Tyas Rework) (2:32)
14. Heatbeat - Aerys (Mark Sherry Remix) (4:57)
15. Project 8 - Injector (2:46)
16. Bryan Kearney & Will Atkinson - The Game Changer (5:11)
17. Mark Sherry & Gene Karz - Spacewarp (Dave The Drummer Remix) (3:14)
18. 2nd Phase - Agenda 21 (3:15)
19. Mark Sherry & Paul Denton - Hostel (2nd Phase Remix) (3:06)
20. David Forbes - Chaos Bowl (3:39)
21. Joint Operations Centre - Dexathol (2:06)

Продолжительность: 01:18:51
Код: выделить все

Exact Audio Copy V1.0 beta 4 from 7. December 2014

EAC extraction logfile from 12. August 2016, 20:18

Various Artists / Outburst Records Presents Prism Vol.1 Mixed By Mark Sherry & Alex Di Stefano CD1

Used drive  : PIONEER DVD-RW DVRTD11RS   Adapter: 1  ID: 0

Read mode               : Secure
Utilize accurate stream : Yes
Defeat audio cache      : Yes
Make use of C2 pointers : No

Read offset correction                      : 6
Overread into Lead-In and Lead-Out          : No
Fill up missing offset samples with silence : Yes
Delete leading and trailing silent blocks   : No
Null samples used in CRC calculations       : Yes
Used interface                              : Native Win32 interface for Win NT & 2000
Gap handling                                : Appended to previous track

Used output format              : User Defined Encoder
Selected bitrate                : 1024 kBit/s
Quality                         : High
Add ID3 tag                     : No
Command line compressor         : C:\Program Files (x86)\Exact Audio Copy\Flac\flac.exe
Additional command line options : -8 -V -T "ARTIST=%artist%" -T "TITLE=%title%" -T "ALBUM=%albumtitle%" -T "DATE=%year%" -T "TRACKNUMBER=%tracknr%" -T "TOTALTRACKS=%numtracks%" -T "GENRE=%genre%" -T "ALBUMARTIST=%albumartist%" -T "ALBUM ARTIST=%albumartist%" -T "COMMENT=EAC Secure Mode, Test & Copy, AccurateRip, FLAC -8" %source%

TOC of the extracted CD

     Track |   Start  |  Length  | Start sector | End sector
    ---------------------------------------------------------
        1  |  0:00.00 |  6:26.04 |         0    |    28953
        2  |  6:26.04 |  4:43.09 |     28954    |    50187
        3  | 11:09.13 |  5:01.46 |     50188    |    72808
        4  | 16:10.59 |  3:59.65 |     72809    |    90798
        5  | 20:10.49 |  3:45.25 |     90799    |   107698
        6  | 23:55.74 |  3:13.70 |    107699    |   122243
        7  | 27:09.69 |  5:06.54 |    122244    |   145247
        8  | 32:16.48 |  3:20.50 |    145248    |   160297
        9  | 35:37.23 |  3:37.39 |    160298    |   176611
       10  | 39:14.62 |  2:31.66 |    176612    |   188002
       11  | 41:46.53 |  3:06.24 |    188003    |   201976
       12  | 44:53.02 |  3:23.44 |    201977    |   217245
       13  | 48:16.46 |  2:31.63 |    217246    |   228633
       14  | 50:48.34 |  4:56.50 |    228634    |   250883
       15  | 55:45.09 |  2:45.43 |    250884    |   263301
       16  | 58:30.52 |  5:10.44 |    263302    |   286595
       17  | 63:41.21 |  3:14.16 |    286596    |   301161
       18  | 66:55.37 |  3:14.60 |    301162    |   315771
       19  | 70:10.22 |  3:06.03 |    315772    |   329724
       20  | 73:16.25 |  3:39.27 |    329725    |   346176
       21  | 76:55.52 |  2:06.33 |    346177    |   355659

Track  1

     Filename I:\EAC\Various Artists - Outburst Records Presents Prism Vol.1 Mixed By Mark Sherry & Alex Di Stefano (2016) [FLAC] {2CD}\CD1\01 - Mauro Picotto - Eterea (Mark Sherry Remix).wav

     Pre-gap length  0:00:02.00

     Peak level 99.0 %
     Extraction speed 3.2 X
     Track quality 100.0 %
     Test CRC 29C0E950
     Copy CRC 29C0E950
     Track not present in AccurateRip database
     Copy OK

Track  2

     Filename I:\EAC\Various Artists - Outburst Records Presents Prism Vol.1 Mixed By Mark Sherry & Alex Di Stefano (2016) [FLAC] {2CD}\CD1\02 - Mark Sherry & Dark Fusion feat. Jan Johnston - Deja vu (Outburst Vocal Mix).wav

     Peak level 99.0 %
     Extraction speed 3.5 X
     Track quality 100.0 %
     Test CRC 1C09EA50
     Copy CRC 1C09EA50
     Track not present in AccurateRip database
     Copy OK

Track  3

     Filename I:\EAC\Various Artists - Outburst Records Presents Prism Vol.1 Mixed By Mark Sherry & Alex Di Stefano (2016) [FLAC] {2CD}\CD1\03 - Solarstone - Lost Hearts (Mark Sherry Remix).wav

     Peak level 99.1 %
     Extraction speed 3.8 X
     Track quality 100.0 %
     Test CRC 69B566B1
     Copy CRC 69B566B1
     Track not present in AccurateRip database
     Copy OK

Track  4

     Filename I:\EAC\Various Artists - Outburst Records Presents Prism Vol.1 Mixed By Mark Sherry & Alex Di Stefano (2016) [FLAC] {2CD}\CD1\04 - Mallorca Lee & Stephen Kirkwood - 2029.wav

     Peak level 98.9 %
     Extraction speed 3.9 X
     Track quality 100.0 %
     Test CRC 8A75A212
     Copy CRC 8A75A212
     Track not present in AccurateRip database
     Copy OK

Track  5

     Filename I:\EAC\Various Artists - Outburst Records Presents Prism Vol.1 Mixed By Mark Sherry & Alex Di Stefano (2016) [FLAC] {2CD}\CD1\05 - Joseph Mara - Shock.wav

     Peak level 98.9 %
     Extraction speed 4.1 X
     Track quality 100.0 %
     Test CRC 17E16358
     Copy CRC 17E16358
     Track not present in AccurateRip database
     Copy OK

Track  6

     Filename I:\EAC\Various Artists - Outburst Records Presents Prism Vol.1 Mixed By Mark Sherry & Alex Di Stefano (2016) [FLAC] {2CD}\CD1\06 - Tempo Giusto & Ima'gin - Pachinko.wav

     Peak level 98.9 %
     Extraction speed 4.2 X
     Track quality 100.0 %
     Test CRC BB2DDF90
     Copy CRC BB2DDF90
     Track not present in AccurateRip database
     Copy OK

Track  7

     Filename I:\EAC\Various Artists - Outburst Records Presents Prism Vol.1 Mixed By Mark Sherry & Alex Di Stefano (2016) [FLAC] {2CD}\CD1\07 - Mark Sherry - Gravitational Waves.wav

     Peak level 98.9 %
     Extraction speed 4.0 X
     Track quality 99.9 %
     Test CRC 9830224E
     Copy CRC 9830224E
     Track not present in AccurateRip database
     Copy OK

Track  8

     Filename I:\EAC\Various Artists - Outburst Records Presents Prism Vol.1 Mixed By Mark Sherry & Alex Di Stefano (2016) [FLAC] {2CD}\CD1\08 - Adam Ellis - Mr. Mayhem.wav

     Peak level 98.9 %
     Extraction speed 4.6 X
     Track quality 100.0 %
     Test CRC 5C7FFC72
     Copy CRC 5C7FFC72
     Track not present in AccurateRip database
     Copy OK

Track  9

     Filename I:\EAC\Various Artists - Outburst Records Presents Prism Vol.1 Mixed By Mark Sherry & Alex Di Stefano (2016) [FLAC] {2CD}\CD1\09 - Mark Sherry meets Space Frog & Derb - Follow Me (Psyburst Mix).wav

     Peak level 98.9 %
     Extraction speed 4.8 X
     Track quality 100.0 %
     Test CRC B959F3C8
     Copy CRC B959F3C8
     Track not present in AccurateRip database
     Copy OK

Track 10

     Filename I:\EAC\Various Artists - Outburst Records Presents Prism Vol.1 Mixed By Mark Sherry & Alex Di Stefano (2016) [FLAC] {2CD}\CD1\10 - ReOrder - Singularity.wav

     Peak level 99.0 %
     Extraction speed 4.6 X
     Track quality 100.0 %
     Test CRC 9ADB3A5A
     Copy CRC 9ADB3A5A
     Track not present in AccurateRip database
     Copy OK

Track 11

     Filename I:\EAC\Various Artists - Outburst Records Presents Prism Vol.1 Mixed By Mark Sherry & Alex Di Stefano (2016) [FLAC] {2CD}\CD1\11 - Ikorus - Twitch.wav

     Peak level 98.9 %
     Extraction speed 4.9 X
     Track quality 100.0 %
     Test CRC D2A2DFF8
     Copy CRC D2A2DFF8
     Track not present in AccurateRip database
     Copy OK

Track 12

     Filename I:\EAC\Various Artists - Outburst Records Presents Prism Vol.1 Mixed By Mark Sherry & Alex Di Stefano (2016) [FLAC] {2CD}\CD1\12 - Sunscreem - Please Save Me (James Dymond Remix).wav

     Peak level 98.9 %
     Extraction speed 5.1 X
     Track quality 100.0 %
     Test CRC 9F10578D
     Copy CRC 9F10578D
     Track not present in AccurateRip database
     Copy OK

Track 13

     Filename I:\EAC\Various Artists - Outburst Records Presents Prism Vol.1 Mixed By Mark Sherry & Alex Di Stefano (2016) [FLAC] {2CD}\CD1\13 - Nick Grater - My Rendition (Sean Tyas Rework).wav

     Peak level 98.9 %
     Extraction speed 5.0 X
     Track quality 100.0 %
     Test CRC 643EE440
     Copy CRC 643EE440
     Track not present in AccurateRip database
     Copy OK

Track 14

     Filename I:\EAC\Various Artists - Outburst Records Presents Prism Vol.1 Mixed By Mark Sherry & Alex Di Stefano (2016) [FLAC] {2CD}\CD1\14 - Heatbeat - Aerys (Mark Sherry Remix).wav

     Peak level 98.9 %
     Extraction speed 5.6 X
     Track quality 100.0 %
     Test CRC D80DFCDB
     Copy CRC D80DFCDB
     Track not present in AccurateRip database
     Copy OK

Track 15

     Filename I:\EAC\Various Artists - Outburst Records Presents Prism Vol.1 Mixed By Mark Sherry & Alex Di Stefano (2016) [FLAC] {2CD}\CD1\15 - Project 8 - Injector.wav

     Peak level 98.9 %
     Extraction speed 5.2 X
     Track quality 100.0 %
     Test CRC 4DECF6A9
     Copy CRC 4DECF6A9
     Track not present in AccurateRip database
     Copy OK

Track 16

     Filename I:\EAC\Various Artists - Outburst Records Presents Prism Vol.1 Mixed By Mark Sherry & Alex Di Stefano (2016) [FLAC] {2CD}\CD1\16 - Bryan Kearney & Will Atkinson - The Game Changer.wav

     Peak level 99.0 %
     Extraction speed 5.9 X
     Track quality 100.0 %
     Test CRC C8E86C51
     Copy CRC C8E86C51
     Track not present in AccurateRip database
     Copy OK

Track 17

     Filename I:\EAC\Various Artists - Outburst Records Presents Prism Vol.1 Mixed By Mark Sherry & Alex Di Stefano (2016) [FLAC] {2CD}\CD1\17 - Mark Sherry & Gene Karz - Spacewarp (Dave The Drummer Remix).wav

     Peak level 98.9 %
     Extraction speed 4.5 X
     Track quality 99.9 %
     Test CRC D37D8D55
     Copy CRC D37D8D55
     Track not present in AccurateRip database
     Copy OK

Track 18

     Filename I:\EAC\Various Artists - Outburst Records Presents Prism Vol.1 Mixed By Mark Sherry & Alex Di Stefano (2016) [FLAC] {2CD}\CD1\18 - 2nd Phase - Agenda 21.wav

     Peak level 99.0 %
     Extraction speed 5.7 X
     Track quality 100.0 %
     Test CRC D2C76109
     Copy CRC D2C76109
     Track not present in AccurateRip database
     Copy OK

Track 19

     Filename I:\EAC\Various Artists - Outburst Records Presents Prism Vol.1 Mixed By Mark Sherry & Alex Di Stefano (2016) [FLAC] {2CD}\CD1\19 - Mark Sherry & Paul Denton - Hostel (2nd Phase Remix).wav

     Peak level 98.9 %
     Extraction speed 5.9 X
     Track quality 100.0 %
     Test CRC D2740777
     Copy CRC D2740777
     Track not present in AccurateRip database
     Copy OK

Track 20

     Filename I:\EAC\Various Artists - Outburst Records Presents Prism Vol.1 Mixed By Mark Sherry & Alex Di Stefano (2016) [FLAC] {2CD}\CD1\20 - David Forbes - Chaos Bowl.wav

     Peak level 98.9 %
     Extraction speed 6.0 X
     Track quality 100.0 %
     Test CRC AA762A9C
     Copy CRC AA762A9C
     Track not present in AccurateRip database
     Copy OK

Track 21

     Filename I:\EAC\Various Artists - Outburst Records Presents Prism Vol.1 Mixed By Mark Sherry & Alex Di Stefano (2016) [FLAC] {2CD}\CD1\21 - Joint Operations Centre - Dexathol.wav

     Peak level 98.9 %
     Extraction speed 5.6 X
     Track quality 100.0 %
     Test CRC 8CC39B84
     Copy CRC 8CC39B84
     Track not present in AccurateRip database
     Copy OK

None of the tracks are present in the AccurateRip database

No errors occurred

End of status report

---- CUETools DB Plugin V2.1.4

[CTDB TOCID: 2i1TzlovawILl23YQnuX1kIDcvg-] disk not present in database
Submit result: 2i1TzlovawILl23YQnuX1kIDcvg- has been uploaded

==== Log checksum C14523A9368161AFD41E8894249D6697048AF6A38B1AA4748DDD9C8E1CD95235 ====

Код: выделить все

-----------------------

DON'T MODIFY THIS FILE

-----------------------

PERFORMER: auCDtect Task Manager, ver. 1.6.0 RC1 build 1.6.0.1
Copyright (c) 2008-2010 y-soft. All rights reserved
http://y-soft.org

ANALYZER: auCDtect: CD records authenticity detector, version 0.8.2
Copyright (c) 2004 Oleg Berngardt. All rights reserved.
Copyright (c) 2004 Alexander Djourik. All rights reserved.

FILE: 21 - Joint Operations Centre - Dexathol.flac
  Size: 15739446 Hash: 70649844418CD94AC09C57CE2B5283BB Accuracy: -m0
  Conclusion: CDDA 94%
  Signature: B03A72B0479CDB9E1C5E7BF70C05CD8C0FAAEF3D
FILE: 20 - David Forbes - Chaos Bowl.flac
  Size: 28790517 Hash: 80B45E82775A05CDD2E88ECEBE5531EF Accuracy: -m0
  Conclusion: CDDA 92%
  Signature: 576673E8420A505C16E44EFC2A4F3B2D23D09506
FILE: 19 - Mark Sherry & Paul Denton - Hostel (2nd Phase Remix).flac
  Size: 24154386 Hash: CBFA3F6EAC830776B244C3D053C4AC5D Accuracy: -m0
  Conclusion: CDDA 76%
  Signature: 2860948414D9D3FFCECEB9AD0087271321A0188F
FILE: 18 - 2nd Phase - Agenda 21.flac
  Size: 26758646 Hash: E82A9ED1E95CAB18B6142DAF700DA9D6 Accuracy: -m0
  Conclusion: CDDA 92%
  Signature: A416BD60FEF6376AA7C3DE2A5C9DEF978D14D0C2
FILE: 17 - Mark Sherry & Gene Karz - Spacewarp (Dave The Drummer Remix).flac
  Size: 25780439 Hash: 07DC932F20F123D733AEE914E064134C Accuracy: -m0
  Conclusion: CDDA 100%
  Signature: B4ACE7BE8243A812942B1363363F9FDB11459E09
FILE: 16 - Bryan Kearney & Will Atkinson - The Game Changer.flac
  Size: 43555209 Hash: 6D5FEA7484DE917307A7F4055B17C96F Accuracy: -m0
  Conclusion: CDDA 43%
  Signature: 129FF0267975B2555C1D9D8D650B859C75AB676F
FILE: 15 - Project 8 - Injector.flac
  Size: 22772043 Hash: 8D48B8423E95A9F281151B8B3A667612 Accuracy: -m0
  Conclusion: MPEG 92%
  Signature: 9E6B0B6D23DA77E79BE82E20579D6E08F1058AD4
FILE: 14 - Heatbeat - Aerys (Mark Sherry Remix).flac
  Size: 41560684 Hash: 9580DE6C0E186170C8721A7DFB1BC397 Accuracy: -m0
  Conclusion: CDDA 62%
  Signature: 1828DCFF895A88BC5A95B90B1647C26817999C13
FILE: 13 - Nick Grater - My Rendition (Sean Tyas Rework).flac
  Size: 18339662 Hash: 825E365102853E7574433CF3169FE39D Accuracy: -m0
  Conclusion: CDDA 100%
  Signature: C4F94649D6B966005E10F10B75A3C2A8B48CBF8C
FILE: 12 - Sunscreem - Please Save Me (James Dymond Remix).flac
  Size: 26901919 Hash: 72636071C670F17A8966F34BECB79A81 Accuracy: -m0
  Conclusion: MPEG 93%
  Signature: F95CADBEBC41E1AB3610DE3D4C72F8954337DFBD
FILE: 11 - Ikorus - Twitch.flac
  Size: 24524052 Hash: 3A515E98108E34E1D40E0C47D3F075C7 Accuracy: -m0
  Conclusion: CDDA 100%
  Signature: 7109D4CD5BA61B40DD269E2EDE3C1A81587674B9
FILE: 10 - ReOrder - Singularity.flac
  Size: 19357684 Hash: 4AEBFDB29953CB393A9829D89D5C6290 Accuracy: -m0
  Conclusion: CDDA 85%
  Signature: 5CFB23E6D1E7905D934D47156AE8C0F272B09575
FILE: 09 - Mark Sherry meets Space Frog & Derb - Follow Me (Psyburst Mix).flac
  Size: 27850281 Hash: 24D33BE1ED3CA7FB5FD0F8165C8B3ECE Accuracy: -m0
  Conclusion: CDDA 43%
  Signature: 7B1E83673611998F10A21FFB5E1E952B0941E1C2
FILE: 08 - Adam Ellis - Mr. Mayhem.flac
  Size: 25846984 Hash: 576F3D0C9DCC9B620CD7A40759272247 Accuracy: -m0
  Conclusion: CDDA 85%
  Signature: 8040F5EFA6563215A6B8BC930B21D1C3FC277B51
FILE: 07 - Mark Sherry - Gravitational Waves.flac
  Size: 42641809 Hash: 0723A75F6969C99FAFCE9AB4BFF1EFBC Accuracy: -m0
  Conclusion: CDDA 43%
  Signature: 9EF49DEC60E705D19C163FA0DBFB8A58969D8C99
FILE: 06 - Tempo Giusto & Ima'gin - Pachinko.flac
  Size: 24942824 Hash: 8A0CCED33B5ABC7D16B4385B5037D57C Accuracy: -m0
  Conclusion: CDDA 54%
  Signature: CC6C80992F69CCCFCA5A192FD5C485CC88E85164
FILE: 05 - Joseph Mara - Shock.flac
  Size: 29412644 Hash: 579065D4CC2C9B2045B5104322DD4E6E Accuracy: -m0
  Conclusion: CDDA 100%
  Signature: 3943869530972FCEEF39C76FFC9FC31C865A0D34
FILE: 04 - Mallorca Lee & Stephen Kirkwood - 2029.flac
  Size: 31374964 Hash: 64B5AB8B4E1D07506778E1230DCD1E29 Accuracy: -m0
  Conclusion: CDDA 100%
  Signature: B94C73A6743385C6B7EC31396B7287E9DE59ED64
FILE: 03 - Solarstone - Lost Hearts (Mark Sherry Remix).flac
  Size: 39984451 Hash: 3816B8C16E751A0D5DB563F126CC6B5A Accuracy: -m0
  Conclusion: MPEG 90%
  Signature: 47941C970343F73DEECE23D2F1ED1C5EC78AC335
FILE: 02 - Mark Sherry & Dark Fusion feat. Jan Johnston - Deja vu (Outburst Vocal Mix).flac
  Size: 36511013 Hash: E2DD5AC7762058E4603B2E7D4D098874 Accuracy: -m0
  Conclusion: MPEG 89%
  Signature: F6B18D3121B628D30674A5B39A5DDB2757AA7ACF
FILE: 01 - Mauro Picotto - Eterea (Mark Sherry Remix).flac
  Size: 51733632 Hash: 6932582DC0F9C52237FD2ADDEB7A118E Accuracy: -m0
  Conclusion: CDDA 92%
  Signature: 3FEC03AA8291B08C37554309906F7671C276569C



Трек лист:
01. Alex Di Stefano - No Pain No Gain (Alex Karakasis Remix) (3:10)
02. Chicago Loop - Use Me (3:45)
03. David Forbes - Lap Of The Gods (2:25)
04. Hell Driver - Jotunheim (2:25)
05. Angry Man - The Last Of Us (Denzo Remix) (2:51)
06. David Forbes - Jetpack (2:40)
07. Alex Di Stefano - I've Got The Power (3:24)
08. Max Graham - Amnesia (Alex Di Stefano Remix) (4:22)
09. Alex Di Stefano - Escape From The Past (3:20)
10. Alex Di Stefano - From Heaven To Inferno (4:59)
11. Cosmic Gate - So Get Up (Alex Di Stefano Extended Remix) (4:34)
12. Joint Operations Centre - Plexatron (4:33)
13. Lostly - Coffin Corner (6:17)
14. Sean Tyas - Unleash (Alex Di Stefano Remix) (3:29)
15. Jamie Walker - Riot (1:51)
16. Paul Thomas & Shadow Of Two - Dynamo (Maarten de Jong Remix) (3:32)
17. Will Atkinson - Subconscious (4:10)
18. Project 8 - Audiological Warfare (4:38)
19. Photographer - Atlas (3:25)
20. Ferry Corsten - Beautiful (Aly & Fila Remix) (3:36)
21. Sean Mathews - Our Empire (4:45)

Продолжительность: 01:18:01
Код: выделить все

Exact Audio Copy V1.0 beta 4 from 7. December 2014

EAC extraction logfile from 12. August 2016, 20:59

Various Artists / Outburst Records Presents Prism Vol.1 Mixed By Mark Sherry & Alex Di Stefano CD2

Used drive  : PIONEER DVD-RW DVRTD11RS   Adapter: 1  ID: 0

Read mode               : Secure
Utilize accurate stream : Yes
Defeat audio cache      : Yes
Make use of C2 pointers : No

Read offset correction                      : 6
Overread into Lead-In and Lead-Out          : No
Fill up missing offset samples with silence : Yes
Delete leading and trailing silent blocks   : No
Null samples used in CRC calculations       : Yes
Used interface                              : Native Win32 interface for Win NT & 2000
Gap handling                                : Appended to previous track

Used output format              : User Defined Encoder
Selected bitrate                : 1024 kBit/s
Quality                         : High
Add ID3 tag                     : No
Command line compressor         : C:\Program Files (x86)\Exact Audio Copy\Flac\flac.exe
Additional command line options : -8 -V -T "ARTIST=%artist%" -T "TITLE=%title%" -T "ALBUM=%albumtitle%" -T "DATE=%year%" -T "TRACKNUMBER=%tracknr%" -T "TOTALTRACKS=%numtracks%" -T "GENRE=%genre%" -T "ALBUMARTIST=%albumartist%" -T "ALBUM ARTIST=%albumartist%" -T "COMMENT=EAC Secure Mode, Test & Copy, AccurateRip, FLAC -8" %source%

TOC of the extracted CD

     Track |   Start  |  Length  | Start sector | End sector
    ---------------------------------------------------------
        1  |  0:00.00 |  3:09.47 |         0    |    14221
        2  |  3:09.47 |  3:45.35 |     14222    |    31131
        3  |  6:55.07 |  2:25.34 |     31132    |    42040
        4  |  9:20.41 |  2:25.34 |     42041    |    52949
        5  | 11:46.00 |  2:50.67 |     52950    |    65766
        6  | 14:36.67 |  2:40.02 |     65767    |    77768
        7  | 17:16.69 |  3:23.47 |     77769    |    93040
        8  | 20:40.41 |  4:21.61 |     93041    |   112676
        9  | 25:02.27 |  3:19.58 |    112677    |   127659
       10  | 28:22.10 |  4:58.51 |    127660    |   150060
       11  | 33:20.61 |  4:33.59 |    150061    |   170594
       12  | 37:54.45 |  4:33.15 |    170595    |   191084
       13  | 42:27.60 |  6:17.29 |    191085    |   219388
       14  | 48:45.14 |  3:28.53 |    219389    |   235041
       15  | 52:13.67 |  1:51.24 |    235042    |   243390
       16  | 54:05.16 |  3:32.13 |    243391    |   259303
       17  | 57:37.29 |  4:10.33 |    259304    |   278086
       18  | 61:47.62 |  4:38.19 |    278087    |   298955
       19  | 66:26.06 |  3:25.16 |    298956    |   314346
       20  | 69:51.22 |  3:35.49 |    314347    |   330520
       21  | 73:26.71 |  4:44.47 |    330521    |   351867

Track  1

     Filename I:\EAC\Various Artists - Outburst Records Presents Prism Vol.1 Mixed By Mark Sherry & Alex Di Stefano (2016) [FLAC] {2CD}\CD2\01 - Alex Di Stefano - No Pain No Gain (Alex Karakasis Remix).wav

     Pre-gap length  0:00:02.00

     Peak level 99.5 %
     Extraction speed 2.9 X
     Track quality 100.0 %
     Test CRC 39BC8C09
     Copy CRC 39BC8C09
     Track not present in AccurateRip database
     Copy OK

Track  2

     Filename I:\EAC\Various Artists - Outburst Records Presents Prism Vol.1 Mixed By Mark Sherry & Alex Di Stefano (2016) [FLAC] {2CD}\CD2\02 - Chicago Loop - Use Me.wav

     Peak level 99.3 %
     Extraction speed 3.2 X
     Track quality 100.0 %
     Test CRC 117B8726
     Copy CRC 117B8726
     Track not present in AccurateRip database
     Copy OK

Track  3

     Filename I:\EAC\Various Artists - Outburst Records Presents Prism Vol.1 Mixed By Mark Sherry & Alex Di Stefano (2016) [FLAC] {2CD}\CD2\03 - David Forbes - Lap Of The Gods.wav

     Peak level 99.1 %
     Extraction speed 3.1 X
     Track quality 100.0 %
     Test CRC DF669D34
     Copy CRC DF669D34
     Track not present in AccurateRip database
     Copy OK

Track  4

     Filename I:\EAC\Various Artists - Outburst Records Presents Prism Vol.1 Mixed By Mark Sherry & Alex Di Stefano (2016) [FLAC] {2CD}\CD2\04 - Hell Driver - Jotunheim.wav

     Peak level 99.1 %
     Extraction speed 3.3 X
     Track quality 100.0 %
     Test CRC F5F5298F
     Copy CRC F5F5298F
     Track not present in AccurateRip database
     Copy OK

Track  5

     Filename I:\EAC\Various Artists - Outburst Records Presents Prism Vol.1 Mixed By Mark Sherry & Alex Di Stefano (2016) [FLAC] {2CD}\CD2\05 - Angry Man - The Last Of Us (Denzo Remix).wav

     Peak level 99.0 %
     Extraction speed 3.5 X
     Track quality 100.0 %
     Test CRC ADC5CCE8
     Copy CRC ADC5CCE8
     Track not present in AccurateRip database
     Copy OK

Track  6

     Filename I:\EAC\Various Artists - Outburst Records Presents Prism Vol.1 Mixed By Mark Sherry & Alex Di Stefano (2016) [FLAC] {2CD}\CD2\06 - David Forbes - Jetpack.wav

     Peak level 99.1 %
     Extraction speed 2.8 X
     Track quality 99.9 %
     Test CRC 65DD2818
     Copy CRC 65DD2818
     Track not present in AccurateRip database
     Copy OK

Track  7

     Filename I:\EAC\Various Artists - Outburst Records Presents Prism Vol.1 Mixed By Mark Sherry & Alex Di Stefano (2016) [FLAC] {2CD}\CD2\07 - Alex Di Stefano - I've Got The Power.wav

     Peak level 99.1 %
     Extraction speed 3.9 X
     Track quality 100.0 %
     Test CRC 51442CA0
     Copy CRC 51442CA0
     Track not present in AccurateRip database
     Copy OK

Track  8

     Filename I:\EAC\Various Artists - Outburst Records Presents Prism Vol.1 Mixed By Mark Sherry & Alex Di Stefano (2016) [FLAC] {2CD}\CD2\08 - Max Graham - Amnesia (Alex Di Stefano Remix).wav

     Peak level 99.2 %
     Extraction speed 4.2 X
     Track quality 100.0 %
     Test CRC 27EAC160
     Copy CRC 27EAC160
     Track not present in AccurateRip database
     Copy OK

Track  9

     Filename I:\EAC\Various Artists - Outburst Records Presents Prism Vol.1 Mixed By Mark Sherry & Alex Di Stefano (2016) [FLAC] {2CD}\CD2\09 - Alex Di Stefano - Escape From The Past.wav

     Peak level 99.0 %
     Extraction speed 4.2 X
     Track quality 100.0 %
     Test CRC 52FBB203
     Copy CRC 52FBB203
     Track not present in AccurateRip database
     Copy OK

Track 10

     Filename I:\EAC\Various Artists - Outburst Records Presents Prism Vol.1 Mixed By Mark Sherry & Alex Di Stefano (2016) [FLAC] {2CD}\CD2\10 - Alex Di Stefano - From Heaven To Inferno.wav

     Peak level 99.3 %
     Extraction speed 4.7 X
     Track quality 100.0 %
     Test CRC 02338835
     Copy CRC 02338835
     Track not present in AccurateRip database
     Copy OK

Track 11

     Filename I:\EAC\Various Artists - Outburst Records Presents Prism Vol.1 Mixed By Mark Sherry & Alex Di Stefano (2016) [FLAC] {2CD}\CD2\11 - Cosmic Gate - So Get Up (Alex Di Stefano Extended Remix).wav

     Peak level 99.6 %
     Extraction speed 4.8 X
     Track quality 100.0 %
     Test CRC 56E4E961
     Copy CRC 56E4E961
     Track not present in AccurateRip database
     Copy OK

Track 12

     Filename I:\EAC\Various Artists - Outburst Records Presents Prism Vol.1 Mixed By Mark Sherry & Alex Di Stefano (2016) [FLAC] {2CD}\CD2\12 - Joint Operations Centre - Plexatron.wav

     Peak level 99.2 %
     Extraction speed 4.3 X
     Track quality 99.9 %
     Test CRC DD1D06BE
     Copy CRC DD1D06BE
     Track not present in AccurateRip database
     Copy OK

Track 13

     Filename I:\EAC\Various Artists - Outburst Records Presents Prism Vol.1 Mixed By Mark Sherry & Alex Di Stefano (2016) [FLAC] {2CD}\CD2\13 - Lostly - Coffin Corner.wav

     Peak level 99.4 %
     Extraction speed 5.4 X
     Track quality 100.0 %
     Test CRC 444E0A5D
     Copy CRC 444E0A5D
     Track not present in AccurateRip database
     Copy OK

Track 14

     Filename I:\EAC\Various Artists - Outburst Records Presents Prism Vol.1 Mixed By Mark Sherry & Alex Di Stefano (2016) [FLAC] {2CD}\CD2\14 - Sean Tyas - Unleash (Alex Di Stefano Remix).wav

     Peak level 99.3 %
     Extraction speed 5.2 X
     Track quality 100.0 %
     Test CRC B39B62B9
     Copy CRC B39B62B9
     Track not present in AccurateRip database
     Copy OK

Track 15

     Filename I:\EAC\Various Artists - Outburst Records Presents Prism Vol.1 Mixed By Mark Sherry & Alex Di Stefano (2016) [FLAC] {2CD}\CD2\15 - Jamie Walker - Riot.wav

     Peak level 99.2 %
     Extraction speed 4.7 X
     Track quality 100.0 %
     Test CRC 51546393
     Copy CRC 51546393
     Track not present in AccurateRip database
     Copy OK

Track 16

     Filename I:\EAC\Various Artists - Outburst Records Presents Prism Vol.1 Mixed By Mark Sherry & Alex Di Stefano (2016) [FLAC] {2CD}\CD2\16 - Paul Thomas & Shadow Of Two - Dynamo (Maarten de Jong Remix).wav

     Peak level 99.4 %
     Extraction speed 4.4 X
     Track quality 99.9 %
     Test CRC 749A4591
     Copy CRC 749A4591
     Track not present in AccurateRip database
     Copy OK

Track 17

     Filename I:\EAC\Various Artists - Outburst Records Presents Prism Vol.1 Mixed By Mark Sherry & Alex Di Stefano (2016) [FLAC] {2CD}\CD2\17 - Will Atkinson - Subconscious.wav

     Peak level 99.5 %
     Extraction speed 5.7 X
     Track quality 100.0 %
     Test CRC 657BA8E3
     Copy CRC 657BA8E3
     Track not present in AccurateRip database
     Copy OK

Track 18

     Filename I:\EAC\Various Artists - Outburst Records Presents Prism Vol.1 Mixed By Mark Sherry & Alex Di Stefano (2016) [FLAC] {2CD}\CD2\18 - Project 8 - Audiological Warfare.wav

     Peak level 99.2 %
     Extraction speed 5.9 X
     Track quality 100.0 %
     Test CRC 09F5D69B
     Copy CRC 09F5D69B
     Track not present in AccurateRip database
     Copy OK

Track 19

     Filename I:\EAC\Various Artists - Outburst Records Presents Prism Vol.1 Mixed By Mark Sherry & Alex Di Stefano (2016) [FLAC] {2CD}\CD2\19 - Photographer - Atlas.wav

     Peak level 99.9 %
     Extraction speed 5.8 X
     Track quality 100.0 %
     Test CRC B5464F0C
     Copy CRC B5464F0C
     Track not present in AccurateRip database
     Copy OK

Track 20

     Filename I:\EAC\Various Artists - Outburst Records Presents Prism Vol.1 Mixed By Mark Sherry & Alex Di Stefano (2016) [FLAC] {2CD}\CD2\20 - Ferry Corsten - Beautiful (Aly & Fila Remix).wav

     Peak level 99.5 %
     Extraction speed 5.9 X
     Track quality 100.0 %
     Test CRC 713DEFFA
     Copy CRC 713DEFFA
     Track not present in AccurateRip database
     Copy OK

Track 21

     Filename I:\EAC\Various Artists - Outburst Records Presents Prism Vol.1 Mixed By Mark Sherry & Alex Di Stefano (2016) [FLAC] {2CD}\CD2\21 - Sean Mathews - Our Empire.wav

     Peak level 99.4 %
     Extraction speed 6.3 X
     Track quality 100.0 %
     Test CRC 757EA2AB
     Copy CRC 757EA2AB
     Track not present in AccurateRip database
     Copy OK

None of the tracks are present in the AccurateRip database

No errors occurred

End of status report

---- CUETools DB Plugin V2.1.4

[CTDB TOCID: _it5dgzQ2VXDjS0hpVR_92pL6BE-] disk not present in database
Submit result: _it5dgzQ2VXDjS0hpVR_92pL6BE- has been uploaded

==== Log checksum 6494F1C026BF55476B8C7B41EC9EF078CB2922BB328130CE6B9213BF35B65F9C ====

Код: выделить все

-----------------------

DON'T MODIFY THIS FILE

-----------------------

PERFORMER: auCDtect Task Manager, ver. 1.6.0 RC1 build 1.6.0.1
Copyright (c) 2008-2010 y-soft. All rights reserved
http://y-soft.org

ANALYZER: auCDtect: CD records authenticity detector, version 0.8.2
Copyright (c) 2004 Oleg Berngardt. All rights reserved.
Copyright (c) 2004 Alexander Djourik. All rights reserved.

FILE: 21 - Sean Mathews - Our Empire.flac
  Size: 37840879 Hash: 7663FA5B0CE7381561EA54CF6CE5E259 Accuracy: -m0
  Conclusion: CDDA 100%
  Signature: 12931B603E3E3D5DFCFD4CE41C6CAA857B29CE7A
FILE: 20 - Ferry Corsten - Beautiful (Aly & Fila Remix).flac
  Size: 29724847 Hash: 3B9095D3DF991EF610C8B79D09216D6D Accuracy: -m0
  Conclusion: CDDA 100%
  Signature: 9382A4C4E4C27891A71A2A41A862001EBA600C64
FILE: 19 - Photographer - Atlas.flac
  Size: 28737312 Hash: D18E121F19DBFEC913BC168080E35B7B Accuracy: -m0
  Conclusion: CDDA 100%
  Signature: DBB3CD7FDCFD3D6BEFDBB22DC8E9A38DDD5F3449
FILE: 18 - Project 8 - Audiological Warfare.flac
  Size: 37903674 Hash: 8E2A336A6A4BFF2AC7FC3119CBB6D442 Accuracy: -m0
  Conclusion: CDDA 100%
  Signature: A55D3FEDF487F9275701B6071D365841CE443183
FILE: 17 - Will Atkinson - Subconscious.flac
  Size: 36306430 Hash: B4F7016B4D4D1B7EF6F304B4B9667D8A Accuracy: -m0
  Conclusion: CDDA 100%
  Signature: B5FCAB27667A3F439BFA8277CDD9716EA1AC7B11
FILE: 16 - Paul Thomas & Shadow Of Two - Dynamo (Maarten de Jong Remix).flac
  Size: 30265664 Hash: 0D92B564D93BC8AFFA1917FFDC91AA61 Accuracy: -m0
  Conclusion: CDDA 100%
  Signature: B89071B8654F7B15FCC47F280F41652488D4E85F
FILE: 15 - Jamie Walker - Riot.flac
  Size: 15657269 Hash: 339FA366603E36D63C5C1047FB88CE7A Accuracy: -m0
  Conclusion: CDDA 100%
  Signature: 88B353B4393A06BC55CD7703E8C3B78C2AF28D9A
FILE: 14 - Sean Tyas - Unleash (Alex Di Stefano Remix).flac
  Size: 27585919 Hash: C2C8D0665ED068F48BA33B4E293A99A5 Accuracy: -m0
  Conclusion: CDDA 99%
  Signature: 9D59A4998795AD2C5557E1ADBC58C79DF144B221
FILE: 13 - Lostly - Coffin Corner.flac
  Size: 54095881 Hash: DFBEC6D63F70FA187CBBEFD0FBD1DF3C Accuracy: -m0
  Conclusion: CDDA 99%
  Signature: 372B066455D15DB054C23EE93D23A110EAC5281F
FILE: 12 - Joint Operations Centre - Plexatron.flac
  Size: 36049088 Hash: E1E49F8A99447DB697FFC83330CE6398 Accuracy: -m0
  Conclusion: CDDA 100%
  Signature: 73831814ED8CED5AE56AE18AFA31D56EE896F5FA
FILE: 11 - Cosmic Gate - So Get Up (Alex Di Stefano Extended Remix).flac
  Size: 37866905 Hash: D949B9551965E97FF0536954C7A0F952 Accuracy: -m0
  Conclusion: CDDA 100%
  Signature: 1C30434F4643949BFB1D44AC59C6E2CB14B2B392
FILE: 10 - Alex Di Stefano - From Heaven To Inferno.flac
  Size: 41153532 Hash: 2BA85C3819C8FD5B7C38818DF5FB2620 Accuracy: -m0
  Conclusion: CDDA 100%
  Signature: FD7F3B5E8794C32E72A4BE76F5E4A444069337D3
FILE: 09 - Alex Di Stefano - Escape From The Past.flac
  Size: 27000042 Hash: B87381178BCA8E3B7F9EAFFA7817DB35 Accuracy: -m0
  Conclusion: CDDA 100%
  Signature: 719931AD526B5D192FA6A4B78D9265B9277485FF
FILE: 08 - Max Graham - Amnesia (Alex Di Stefano Remix).flac
  Size: 34521962 Hash: 3FE8658693CBA4B4F5775E8060110943 Accuracy: -m0
  Conclusion: CDDA 100%
  Signature: 517BF2756EB139BCC2E219F7BC4D32F616EB675F
FILE: 07 - Alex Di Stefano - I've Got The Power.flac
  Size: 27156815 Hash: C4B4AF8F830002A068F93817129C4C55 Accuracy: -m0
  Conclusion: CDDA 100%
  Signature: A36A049707B693B85E7BF0CC4D8CBC5DE0A56EF6
FILE: 06 - David Forbes - Jetpack.flac
  Size: 21282488 Hash: 1274EE8C17824C729E7CC9DC51A4EF90 Accuracy: -m0
  Conclusion: CDDA 100%
  Signature: 46EDC5959944C6436FD1946C8F09090904FD7335
FILE: 05 - Angry Man - The Last Of Us (Denzo Remix).flac
  Size: 22555702 Hash: 3C7E3C01F5D14576C5D995B658CAA961 Accuracy: -m0
  Conclusion: CDDA 100%
  Signature: 55EE82DA0FC7F31073B3E01D082A5D829CB91E3F
FILE: 04 - Hell Driver - Jotunheim.flac
  Size: 18896391 Hash: 12BE4F0753F4696953C5D8C62DE69B8F Accuracy: -m0
  Conclusion: CDDA 100%
  Signature: F75CB794D8700831B414E5D84A5BBF176D93D3AD
FILE: 03 - David Forbes - Lap Of The Gods.flac
  Size: 19905064 Hash: 46F8556342465273B1C803884BDF12E9 Accuracy: -m0
  Conclusion: CDDA 99%
  Signature: 23CDB1B4D03ADE453856DA69EFB366BD3BFDC5B0
FILE: 02 - Chicago Loop - Use Me.flac
  Size: 29420726 Hash: 77B4E97CFCD72B62ED853925D0C07728 Accuracy: -m0
  Conclusion: CDDA 100%
  Signature: 95E01810104851819704BF2F1F13246DB6C56652
FILE: 01 - Alex Di Stefano - No Pain No Gain (Alex Karakasis Remix).flac
  Size: 24122748 Hash: F35331F5C8CAD6D6224753B802E8C466 Accuracy: -m0
  Conclusion: CDDA 100%
  Signature: 59FD38511EE26D883247810251405B8919BFD9DD

Время раздачи: 24/7
[NNMClub.to]_VA - Outburst Records pres. Prism Vol. 1 (Mixed by Mark Sherry & Alex Di Stefano) (2016) 2CD.torrent
 Торрент:   Зарегистрирован
 
Примагнититься
Free Leech
Зарегистрируйтесь и скачайте торрент!
17,4 KB
 Зарегистрирован:   10 Окт 2016 06:21:42
 Размер:   1,22 GB  (
 Рейтинг:    (Голосов: 7)
 Поблагодарили:   26
 Проверка:   Оформление проверено модератором 10 Окт 2016 06:23:27
Как cкачать  ·  Как раздать  ·  Правильно оформить  ·  Поднять ратио!  
Показать сообщения:   
Начать новую тему   Ответить на тему    Торрент-трекер NNM-Club -> Electronic -> Trance (Lossless) Часовой пояс: GMT + 3
Страница 1 из 1