Интеллигентный торрент-трекер
canvas not supported
Нас вместе: 4 100 727

VA - Armada Chill 2016 (2016) [FLAC|Lossless|tracks+.cue] <Lounge, Chillout, Downtempo>


 
 
RSS
Начать новую тему   Ответить на тему    Торрент-трекер NNM-Club -> Electronic -> Easy listening (Lossless)
Автор Сообщение
Lazyra ®
Модератор Electronic
RG Музыки
 
Стаж: 5 лет 9 мес.
Сообщений: 4306
Ratio: 1546,402
Раздал: 49,52 TB
Поблагодарили: 88067
100%
Откуда: Владимир
russia.gif
VA - Armada Chill 2016 (2016)



Год: 2016
Жанр: Lounge, Chillout, Downtempo
Продолжительность: 02:31:46
Лейбл: Sony Music Poland
Каталог №: 88985336122
Сканы: Комплект
Тип рипа: tracks+.cue
Кодек: FLAC
Битрейт: Lossless

Треклист:


Треклист:
01. Robin Schulz & J.U.D.G.E. - Show Me Love (Acoustic Version) (4:11)
02. Boom Jinx & Ashley Tomberlin - Secrets (3:55)
03. Chinah - Colder (3:23)
04. Aly & Fila - Rosaires (Chill Out Mix) (3:47)
05. Hrrsn - Hi Bob (3:34)
06. Shakes Seven - Grandfathers Night (4:40)
07. Pablo Nouvelle feat. Kylan Road - Ice (2:57)
08. Jaco - Uncertainty (Lukas Termena's Balearic Remix) (4:22)
09. The Boom Circuits - Needed For The First Time (3:43)
10. Dash Berlin feat. Secede & Sarah Howells - Believe In You (4:30)
11. Fast Distance - Alpine (Lukas Termena's Balearic Remix) (4:31)
12. Quinten 909 & Mike McFly feat. Tom Hammond - The End (2:54)
13. Martin Eyerer & Ackermann feat. Knixx - How Can I Be Down Now (Misharev Remix) (3:22)
14. Fabrikate - Atari (3:34)
15. Sebastian Davidson - Should Love You (3:43)
16. 16 Bit Lolitas - Fat Fly (Kreature Remix) (3:26)
17. Twax feat. Solomina - Tom's Diner (3:05)
18. KRONO feat. Belle - We Are So Animal (2:49)
19. Chicane - Ibiza Strings (Solarstone Ambient Mix) (5:55)
20. Arnej feat. Josie - Strangers We've Become (Acoustic Mix) (3:31)

Продолжительность: 01:15:52
Код: выделить все

Exact Audio Copy V1.0 beta 4 from 7. December 2014

EAC extraction logfile from 10. July 2016, 8:57

Various Artists / Armada Chill

Used drive  : PIONEER DVD-RW DVRTD11RS   Adapter: 1  ID: 0

Read mode               : Secure
Utilize accurate stream : Yes
Defeat audio cache      : Yes
Make use of C2 pointers : No

Read offset correction                      : 6
Overread into Lead-In and Lead-Out          : No
Fill up missing offset samples with silence : Yes
Delete leading and trailing silent blocks   : No
Null samples used in CRC calculations       : Yes
Used interface                              : Native Win32 interface for Win NT & 2000
Gap handling                                : Appended to previous track

Used output format              : User Defined Encoder
Selected bitrate                : 1024 kBit/s
Quality                         : High
Add ID3 tag                     : No
Command line compressor         : C:\Program Files (x86)\Exact Audio Copy\Flac\flac.exe
Additional command line options : -8 -V -T "ARTIST=%artist%" -T "TITLE=%title%" -T "ALBUM=%albumtitle%" -T "DATE=%year%" -T "TRACKNUMBER=%tracknr%" -T "TOTALTRACKS=%numtracks%" -T "GENRE=%genre%" -T "ALBUMARTIST=%albumartist%" -T "ALBUM ARTIST=%albumartist%" -T "COMMENT=EAC Secure Mode, Test & Copy, AccurateRip, FLAC -8" %source%

TOC of the extracted CD

     Track |   Start  |  Length  | Start sector | End sector
    ---------------------------------------------------------
        1  |  0:00.00 |  4:11.07 |         0    |    18831
        2  |  4:11.07 |  3:55.72 |     18832    |    36528
        3  |  8:07.04 |  3:23.23 |     36529    |    51776
        4  | 11:30.27 |  3:47.42 |     51777    |    68843
        5  | 15:17.69 |  3:34.09 |     68844    |    84902
        6  | 18:52.03 |  4:40.02 |     84903    |   105904
        7  | 23:32.05 |  2:57.08 |    105905    |   119187
        8  | 26:29.13 |  4:22.63 |    119188    |   138900
        9  | 30:52.01 |  3:43.67 |    138901    |   155692
       10  | 34:35.68 |  4:30.54 |    155693    |   175996
       11  | 39:06.47 |  4:31.42 |    175997    |   196363
       12  | 43:38.14 |  2:54.20 |    196364    |   209433
       13  | 46:32.34 |  3:22.66 |    209434    |   224649
       14  | 49:55.25 |  3:34.51 |    224650    |   240750
       15  | 53:30.01 |  3:43.01 |    240751    |   257476
       16  | 57:13.02 |  3:26.49 |    257477    |   272975
       17  | 60:39.51 |  3:05.55 |    272976    |   286905
       18  | 63:45.31 |  2:49.22 |    286906    |   299602
       19  | 66:34.53 |  5:55.57 |    299603    |   326284
       20  | 72:30.35 |  3:31.62 |    326285    |   342171

Track  1

     Filename I:\EAC\Various Artists - Armada Chill (2016) [FLAC]\CD1\01 - Robin Schulz & J.U.D.G.E. - Show Me Love (Acoustic Version).wav

     Pre-gap length  0:00:02.00

     Peak level 98.9 %
     Extraction speed 3.1 X
     Track quality 100.0 %
     Test CRC 39442E70
     Copy CRC 39442E70
     Track not present in AccurateRip database
     Copy OK

Track  2

     Filename I:\EAC\Various Artists - Armada Chill (2016) [FLAC]\CD1\02 - Boom Jinx & Ashley Tomberlin - Secrets.wav

     Peak level 99.7 %
     Extraction speed 3.3 X
     Track quality 100.0 %
     Test CRC 840D646F
     Copy CRC 840D646F
     Track not present in AccurateRip database
     Copy OK

Track  3

     Filename I:\EAC\Various Artists - Armada Chill (2016) [FLAC]\CD1\03 - Chinah - Colder.wav

     Peak level 99.8 %
     Extraction speed 3.5 X
     Track quality 100.0 %
     Test CRC E08E22BE
     Copy CRC E08E22BE
     Track not present in AccurateRip database
     Copy OK

Track  4

     Filename I:\EAC\Various Artists - Armada Chill (2016) [FLAC]\CD1\04 - Aly & Fila - Rosaires (Chill Out Mix).wav

     Peak level 97.7 %
     Extraction speed 3.8 X
     Track quality 100.0 %
     Test CRC 891F30E2
     Copy CRC 891F30E2
     Track not present in AccurateRip database
     Copy OK

Track  5

     Filename I:\EAC\Various Artists - Armada Chill (2016) [FLAC]\CD1\05 - Hrrsn - Hi Bob.wav

     Peak level 99.8 %
     Extraction speed 3.2 X
     Track quality 99.9 %
     Test CRC A0970ADC
     Copy CRC A0970ADC
     Track not present in AccurateRip database
     Copy OK

Track  6

     Filename I:\EAC\Various Artists - Armada Chill (2016) [FLAC]\CD1\06 - Shakes Seven - Grandfathers Night.wav

     Peak level 98.8 %
     Extraction speed 4.3 X
     Track quality 100.0 %
     Test CRC 8AF673EF
     Copy CRC 8AF673EF
     Track not present in AccurateRip database
     Copy OK

Track  7

     Filename I:\EAC\Various Artists - Armada Chill (2016) [FLAC]\CD1\07 - Pablo Nouvelle feat. Kylan Road - Ice.wav

     Peak level 94.3 %
     Extraction speed 4.2 X
     Track quality 100.0 %
     Test CRC 3FB8871E
     Copy CRC 3FB8871E
     Track not present in AccurateRip database
     Copy OK

Track  8

     Filename I:\EAC\Various Artists - Armada Chill (2016) [FLAC]\CD1\08 - Jaco - Uncertainty (Lukas Termena's Balearic Remix).wav

     Peak level 100.0 %
     Extraction speed 4.6 X
     Track quality 100.0 %
     Test CRC 6520B7DD
     Copy CRC 6520B7DD
     Track not present in AccurateRip database
     Copy OK

Track  9

     Filename I:\EAC\Various Artists - Armada Chill (2016) [FLAC]\CD1\09 - The Boom Circuits - Needed For The First Time.wav

     Peak level 99.9 %
     Extraction speed 4.7 X
     Track quality 100.0 %
     Test CRC 39A4FF85
     Copy CRC 39A4FF85
     Track not present in AccurateRip database
     Copy OK

Track 10

     Filename I:\EAC\Various Artists - Armada Chill (2016) [FLAC]\CD1\10 - Dash Berlin feat. Secede & Sarah Howells - Believe In You.wav

     Peak level 99.6 %
     Extraction speed 5.1 X
     Track quality 100.0 %
     Test CRC F5902C0C
     Copy CRC F5902C0C
     Track not present in AccurateRip database
     Copy OK

Track 11

     Filename I:\EAC\Various Artists - Armada Chill (2016) [FLAC]\CD1\11 - Fast Distance - Alpine (Lukas Termena's Balearic Remix).wav

     Peak level 99.9 %
     Extraction speed 4.5 X
     Track quality 99.9 %
     Test CRC A3EFB4E7
     Copy CRC A3EFB4E7
     Track not present in AccurateRip database
     Copy OK

Track 12

     Filename I:\EAC\Various Artists - Armada Chill (2016) [FLAC]\CD1\12 - Quinten 909 & Mike McFly feat. Tom Hammond - The End.wav

     Peak level 99.8 %
     Extraction speed 4.0 X
     Track quality 99.9 %
     Test CRC 5F0F2C16
     Copy CRC 5F0F2C16
     Track not present in AccurateRip database
     Copy OK

Track 13

     Filename I:\EAC\Various Artists - Armada Chill (2016) [FLAC]\CD1\13 - Martin Eyerer & Ackermann feat. Knixx - How Can I Be Down Now (Misharev Remix).wav

     Peak level 100.0 %
     Extraction speed 5.3 X
     Track quality 100.0 %
     Test CRC 544FC549
     Copy CRC 544FC549
     Track not present in AccurateRip database
     Copy OK

Track 14

     Filename I:\EAC\Various Artists - Armada Chill (2016) [FLAC]\CD1\14 - Fabrikate - Atari.wav

     Peak level 98.9 %
     Extraction speed 5.4 X
     Track quality 100.0 %
     Test CRC 660450C6
     Copy CRC 660450C6
     Track not present in AccurateRip database
     Copy OK

Track 15

     Filename I:\EAC\Various Artists - Armada Chill (2016) [FLAC]\CD1\15 - Sebastian Davidson - Should Love You.wav

     Peak level 96.2 %
     Extraction speed 5.6 X
     Track quality 100.0 %
     Test CRC 3486E6BF
     Copy CRC 3486E6BF
     Track not present in AccurateRip database
     Copy OK

Track 16

     Filename I:\EAC\Various Artists - Armada Chill (2016) [FLAC]\CD1\16 - 16 Bit Lolitas - Fat Fly (Kreature Remix).wav

     Peak level 100.0 %
     Extraction speed 5.7 X
     Track quality 100.0 %
     Test CRC 2A6C95CD
     Copy CRC 2A6C95CD
     Track not present in AccurateRip database
     Copy OK

Track 17

     Filename I:\EAC\Various Artists - Armada Chill (2016) [FLAC]\CD1\17 - Twax feat. Solomina - Tom's Diner.wav

     Peak level 98.8 %
     Extraction speed 5.7 X
     Track quality 100.0 %
     Test CRC 87F59F6E
     Copy CRC 87F59F6E
     Track not present in AccurateRip database
     Copy OK

Track 18

     Filename I:\EAC\Various Artists - Armada Chill (2016) [FLAC]\CD1\18 - KRONO feat. Belle - We Are So Animal.wav

     Peak level 100.0 %
     Extraction speed 4.5 X
     Track quality 99.9 %
     Test CRC 20F03A78
     Copy CRC 20F03A78
     Track not present in AccurateRip database
     Copy OK

Track 19

     Filename I:\EAC\Various Artists - Armada Chill (2016) [FLAC]\CD1\19 - Chicane - Ibiza Strings (Solarstone Ambient Mix).wav

     Peak level 98.6 %
     Extraction speed 6.4 X
     Track quality 100.0 %
     Test CRC D7272E55
     Copy CRC D7272E55
     Track not present in AccurateRip database
     Copy OK

Track 20

     Filename I:\EAC\Various Artists - Armada Chill (2016) [FLAC]\CD1\20 - Arnej feat. Josie - Strangers We've Become (Acoustic Mix).wav

     Peak level 100.0 %
     Extraction speed 5.1 X
     Track quality 99.9 %
     Test CRC 4AB66FD1
     Copy CRC 4AB66FD1
     Track not present in AccurateRip database
     Copy OK

None of the tracks are present in the AccurateRip database

No errors occurred

End of status report

---- CUETools DB Plugin V2.1.4

[CTDB TOCID: 7uQZzIHsFCu7u4ho.lSv4U59dcs-] disk not present in database
Submit result: 7uQZzIHsFCu7u4ho.lSv4U59dcs- has been uploaded

==== Log checksum 886918E2082B39998B526943B99E5D830AFD328D1155FBBFF29369D4FE27B71B ====

Код: выделить все

-----------------------

DON'T MODIFY THIS FILE

-----------------------

PERFORMER: auCDtect Task Manager, ver. 1.6.0 RC1 build 1.6.0.1
Copyright (c) 2008-2010 y-soft. All rights reserved
http://y-soft.org

ANALYZER: auCDtect: CD records authenticity detector, version 0.8.2
Copyright (c) 2004 Oleg Berngardt. All rights reserved.
Copyright (c) 2004 Alexander Djourik. All rights reserved.

FILE: 20 - Arnej feat. Josie - Strangers We've Become (Acoustic Mix).flac
  Size: 22222569 Hash: 5D217E4359D286F32D23D5336AA2F23A Accuracy: -m0
  Conclusion: CDDA 100%
  Signature: FDC9047285B59865D42E51415F9381E54F22A758
FILE: 19 - Chicane - Ibiza Strings (Solarstone Ambient Mix).flac
  Size: 38025949 Hash: 00453B54C3E8F7F4C0D4E16486FECE38 Accuracy: -m0
  Conclusion: CDDA 100%
  Signature: 7B861900FE72669DBE3AF2737538D93A2388AB7D
FILE: 18 - KRONO feat. Belle - We Are So Animal.flac
  Size: 19337019 Hash: 75B106E0EFA98B9267BA13797C7ABB2A Accuracy: -m0
  Conclusion: CDDA 100%
  Signature: 77BE638CBC14BCCB74FF4CC066564623154A6446
FILE: 17 - Twax feat. Solomina - Tom's Diner.flac
  Size: 23431270 Hash: FA7F4B3D20A71F97EE9FCDDA3AA18C35 Accuracy: -m0
  Conclusion: CDDA 100%
  Signature: 95F5B62508D009F201BAE162A2277C76F0CD1C20
FILE: 16 - 16 Bit Lolitas - Fat Fly (Kreature Remix).flac
  Size: 21596543 Hash: 9563C5DD7BC2B79B3DAB1FB3A7AEC188 Accuracy: -m0
  Conclusion: CDDA 100%
  Signature: 280EA4427CAF6F71CB0A6AA98BEDB45858D0B8EC
FILE: 15 - Sebastian Davidson - Should Love You.flac
  Size: 23636016 Hash: 89FD61CCBBBE7FEAC48CECDA2F684646 Accuracy: -m0
  Conclusion: CDDA 100%
  Signature: 0CE96365A1FB998D1F367A9A925954FB5AB889A2
FILE: 14 - Fabrikate - Atari.flac
  Size: 22784046 Hash: 6B610D807C880A345CAF8A5D58CFFA61 Accuracy: -m0
  Conclusion: CDDA 100%
  Signature: F2A4C32EAB576A39B2054A2F09FFAEC3F5A21FE0
FILE: 13 - Martin Eyerer & Ackermann feat. Knixx - How Can I Be Down Now (Misharev Remix).flac
  Size: 19542925 Hash: 72BF5ADC5CC7E5E7F68CC80D00D26C09 Accuracy: -m0
  Conclusion: MPEG 95%
  Signature: D590E922BBF58559E48ADF11DD0A2C95F225667A
FILE: 12 - Quinten 909 & Mike McFly feat. Tom Hammond - The End.flac
  Size: 20924242 Hash: 3802EDF9B8B807F23148F18FE9074494 Accuracy: -m0
  Conclusion: CDDA 100%
  Signature: D79DF39198344FECD2B0CC26CA7AE7291C448820
FILE: 11 - Fast Distance - Alpine (Lukas Termena's Balearic Remix).flac
  Size: 33033227 Hash: 50CA1AB111990EC797BBE27D815A20DA Accuracy: -m0
  Conclusion: CDDA 100%
  Signature: 7FEDCFFD623A2A6E2448C3B94C0A89737666D3AC
FILE: 10 - Dash Berlin feat. Secede & Sarah Howells - Believe In You.flac
  Size: 32489755 Hash: 567FEE64FFDCA222F764D35119DA44EA Accuracy: -m0
  Conclusion: CDDA 100%
  Signature: A157E872492C76F1CC48EDB4B2716ECBDC320985
FILE: 09 - The Boom Circuits - Needed For The First Time.flac
  Size: 25331372 Hash: C2B80290353218DE52E2D2F18DB15FFF Accuracy: -m0
  Conclusion: CDDA 100%
  Signature: 400815FCFB4339261CA48C6019DAC515DC89BE21
FILE: 08 - Jaco - Uncertainty (Lukas Termena's Balearic Remix).flac
  Size: 28167086 Hash: F313024866528F6F1DCBBD9517FD462D Accuracy: -m0
  Conclusion: CDDA 100%
  Signature: B37E85D9D561708EDFB2A0E2D44E35A0C1B372EB
FILE: 07 - Pablo Nouvelle feat. Kylan Road - Ice.flac
  Size: 17579647 Hash: 92690FF318F1F89DF6B97E82DCC6D410 Accuracy: -m0
  Conclusion: CDDA 100%
  Signature: 16D6EFC59E700009FA60D368418F0B5F1BC67A8C
FILE: 06 - Shakes Seven - Grandfathers Night.flac
  Size: 33938367 Hash: 0A98AB29CCEBCDBF69AA8F9AAB0FA05C Accuracy: -m0
  Conclusion: CDDA 100%
  Signature: 812A6972F34FD87DD42F420FDFD43567349B6404
FILE: 05 - Hrrsn - Hi Bob.flac
  Size: 24417420 Hash: 93FAA4536A8395E4A71E285B0F79C20F Accuracy: -m0
  Conclusion: CDDA 100%
  Signature: BCB1CC66127CF1D82C44318DC6A7C3247C4B473E
FILE: 04 - Aly & Fila - Rosaires (Chill Out Mix).flac
  Size: 24493939 Hash: 8BB952E50D5A29A811A3AFEAC3E9BF51 Accuracy: -m0
  Conclusion: CDDA 100%
  Signature: D9FBBE2C7E18A316A8FA26D8640233901B8ADEAF
FILE: 03 - Chinah - Colder.flac
  Size: 21258265 Hash: B4D1A66B25BEFB963DA848C78988323B Accuracy: -m0
  Conclusion: CDDA 100%
  Signature: 9FCAB29E01E605A204DDFE98D09C8AFDF83A5B5F
FILE: 02 - Boom Jinx & Ashley Tomberlin - Secrets.flac
  Size: 21826118 Hash: 961EC29795657EF54AEB2C4BB597F1CF Accuracy: -m0
  Conclusion: CDDA 100%
  Signature: 313F3C354EED1E0ECB66D37285966F376264EDDA
FILE: 01 - Robin Schulz & J.U.D.G.E. - Show Me Love (Acoustic Version).flac
  Size: 25151818 Hash: 84277F96A757E3F04E87A2FB8BF920EC Accuracy: -m0
  Conclusion: CDDA 100%
  Signature: C05FC5F3D9717174009A85DD98B96277EA4106E0



Трек лист:
01. Haywyre - Moment (3:12)
02. Leona Lewis - Private Party (Gregers Lounge Mix) (4:17)
03. Lucky Sun - Cycles (5:03)
04. Ianick feat. Per Kamfjord - See Through My Eyes (3:12)
05. Bjorn Akesson - Paper Dreams (Ambient Mix) (6:13)
06. Wild Royal Coast - It's All About Love (3:18)
07. Arty feat. Tania Zygar - The Wall (Acoustic Mix) (2:39)
08. Levi feat. Tom Villon - Hero (2:59)
09. Rodg - Perfect Night (3:25)
10. Neumodel feat. Sirius Trema - DiCaprio On Acid (3:14)
11. Dayate - Follow The Sunshine (3:40)
12. Ben Phipps feat. Ashe - Don't Look Back (4:10)
13. Funkstar De Luxe - Sun Is Shining (Pole Folder & Jose Maria Ramon Rework) (6:07)
14. Malecka - Last Night (Vocal Mix) (7:19)
15. Jan Blomqvist - Empty Floor (3:38)
16. Afro Medusa - Pasilda (Original 12 Westway Mix) (3:37)
17. Sebastien feat. Satellite Empire - Escape (3:34)
18. Silience feat. Joe Michel - Remember Me (3:20)
19. Blondee & Marc Werner feat. Fabienne Rothe - Wonderful Days (2:57)

Продолжительность: 01:15:54
Код: выделить все

xact Audio Copy V1.0 beta 4 from 7. December 2014

EAC extraction logfile from 10. July 2016, 10:09

Various Artists / Armada Chill

Used drive  : PIONEER DVD-RW DVRTD11RS   Adapter: 1  ID: 0

Read mode               : Secure
Utilize accurate stream : Yes
Defeat audio cache      : Yes
Make use of C2 pointers : No

Read offset correction                      : 6
Overread into Lead-In and Lead-Out          : No
Fill up missing offset samples with silence : Yes
Delete leading and trailing silent blocks   : No
Null samples used in CRC calculations       : Yes
Used interface                              : Native Win32 interface for Win NT & 2000
Gap handling                                : Appended to previous track

Used output format              : User Defined Encoder
Selected bitrate                : 1024 kBit/s
Quality                         : High
Add ID3 tag                     : No
Command line compressor         : C:\Program Files (x86)\Exact Audio Copy\Flac\flac.exe
Additional command line options : -8 -V -T "ARTIST=%artist%" -T "TITLE=%title%" -T "ALBUM=%albumtitle%" -T "DATE=%year%" -T "TRACKNUMBER=%tracknr%" -T "TOTALTRACKS=%numtracks%" -T "GENRE=%genre%" -T "ALBUMARTIST=%albumartist%" -T "ALBUM ARTIST=%albumartist%" -T "COMMENT=EAC Secure Mode, Test & Copy, AccurateRip, FLAC -8" %source%

TOC of the extracted CD

     Track |   Start  |  Length  | Start sector | End sector
    ---------------------------------------------------------
        1  |  0:00.00 |  3:12.10 |         0    |    14409
        2  |  3:12.10 |  4:17.52 |     14410    |    33736
        3  |  7:29.62 |  5:03.14 |     33737    |    56475
        4  | 12:33.01 |  3:12.25 |     56476    |    70900
        5  | 15:45.26 |  6:13.36 |     70901    |    98911
        6  | 21:58.62 |  3:18.10 |     98912    |   113771
        7  | 25:16.72 |  2:39.31 |    113772    |   125727
        8  | 27:56.28 |  2:59.33 |    125728    |   139185
        9  | 30:55.61 |  3:25.14 |    139186    |   154574
       10  | 34:21.00 |  3:14.51 |    154575    |   169175
       11  | 37:35.51 |  3:40.10 |    169176    |   185685
       12  | 41:15.61 |  4:10.10 |    185686    |   204445
       13  | 45:25.71 |  6:07.48 |    204446    |   232018
       14  | 51:33.44 |  7:19.19 |    232019    |   264962
       15  | 58:52.63 |  3:38.67 |    264963    |   281379
       16  | 62:31.55 |  3:37.25 |    281380    |   297679
       17  | 66:09.05 |  3:34.71 |    297680    |   313800
       18  | 69:44.01 |  3:20.26 |    313801    |   328826
       19  | 73:04.27 |  2:57.53 |    328827    |   342154

Track  1

     Filename I:\EAC\Various Artists - Armada Chill (2016) [FLAC]\CD2\01 - Haywyre - Moment.wav

     Pre-gap length  0:00:02.00

     Peak level 99.9 %
     Extraction speed 2.9 X
     Track quality 100.0 %
     Test CRC 28F875E1
     Copy CRC 28F875E1
     Track not present in AccurateRip database
     Copy OK

Track  2

     Filename I:\EAC\Various Artists - Armada Chill (2016) [FLAC]\CD2\02 - Leona Lewis - Private Party (Gregers Lounge Mix).wav

     Peak level 100.0 %
     Extraction speed 3.3 X
     Track quality 100.0 %
     Test CRC 7F0D883C
     Copy CRC 7F0D883C
     Track not present in AccurateRip database
     Copy OK

Track  3

     Filename I:\EAC\Various Artists - Armada Chill (2016) [FLAC]\CD2\03 - Lucky Sun - Cycles.wav

     Peak level 95.5 %
     Extraction speed 3.7 X
     Track quality 100.0 %
     Test CRC 1F1B97CA
     Copy CRC 1F1B97CA
     Track not present in AccurateRip database
     Copy OK

Track  4

     Filename I:\EAC\Various Artists - Armada Chill (2016) [FLAC]\CD2\04 - Ianick feat. Per Kamfjord - See Through My Eyes.wav

     Peak level 100.0 %
     Extraction speed 3.7 X
     Track quality 100.0 %
     Test CRC 6DBE725E
     Copy CRC 6DBE725E
     Track not present in AccurateRip database
     Copy OK

Track  5

     Filename I:\EAC\Various Artists - Armada Chill (2016) [FLAC]\CD2\05 - Bjorn Akesson - Paper Dreams (Ambient Mix).wav

     Peak level 98.5 %
     Extraction speed 3.8 X
     Track quality 99.9 %
     Test CRC 863AF51C
     Copy CRC 863AF51C
     Track not present in AccurateRip database
     Copy OK

Track  6

     Filename I:\EAC\Various Artists - Armada Chill (2016) [FLAC]\CD2\06 - Wild Royal Coast - It's All About Love.wav

     Peak level 99.7 %
     Extraction speed 4.2 X
     Track quality 100.0 %
     Test CRC 40DEB598
     Copy CRC 40DEB598
     Track not present in AccurateRip database
     Copy OK

Track  7

     Filename I:\EAC\Various Artists - Armada Chill (2016) [FLAC]\CD2\07 - Arty feat. Tania Zygar - The Wall (Acoustic Mix).wav

     Peak level 100.0 %
     Extraction speed 4.2 X
     Track quality 100.0 %
     Test CRC CBE4767C
     Copy CRC CBE4767C
     Track not present in AccurateRip database
     Copy OK

Track  8

     Filename I:\EAC\Various Artists - Armada Chill (2016) [FLAC]\CD2\08 - Levi feat. Tom Villon - Hero.wav

     Peak level 96.2 %
     Extraction speed 4.5 X
     Track quality 100.0 %
     Test CRC 13B14123
     Copy CRC 13B14123
     Track not present in AccurateRip database
     Copy OK

Track  9

     Filename I:\EAC\Various Artists - Armada Chill (2016) [FLAC]\CD2\09 - Rodg - Perfect Night.wav

     Peak level 96.5 %
     Extraction speed 3.8 X
     Track quality 99.9 %
     Test CRC E538CDB0
     Copy CRC E538CDB0
     Track not present in AccurateRip database
     Copy OK

Track 10

     Filename I:\EAC\Various Artists - Armada Chill (2016) [FLAC]\CD2\10 - Neumodel feat. Sirius Trema - DiCaprio On Acid.wav

     Peak level 98.8 %
     Extraction speed 4.8 X
     Track quality 100.0 %
     Test CRC 7ACDDF99
     Copy CRC 7ACDDF99
     Track not present in AccurateRip database
     Copy OK

Track 11

     Filename I:\EAC\Various Artists - Armada Chill (2016) [FLAC]\CD2\11 - Dayate - Follow The Sunshine.wav

     Peak level 98.8 %
     Extraction speed 5.0 X
     Track quality 100.0 %
     Test CRC 573643BD
     Copy CRC 573643BD
     Track not present in AccurateRip database
     Copy OK

Track 12

     Filename I:\EAC\Various Artists - Armada Chill (2016) [FLAC]\CD2\12 - Ben Phipps feat. Ashe - Don't Look Back.wav

     Peak level 96.9 %
     Extraction speed 5.3 X
     Track quality 100.0 %
     Test CRC C4D7AEC4
     Copy CRC C4D7AEC4
     Track not present in AccurateRip database
     Copy OK

Track 13

     Filename I:\EAC\Various Artists - Armada Chill (2016) [FLAC]\CD2\13 - Funkstar De Luxe - Sun Is Shining (Pole Folder & Jose Maria Ramon Rework).wav

     Peak level 98.6 %
     Extraction speed 5.7 X
     Track quality 100.0 %
     Test CRC D6BCC5C2
     Copy CRC D6BCC5C2
     Track not present in AccurateRip database
     Copy OK

Track 14

     Filename I:\EAC\Various Artists - Armada Chill (2016) [FLAC]\CD2\14 - Malecka - Last Night (Vocal Mix).wav

     Peak level 94.4 %
     Extraction speed 6.1 X
     Track quality 100.0 %
     Test CRC 03B53E79
     Copy CRC 03B53E79
     Track not present in AccurateRip database
     Copy OK

Track 15

     Filename I:\EAC\Various Artists - Armada Chill (2016) [FLAC]\CD2\15 - Jan Blomqvist - Empty Floor.wav

     Peak level 96.6 %
     Extraction speed 5.8 X
     Track quality 100.0 %
     Test CRC 86D56D95
     Copy CRC 86D56D95
     Track not present in AccurateRip database
     Copy OK

Track 16

     Filename I:\EAC\Various Artists - Armada Chill (2016) [FLAC]\CD2\16 - Afro Medusa - Pasilda (Original 12 Westway Mix).wav

     Peak level 100.0 %
     Extraction speed 5.9 X
     Track quality 100.0 %
     Test CRC 6A686D7C
     Copy CRC 6A686D7C
     Track not present in AccurateRip database
     Copy OK

Track 17

     Filename I:\EAC\Various Artists - Armada Chill (2016) [FLAC]\CD2\17 - Sebastien feat. Satellite Empire - Escape.wav

     Peak level 100.0 %
     Extraction speed 6.0 X
     Track quality 100.0 %
     Test CRC A8DD1A35
     Copy CRC A8DD1A35
     Track not present in AccurateRip database
     Copy OK

Track 18

     Filename I:\EAC\Various Artists - Armada Chill (2016) [FLAC]\CD2\18 - Silience feat. Joe Michel - Remember Me.wav

     Peak level 98.8 %
     Extraction speed 6.1 X
     Track quality 100.0 %
     Test CRC 3E9A5405
     Copy CRC 3E9A5405
     Track not present in AccurateRip database
     Copy OK

Track 19

     Filename I:\EAC\Various Artists - Armada Chill (2016) [FLAC]\CD2\19 - Blondee & Marc Werner feat. Fabienne Rothe - Wonderful Days.wav

     Peak level 98.8 %
     Extraction speed 6.1 X
     Track quality 100.0 %
     Test CRC C0AC3FAA
     Copy CRC C0AC3FAA
     Track not present in AccurateRip database
     Copy OK

None of the tracks are present in the AccurateRip database

No errors occurred

End of status report

---- CUETools DB Plugin V2.1.4

[CTDB TOCID: .dqhM3vTD0x8s9Lg17WEHN8qUCQ-] disk not present in database
Submit result: .dqhM3vTD0x8s9Lg17WEHN8qUCQ- has been uploaded

==== Log checksum D5E0F9944E552BD355949BC389273F5D1CB714128020E8E093E2817576D43DCE ====

Код: выделить все

-----------------------

DON'T MODIFY THIS FILE

-----------------------

PERFORMER: auCDtect Task Manager, ver. 1.6.0 RC1 build 1.6.0.1
Copyright (c) 2008-2010 y-soft. All rights reserved
http://y-soft.org

ANALYZER: auCDtect: CD records authenticity detector, version 0.8.2
Copyright (c) 2004 Oleg Berngardt. All rights reserved.
Copyright (c) 2004 Alexander Djourik. All rights reserved.

FILE: 19 - Blondee & Marc Werner feat. Fabienne Rothe - Wonderful Days.flac
  Size: 17877012 Hash: BE5F4645FD36DCD2B7ABD842B92B3FEB Accuracy: -m0
  Conclusion: CDDA 100%
  Signature: 94358591782901A5E70687A44D0742DCE3D181E7
FILE: 18 - Silience feat. Joe Michel - Remember Me.flac
  Size: 23440227 Hash: 1259B1A4240F71F2E763C793CB1B7E13 Accuracy: -m0
  Conclusion: CDDA 100%
  Signature: 3D3308CDE2EE31D14BE2BCAD3A3785A72F42C892
FILE: 17 - Sebastien feat. Satellite Empire - Escape.flac
  Size: 22715398 Hash: EC26E2016D56214A39576C778B24CDF1 Accuracy: -m0
  Conclusion: CDDA 100%
  Signature: 1CFA36BD14B827F4B9A03633B875323A4442F412
FILE: 16 - Afro Medusa - Pasilda (Original 12 Westway Mix).flac
  Size: 23250779 Hash: 8051955995E3F369CA3731E8209125D7 Accuracy: -m0
  Conclusion: CDDA 100%
  Signature: 628BB6D32C93300A329218E20BD7FEA962928E7A
FILE: 15 - Jan Blomqvist - Empty Floor.flac
  Size: 25330033 Hash: 0C60F5A7A18D698D264DA5129BFF375C Accuracy: -m0
  Conclusion: CDDA 100%
  Signature: 58C7D8AAFE514BCEBACE7FE8821C9AF1FD50CA03
FILE: 14 - Malecka - Last Night (Vocal Mix).flac
  Size: 43391288 Hash: 855FA2E565EC37B18ADBCB28D6F47A43 Accuracy: -m0
  Conclusion: CDDA 100%
  Signature: 285386E186DC2B4061E72A15FE717FAED5F4F0B2
FILE: 13 - Funkstar De Luxe - Sun Is Shining (Pole Folder & Jose Maria Ramon Rework).flac
  Size: 34673482 Hash: AEC87CD6615A69B6FE9B637E4FB1921A Accuracy: -m0
  Conclusion: CDDA 100%
  Signature: F2C123A8CFDC0C00E81B54CA30BAFA495AFA398E
FILE: 12 - Ben Phipps feat. Ashe - Don't Look Back.flac
  Size: 27042365 Hash: 4B9A2F44A49534F5F46C5166DB37E2B6 Accuracy: -m0
  Conclusion: CDDA 100%
  Signature: 5AFF60A858374728D092265EB8F7EC99FC4D57FD
FILE: 11 - Dayate - Follow The Sunshine.flac
  Size: 22075241 Hash: 9B1667BEAF0838A8E982CC6F53609324 Accuracy: -m0
  Conclusion: CDDA 100%
  Signature: FDEBE0AC1F160F7CE1EFDEDF05267F98637CE643
FILE: 10 - Neumodel feat. Sirius Trema - DiCaprio On Acid.flac
  Size: 18442045 Hash: EA2A8B7477597ED600D494B83E1A4F70 Accuracy: -m0
  Conclusion: CDDA 100%
  Signature: B144DA1B0809C07DF4967AAFB738C1B8218145B1
FILE: 09 - Rodg - Perfect Night.flac
  Size: 15851446 Hash: FE05CBB92034A4FDFFA2F5C79AEA14F7 Accuracy: -m0
  Conclusion: CDDA 100%
  Signature: 6447AD2F210E9FB6FA256241C46FE226C0444ECD
FILE: 08 - Levi feat. Tom Villon - Hero.flac
  Size: 21363695 Hash: CB2BB80AA7339E9802F299B3CD31B040 Accuracy: -m0
  Conclusion: MPEG 95%
  Signature: CAA80C8D7E90F98F636EDC6576414E6992E04217
FILE: 07 - Arty feat. Tania Zygar - The Wall (Acoustic Mix).flac
  Size: 15797059 Hash: AC302DA557A954EB3E2DD118C780AC58 Accuracy: -m0
  Conclusion: CDDA 100%
  Signature: 6AC7FD306A58019F42D81C92C0DD9D552D6BE56A
FILE: 06 - Wild Royal Coast - It's All About Love.flac
  Size: 22950244 Hash: D4D6BA234E3EAF211D5BE91310A56EFD Accuracy: -m0
  Conclusion: MPEG 95%
  Signature: 3F3FC0607261C1A3135B9B0C7BF253F3BB6E908C
FILE: 05 - Bjorn Akesson - Paper Dreams (Ambient Mix).flac
  Size: 44025054 Hash: 0A0CE90C494BCCE14F96DA74269972C2 Accuracy: -m0
  Conclusion: CDDA 99%
  Signature: 43C011A46404F16D41CD1F450016E0DA07B9B17E
FILE: 04 - Ianick feat. Per Kamfjord - See Through My Eyes.flac
  Size: 21272784 Hash: 8596E2A46F3FA76BE38B285127CDA76B Accuracy: -m0
  Conclusion: CDDA 100%
  Signature: 913C96FB056099C2EFD6EA9B1E1E333FBD8A4B05
FILE: 03 - Lucky Sun - Cycles.flac
  Size: 30840694 Hash: B594D6AA200C46A9E036EFB0863F0739 Accuracy: -m0
  Conclusion: CDDA 100%
  Signature: 6A24F05D4DE18C70DA0BAC62402418A5B20932A0
FILE: 02 - Leona Lewis - Private Party (Gregers Lounge Mix).flac
  Size: 29972685 Hash: E264EAC652A50A62EB9D5DC537FF2CE7 Accuracy: -m0
  Conclusion: CDDA 100%
  Signature: B4504532699C83AD55692E90333234621281B8B5
FILE: 01 - Haywyre - Moment.flac
  Size: 21505431 Hash: 7B8AF7038497E096C16576F757662AD1 Accuracy: -m0
  Conclusion: CDDA 100%
  Signature: 762D3F2CC0031CE75900E5E608AD916F4B89B0E9

Время раздачи: 24/7
[NNMClub.to]_VA - Armada Chill 2016 [Poland Release] (2016) [FLAC-CD].torrent
 Торрент:   Зарегистрирован
 
Примагнититься
Free Leech
Зарегистрируйтесь и скачайте торрент!
23,9 KB
 Зарегистрирован:   10 Окт 2016 08:18:52
 Размер:   983 MB  (
 Рейтинг:   4,9 (Голосов: 19)
 Поблагодарили:   93
 Проверка:   Оформление проверено модератором 10 Окт 2016 08:20:48
Как cкачать  ·  Как раздать  ·  Правильно оформить  ·  Поднять ратио!  
numealand
 
Стаж: 8 лет 11 мес.
Сообщений: 306
Ratio: 9,226
Поблагодарили: 195
100%
russia.gif
Отличная, расслабляющая музыка. Фоном самое то!
Показать сообщения:   
Начать новую тему   Ответить на тему    Торрент-трекер NNM-Club -> Electronic -> Easy listening (Lossless) Часовой пояс: GMT + 3
Страница 1 из 1