Интеллигентный торрент-трекер
canvas not supported
Нас вместе: 4 341 939

Ров / Ditch (2016) BDRip [H.264/1080p] [EN]


 
 
RSS
Начать новую тему   Ответить на тему    Торрент-трекер NNM-Club -> Зарубежное кино -> Фильмы в оригинале (HD)
Автор Сообщение
smaster67 ®
Модератор Видео
Покровитель талантов Uploader 300+
Стаж: 7 лет 9 мес.
Сообщений: 6612
Ratio: 195,418
Поблагодарили: 191361
100%
Ров / Ditch (2016) BDRip [H.264/1080p] [EN]

Производство: США
Жанр: ужасы, триллер

Режиссер: Джо Хендрик
Актеры: Билл Оберст мл., Кэти Фоли, Зэк Силверман, Морган Бенуа, Линн Лаури, Грег Депетро, Сюзанн Гутьеррес, Кайл Моррис, Пэнди Суисайд, Гэбриел Де Санти, Саманта Доун, Брэд Поттс

Описание:
Главный герой фильма – маньяк, который идеально умеет скрывать своих внутренних демонов от окружающих его людей. Все что они видят, смотря на него, это мужчину старше тридцати лет, серьезного и хорошо одетого. Всегда в выглаженном костюме с длинным галстуком, вежлив и спокоен, но это лишь образ, скрывающий его настоящую личину. Когда внутренний гнев вырывается наружу, а разум будто застилает пеленой, герой надевает перчатки, чтобы не запачкать рук и закидывает галстук на плечо. Его любимое оружие это хорошо заточенный топор, орудуя им, он уже расправился с десятком людей и так и не был схвачен. Каждую свою жертву он выбирает не случайно. В голове у него свои правила жизни и если он видит, что кто их нарушает, то сам же и выносит приговор. Спастись от столь нацеленного зла почти невозможно, но шанс есть.



Продолжительность: 01:16:09
Качество видео: BDRip 1080p
Перевод: Отсутствует
Язык озвучки: Английский

Видео: AVC, 1920x968 (1.983), 8762 kbps, 23,976 fps, 0,197 bpp
Аудио: английский / DTS / 5.1 / 48 kHz / 1509 kbps / 24 bit
Код: выделить все
General
Unique ID                                Ditch-1080p.mkv
Format                                   : Matroska
Format version                           : Version 4 / Version 2
File size                                : 5.46 GiB
Duration                                 : 1 h 16 min
Overall bit rate                         : 10.3 Mb/s
Encoded date                             : UTC 2016-10-07 02:59:48
Writing application                      : mkvmerge v9.0.1 ('Obstacles') 64bit
Writing library                          : libebml v1.3.3 + libmatroska v1.4.4

Video
ID                                       : 1
Format                                   : AVC
Format/Info                              : Advanced Video Codec
Format profile                           : High@L4.1
Format settings, CABAC                   : Yes
Format settings, ReFrames                : 4 frames
Codec ID                                 : V_MPEG4/ISO/AVC
Duration                                 : 1 h 16 min
Bit rate                                 : 8 762 kb/s
Width                                    : 1 920 pixels
Height                                   : 968 pixels
Display aspect ratio                     : 1.983
Frame rate mode                          : Constant
Frame rate                               : 23.976 (24000/1001) FPS
Color space                              : YUV
Chroma subsampling                       : 4:2:0
Bit depth                                : 8 bits
Scan type                                : Progressive
Bits/(Pixel*Frame)                       : 0.197
Stream size                              : 4.66 GiB (85%)
Writing library                          : x264 core 148 r2705 3f5ed56
Encoding settings                        : cabac=1 / ref=4 / deblock=1:0:0 / analyse=0x3:0x113 / me=umh / subme=7 / psy=1 / psy_rd=1.00:0.00 / mixed_ref=1 / me_range=16 / chroma_me=1 / trellis=1 / 8x8dct=1 / cqm=0 / deadzone=21,11 / fast_pskip=0 / chroma_qp_offset=-2 / threads=12 / lookahead_threads=2 / sliced_threads=0 / nr=0 / decimate=1 / interlaced=0 / bluray_compat=0 / constrained_intra=0 / bframes=3 / b_pyramid=2 / b_adapt=2 / b_bias=0 / direct=3 / weightb=1 / open_gop=0 / weightp=2 / keyint=250 / keyint_min=23 / scenecut=40 / intra_refresh=0 / rc_lookahead=50 / rc=2pass / mbtree=1 / bitrate=8762 / ratetol=1.0 / qcomp=0.60 / qpmin=0 / qpmax=69 / qpstep=4 / cplxblur=20.0 / qblur=0.5 / ip_ratio=1.40 / aq=1:1.00
Default                                  : Yes
Forced                                   : No

Audio
ID                                       : 2
Format                                   : DTS
Format/Info                              : Digital Theater Systems
Mode                                     : 16
Format settings, Endianness              : Big
Codec ID                                 : A_DTS
Duration                                 : 1 h 16 min
Bit rate mode                            : Constant
Bit rate                                 : 1 509 kb/s
Channel(s)                               : 6 channels
Channel positions                        : Front: L C R, Side: L R, LFE
Sampling rate                            : 48.0 kHz
Frame rate                               : 93.750 FPS (512 spf)
Bit depth                                : 24 bits
Compression mode                         : Lossy
Stream size                              : 822 MiB (15%)
Language                                 : English
Default                                  : Yes
Forced                                   : No

Скриншоты:



Время раздачи: с 13:00 до 23:00
[NNMClub.to]_Ditch-1080p.mkv.torrent
 Торрент: Золотая раздача  Зарегистрирован
 
Примагнититься
Free Leech
Зарегистрируйтесь и скачайте торрент!
27,5 KB
 Зарегистрирован:   10 Окт 2016 23:12:26
 Размер:   5,46 GB  (
 Рейтинг:    (Голосов: 8)
 Поблагодарили:   48
 Проверка:   Оформление проверено модератором 10 Окт 2016 23:13:12
Как cкачать  ·  Как раздать  ·  Правильно оформить  ·  Поднять ратио!  
Загрузка...
poxer77
Стаж: 2 года 7 мес.
Сообщений: 5
Ratio: 5,832
4.72%
russia.gif
ditch-дичь
Жора Суперстар
Стаж: 6 лет 2 мес.
Сообщений: 124
Ratio: 8,771
Раздал: 4,339 TB
11.39%
russia.gif
imdb 4.2 !!

_________________
Искусство посредством торрентов принадлежит народу...
eonefteme
Стаж: 4 года 3 мес.
Сообщений: 66
Ratio: 2,228
92.72%
а перевод будет?
Показать сообщения:   
Начать новую тему   Ответить на тему    Торрент-трекер NNM-Club -> Зарубежное кино -> Фильмы в оригинале (HD) Часовой пояс: GMT + 3
Страница 1 из 1

День смеха и юмора отмечается 1 апреля. В этот день принято шутить и разыгрывать друзей, коллег по работе, домашних, словом всех, с кем Вам предстоит увидеться в этот праздник – первое апреля. Первоапрельские розыгрыши, приколы на 1 апреля, первоапрельские шутки должны быть веселыми и безобидными. Приколы на 1 апреля, как правило, удаются в том случае, если человек забыл какой сегодня месяц и день, словом, забыл про 1 апреля – день смеха, шуток, день дурака.

Желаем Вам много улыбок и хорошего настроения в этот день!
С Уважением, администрация NNM-Club :)