Интеллигентный торрент-трекер
canvas not supported
Нас вместе: 4 100 624

Отпетые напарники / Jue di tao wang / Skiptrace (2016) BDRip [H.264/720p] [EN]


 
 
RSS
Начать новую тему   Ответить на тему    Торрент-трекер NNM-Club -> Зарубежное кино -> Фильмы в оригинале (HD)
Автор Сообщение
smaster67 ®
Модератор Видео
Покровитель талантов Uploader 300+
Стаж: 7 лет 5 мес.
Сообщений: 6248
Ratio: 179,938
Поблагодарили: 173514
100%
Отпетые напарники / Jue di tao wang / Skiptrace (2016) BDRip [H.264/720p] [EN]

Производство: Китай, Гонконг, США
Жанр: боевик, комедия

Режиссер: Ренни Харлин
Актеры: Джеки Чан, Джонни Ноксвил, Бинбин Фань, Эрик Цан, Ив Торрес, Уинстон Чао, Майкл Вон, Чжан Ланьсинь, Вэй На

Описание:
Саманта, крестница честного полицейского Бенни, попадает в неприятности и оказывается в руках у преступного синдиката. Во главе этой преступной группировки стоит человек, за которым Бенни следил около десяти лет. Чтобы спасти Саманту, копу нужно поймать американского шулера и обменять его на девушку.



Продолжительность: 01:47:41
Качество видео: BDRip 720p
Перевод: Отсутствует
Язык озвучки: Английский

Видео: AVC, 1280x536 (2.40:1), 5754 kbps, 23,976 fps, 0,350 bpp
Аудио: английский / DTS / 5.1 / 48 kHz / 1509 kbps / 24 bit
Код: выделить все
General
Unique ID                              Skiptrace.2016.720p.mkv
Format                                   : Matroska
Format version                           : Version 4 / Version 2
File size                                : 5.46 GiB
Duration                                 : 1 h 47 min
Overall bit rate                         : 7 264 kb/s
Encoded date                             : UTC 2016-10-11 21:31:41
Writing application                      : mkvmerge v8.3.0 ('Over the Horizon') 64bit
Writing library                          : libebml v1.3.1 + libmatroska v1.4.2

Video
ID                                       : 1
Format                                   : AVC
Format/Info                              : Advanced Video Codec
Format profile                           : High@L4.1
Format settings, CABAC                   : Yes
Format settings, ReFrames                : 5 frames
Codec ID                                 : V_MPEG4/ISO/AVC
Duration                                 : 1 h 47 min
Bit rate                                 : 5 754 kb/s
Width                                    : 1 280 pixels
Height                                   : 536 pixels
Display aspect ratio                     : 2.40:1
Frame rate mode                          : Constant
Frame rate                               : 23.976 FPS
Color space                              : YUV
Chroma subsampling                       : 4:2:0
Bit depth                                : 8 bits
Scan type                                : Progressive
Bits/(Pixel*Frame)                       : 0.350
Stream size                              : 4.33 GiB (79%)
Writing library                          : x264 core 148 r2705 3f5ed56
Encoding settings                        : cabac=1 / ref=5 / deblock=1:0:0 / analyse=0x3:0x133 / me=umh / subme=7 / psy=1 / psy_rd=1.00:0.00 / mixed_ref=1 / me_range=16 / chroma_me=1 / trellis=1 / 8x8dct=1 / cqm=0 / deadzone=21,11 / fast_pskip=0 / chroma_qp_offset=-2 / threads=17 / lookahead_threads=2 / sliced_threads=0 / nr=0 / decimate=1 / interlaced=0 / bluray_compat=0 / constrained_intra=0 / bframes=3 / b_pyramid=2 / b_adapt=1 / b_bias=0 / direct=1 / weightb=1 / open_gop=0 / weightp=2 / keyint=250 / keyint_min=23 / scenecut=40 / intra_refresh=0 / rc_lookahead=40 / rc=2pass / mbtree=1 / bitrate=5754 / ratetol=1.0 / qcomp=0.60 / qpmin=0 / qpmax=69 / qpstep=4 / cplxblur=20.0 / qblur=0.5 / ip_ratio=1.40 / aq=1:1.00
Language                                 : English
Default                                  : Yes
Forced                                   : No

Audio
ID                                       : 2
Format                                   : DTS
Format/Info                              : Digital Theater Systems
Mode                                     : 16
Format settings, Endianness              : Big
Codec ID                                 : A_DTS
Duration                                 : 1 h 47 min
Bit rate mode                            : Constant
Bit rate                                 : 1 509 kb/s
Channel(s)                               : 6 channels
Channel positions                        : Front: L C R, Side: L R, LFE
Sampling rate                            : 48.0 kHz
Frame rate                               : 93.750 FPS (512 spf)
Bit depth                                : 24 bits
Compression mode                         : Lossy
Stream size                              : 1.14 GiB (21%)
Language                                 : English
Default                                  : Yes
Forced                                   : No

Menu
00:00:00.000                             : en:00:00:00.000
00:06:04.990                             : en:00:06:04.990
00:13:12.959                             : en:00:13:12.959
00:20:20.803                             : en:00:20:20.803
00:27:23.767                             : en:00:27:23.767
00:34:51.506                             : en:00:34:51.506
00:43:05.082                             : en:00:43:05.082
00:49:09.280                             : en:00:49:09.280
00:55:45.509                             : en:00:55:45.509
01:04:06.342                             : en:01:04:06.342
01:09:07.602                             : en:01:09:07.602
01:15:53.632                             : en:01:15:53.632
01:23:22.998                             : en:01:23:22.998
01:30:19.331                             : en:01:30:19.331
01:39:44.145                             : en:01:39:44.145
01:43:30.746                             : en:01:43:30.746

Скриншоты:



Время раздачи: с 13:00 до 23:00
[NNMClub.to]_Skiptrace.2016.720p.mkv.torrent
 Торрент: Серебряная раздча  Зарегистрирован
 
Примагнититься
Free Leech
Зарегистрируйтесь и скачайте торрент!
27,5 KB
 Зарегистрирован:   12 Окт 2016 10:20:28
 Размер:   5,46 GB  (
 Рейтинг:   4,1 (Голосов: 10)
 Поблагодарили:   55
 Проверка:   Оформление проверено модератором 12 Окт 2016 10:21:15
Как cкачать  ·  Как раздать  ·  Правильно оформить  ·  Поднять ратио!  


Последний раз редактировалось: smaster67 (12 Окт 2016 12:50:13), всего редактировалось 1 раз
Andrey Marchenko
 
Стаж: 5 лет 5 мес.
Сообщений: 619
Ratio: 18,786
Поблагодарили: 13113
100%
Откуда: Иркутск
russia.gif
Это кто-же так перевел название фильма?) он уже давно на трекере с названием "По следу", что гораздо ближе к оригиналу
для сравнения

_________________


Intel Core i5-3570K CPU@3,40GHz ОЗУ 8Gb Windows 10 Pro x64 NVidia GeForce GTX 670
Longyder
Стаж: 5 лет 4 мес.
Сообщений: 13
Ratio: 1,226
30.48%
russia.gif
Andrey Marchenko писал(а): Перейти к сообщению
Это кто-же так перевел название фильма?) он уже давно на трекере с названием "По следу", что гораздо ближе к оригиналу
для сравнения

Фильм так обозвал российский прокатчик "Экспонента". У фильма будет официальный русский дубляж и его покажут в кинотеатрах, но по дате пока неизвестно когда.
Показать сообщения:   
Начать новую тему   Ответить на тему    Торрент-трекер NNM-Club -> Зарубежное кино -> Фильмы в оригинале (HD) Часовой пояс: GMT + 3
Страница 1 из 1